#TITLE:Love Cheat!;
#SUBTITLE:;
#ARTIST:Mosaic.wav;
#TITLETRANSLIT:;
#SUBTITLETRANSLIT:;
#ARTISTTRANSLIT:;
#GENRE:Silly J-Pop;
#CREDIT:Ace Of Hearts;
#BANNER:Love Cheat - bn.png;
#BACKGROUND:Love Cheat - bg.jpg;
#LYRICSPATH:;
#CDTITLE:Ace Of Hearts.png;
#MUSIC:Love Cheat!.ogg;
#OFFSET:1.131;
#SAMPLESTART:59.100;
#SAMPLELENGTH:12.000;
#SELECTABLE:YES;
#BPMS:0.000=195.000;
#STOPS:;
#BGCHANGES:-2.500=Love Cheat! Video.avi=1.000=0=0=0=StretchNoLoop====,
324.000=Love Cheat! Ending Screen.png=1.000=0=0=0=StretchNoLoop====,
99999=-nosongbg-=1.000=0=0=0 // don't automatically add -songbackground-
;
#KEYSOUNDS:;

//---------------dance-single - Ace Of Hearts (2010)----------------
#NOTES:
     dance-single:
     Ace Of Hearts (2010):
     Hard:
     9:
     0.705,0.000,0.141,0.924,0.020:
0000
0000
0000
0000
,
0000
0000
0000
0000
,
0000
0000
0000
0000
,
0000
0000
0000
0000
,
0000
0000
0000
0000
,
0000
0000
0000
0000
,
0000
0000
0000
0000
,
0002
0003
2000
3000
,
0002
2003
3020
0230
,
0301
1000
0100
0010
0100
1000
0000
0002
,
0000
0103
0010
1000
0001
0100
0000
0000
,
0000
0010
1000
0001
0010
0001
0000
2000
,
0000
3010
0100
0000
0001
0000
2000
0000
,
3010
1000
0001
1000
0001
0100
0000
0020
,
0000
0130
0001
1000
0010
1000
0000
0000
,
0000
0001
0010
0001
1000
0100
0000
0020
,
0000
0130
1000
0000
0001
0000
0100
0000
,
0020
0000
0000
1030
0100
1000
0001
0100
,
0001
1000
0010
1000
0001
0010
0001
0010
,
0100
0010
0001
1000
0001
1000
0100
0010
,
0000
0000
2002
3000
0000
0103
0010
1000
,
0001
0010
0001
2000
0000
3010
0100
0010
,
1000
0001
0100
0020
0000
0130
0001
1000
,
0100
0010
0100
1000
0002
0000
0103
0010
,
1000
0001
0010
0002
0000
0003
0000
1000
,
0010
0100
0010
1000
0001
0010
0100
0010
,
0200
0000
1300
0002
0000
2003
0000
3020
,
0000
0130
2002
0000
3003
0000
0220
0000
,
0330
0001
0000
2000
0000
3010
0100
0001
,
1000
0100
1000
0001
0100
0010
1000
0001
,
2000
0000
3100
0020
0000
0130
1000
0001
,
0100
0010
0100
0001
1000
0100
0010
0001
,
2000
0000
3001
0200
0000
0300
0000
0010
,
1000
0001
0010
0001
2000
0000
3010
0100
,
0001
0000
1000
0200
0000
0310
0001
1000
,
0001
0000
0202
0300
1003
0000
1020
0000
,
0430
0004
0000
0000
0000
0000
0000
0000
0000
0000
0000
0000
0303
0000
0000
0000
,
0000
0000
0001
1000
0200
0000
0300
0020
,
0000
0130
1000
0001
2000
0000
3200
0000
,
0300
0000
0010
0000
0002
0000
0003
2000
,
0000
3010
0100
0001
2000
0000
3002
0000
,
0003
0000
0010
0100
2000
0000
3000
0001
,
0100
0010
1000
0001
0020
0000
0230
0000
,
0320
0000
0031
2000
0000
3200
0000
1300
,
0002
0000
0000
0000
0203
0000
0000
0000
0320
0000
0000
0000
2030
0000
0000
3000
,
1001
0000
0011
0000
0020
0130
0000
1100
,
0000
0101
0000
0002
1003
0000
1100
0000
,
4000
0004
0000
0000
0000
0000
0000
0000
0000
0000
0000
0000
3003
0000
0000
0000
,
0000
0000
0040
0400
0000
0000
0000
0000
0000
0000
0000
0000
0330
0000
0000
0000
,
0000
0100
0001
0100
0001
2000
0000
3200
,
0000
0310
0001
0010
0001
2000
0000
3020
,
0000
0130
0002
0000
2003
0000
3200
0000
,
0310
0001
0000
2000
0000
3000
0000
0000
,
0000
0100
0010
0100
0010
0002
0000
0203
,
0000
0310
1000
0010
1000
0002
0000
0003
,
0000
1000
0010
0100
0001
0000
1000
0100
,
0000
0010
0001
0000
2002
0000
3003
0000
,
0000
1000
0010
0100
0001
2000
0000
3200
,
0000
0310
0100
1000
0001
0200
0000
0320
,
0000
0030
1000
0000
0001
0000
0100
0000
,
0010
0100
0000
0002
0000
0003
0000
0000
,
0000
1000
0100
0010
0100
2000
0000
3002
,
0000
0003
1000
0010
0100
0002
0000
0003
,
1000
0100
0010
0100
0010
0001
1000
0100
,
0020
0000
0130
2000
0000
3002
0000
0000
,
0043
0230
4300
3002
,
0000
4003
0000
3400
0340
0030
1001
0000
,
1000
0001
0010
0100
1000
0001
0000
0020
,
0000
0031
1000
0010
0100
0001
0000
0000
,
0000
1000
0100
1000
0001
0100
0000
0020
,
0000
1030
0001
0000
1000
0000
0200
0000
,
0310
0001
0010
0100
1000
0001
0000
2000
,
0000
3010
0100
0001
1000
0100
0000
0000
,
0000
1000
0001
0100
0010
1000
0000
0020
,
0000
1030
0001
0000
0100
0000
0010
0000
,
2020
0030
0000
3001
0010
0001
1000
0010
,
1000
0001
0100
0001
1000
0100
1000
0001
,
1000
0001
0100
0010
0100
0001
1000
0010
,
0000
0000
0000
1000
0010
0000
0000
0000
0100
0000
0000
0000
0001
0000
0000
0000
1000
0000
0000
0000
0100
0000
0000
0000
0010
0000
0000
0000
0100
0000
0000
0000
,
1000
0000
0100
0000
0010
0000
0001
0000
0000
0000
0000
0000
2002
0000
0000
0003
,
0000
0000
0000
0000
0002
0000
0000
0003
0000
0000
0004
0000
0000
0000
0000
0000
,
3003
0000
0000
0000
;

//---------------dance-single - Ace Of Hearts (2010)----------------
#NOTES:
     dance-single:
     Ace Of Hearts (2010):
     Challenge:
     11:
     1.000,0.448,0.804,1.000,0.271:
0000
0000
0000
0000
,
2002
3000
0013
0100
2000
0000
3001
0020
,
0000
0000
0130
0000
1000
0000
0001
0000
0100
0010
1000
0000
0001
0000
0010
0000
,
0220
0030
1300
0001
0200
0000
0310
2000
,
0000
0000
3001
0000
0010
0100
0010
0000
0001
1000
0001
0000
1000
0000
0100
0010
,
0002
0000
1003
0010
0200
0000
0310
2000
,
0000
0000
3001
0000
0200
0000
0000
0000
0301
0100
0001
0000
1000
0000
0010
0000
,
2000
3000
0200
0300
,
2000
0000
0000
0000
3200
0000
0000
0000
0320
0000
0000
0000
0031
1000
0010
0100
,
0001
1000
0100
0010
0001
0100
0000
0120
,
0000
1030
0001
0010
0100
1000
0001
0000
,
1001
0001
0001
0001
0010
0001
0000
0201
,
0000
0310
1000
0000
1001
0000
0002
0000
,
0013
0100
0010
0001
1000
0010
0000
0210
,
0000
0301
1000
0100
1000
0001
0100
0000
,
0110
0010
0010
0010
1000
0001
0000
0201
,
0000
0310
1000
0000
0100
0000
0010
0000
,
0021
0031
1000
2010
3010
0100
0201
0301
,
1000
2100
3100
0010
0021
0031
1000
0010
,
0100
0001
1000
0010
1000
0001
0100
0010
,
0000
0000
0000
0000
2020
0000
0030
0000
3001
0000
0010
0001
1000
0100
1000
0100
,
0020
0031
1000
0020
0000
0130
0001
2001
,
3100
0120
0031
2000
0000
3100
1000
0001
,
0201
0310
1000
0100
0020
0000
0130
2100
,
3001
0021
0130
2000
0000
3000
0000
0001
,
0201
0310
1000
0001
0100
0020
1030
1002
,
0103
0120
1030
0002
0000
0023
0000
0230
,
0000
2000
0001
3300
0202
0000
1000
0003
,
0310
0000
2000
0000
0000
0000
3001
0000
1000
0100
1000
0001
0100
0010
0100
0001
,
2000
3001
0010
0100
0010
0001
0100
0120
,
1030
1200
0310
0001
0100
0010
1000
0001
,
0201
0310
1000
0100
0010
0001
1000
1020
,
0130
0102
0013
0100
1000
0001
0010
0100
,
2100
3001
0010
0001
0100
0010
1000
1002
,
0013
0210
1300
0001
0100
0010
1000
0002
,
0200
0000
1000
0303
2200
0000
0001
3300
,
1000
0001
0100
0010
1000
0001
0010
0100
1000
0001
0100
0001
1000
0001
0100
0010
,
0000
0000
1010
0010
0200
0000
0300
0102
,
0000
0000
1003
0000
0100
0000
0010
0000
0100
1000
0001
0000
1000
0100
0020
0000
,
0001
0030
2002
3003
2020
3030
0000
0202
,
0300
0000
0013
0000
0100
0000
1000
0000
0001
0010
0100
0000
2000
0000
3001
0100
,
0000
0000
0120
1030
2001
3100
0010
0001
,
0100
0000
0010
0000
1000
0000
1100
0000
0100
0010
0001
1000
0001
0100
0010
1000
,
0002
0000
0103
0120
0000
2030
0000
3001
,
0200
0000
0000
0000
0310
0000
2010
0000
3002
0000
0000
0000
0023
0000
0000
0030
,
0110
0000
1100
0000
0102
0013
0000
0110
,
0000
0000
1100
0000
0000
0000
0002
0003
0101
0000
0000
0000
0100
0000
0000
0000
,
0010
1000
0001
0100
0010
1000
0001
0010
0200
0000
1300
0000
0001
0000
0100
0000
,
0010
0000
1000
0010
1000
0001
0100
0001
4000
0000
3400
0000
0340
0000
0000
0000
,
0030
0001
1001
1000
1000
0020
0000
0230
,
0000
0301
0011
0010
0010
0200
0000
2300
,
0000
0000
3001
0000
0201
0000
0000
0000
0320
0000
1030
0001
0020
0000
0000
0000
,
0031
0000
0201
0000
0000
0000
0320
0000
0000
0000
1030
0000
0001
0100
0010
0000
,
1000
1100
0100
0100
0100
0020
0000
0032
,
0000
0000
0103
0000
0110
0000
0010
0000
0010
0000
2000
0000
3100
0010
0001
0000
,
0000
0100
0001
0100
0010
0000
1010
1000
,
0000
0000
1001
0000
0001
0000
0000
0000
0022
0000
0003
0000
0130
1000
0001
0100
,
0010
1000
1001
0001
0100
0020
0000
2030
,
0000
3001
0101
0100
0010
2000
0000
3200
,
0000
0000
0300
0000
0110
0000
0000
0000
0010
0001
1000
0000
0002
0000
0000
0000
,
0103
0000
0110
0000
0000
0000
0010
1000
0001
0000
0010
0000
0001
0000
0100
0000
,
0010
1000
1100
0100
0010
0002
0000
0203
,
0000
0000
0300
0000
0101
0000
0001
0000
1000
0000
0020
0000
0000
0000
0130
0001
,
0100
0010
1000
0001
0010
0001
1000
0010
0100
0001
1000
0100
0010
0100
1000
0001
,
0020
0000
0031
2000
0000
3020
0000
0030
,
0240
0000
0030
0000
0302
0000
0000
0003
2004
0000
0003
0000
3020
0000
0000
0000
,
0030
0240
0030
0304
0043
0030
0220
0330
,
0100
1000
1002
0103
0010
1000
0000
1200
,
0000
0310
0100
1000
0001
0100
0020
0000
,
0230
0301
0001
0001
1000
0100
0000
0120
,
0000
0031
1000
0000
1100
0000
0200
0000
,
0310
0001
0100
0010
1000
0001
0000
0020
,
0000
0031
0100
0010
1000
0001
0020
0000
,
0230
1300
1000
1000
0001
0100
0000
0120
,
0000
1030
0100
0000
1000
0000
0001
0000
,
0021
0130
1000
1002
0103
0010
2010
3100
,
0010
0012
1003
0010
0210
0301
1000
1200
,
0320
0032
2003
3020
2030
3002
0203
0310
,
0000
0000
0000
0100
0001
0000
0000
0000
1000
0000
0000
0000
0100
0000
0000
0000
0010
0000
0000
0000
0100
0000
0000
0000
1000
0000
0000
0000
0001
0000
0000
0000
,
0100
0000
0001
0000
1000
0000
0010
0000
0000
0000
0000
0000
2002
0000
0000
0003
,
0000
0000
0000
0000
0002
0000
0000
0003
0000
0000
0004
0000
0000
0000
0000
0000
,
3003
0000
0000
0000
;

//---------------dance-single - Ace Of Hearts (2010)----------------
#NOTES:
     dance-single:
     Ace Of Hearts (2010):
     Medium:
     7:
     0.535,0.000,0.010,0.814,0.000:
0000
0000
0000
0000
,
0000
0000
0000
0000
,
0000
0000
0000
0000
,
0000
0000
0000
0000
,
0000
0000
0000
0000
,
0000
0000
0000
0000
,
0000
0000
0000
0000
,
2000
3000
0002
0003
,
1000
0100
0010
0001
,
1000
0010
1000
0000
0001
0100
0000
0010
,
0000
1000
0001
0000
1000
0100
0000
0000
,
0000
0010
0001
0000
1000
0001
0000
0020
,
0000
0031
1000
0000
0001
0000
0200
0000
,
0310
1000
0010
0000
1000
0001
0000
0020
,
0000
0031
1000
0000
0010
1000
0000
0000
,
0000
0001
0100
0000
0010
0100
0000
0002
,
0000
1003
0100
0000
0010
0000
0001
0000
,
0020
0000
0000
0032
0000
0000
2003
0000
,
0000
3020
0000
0000
2030
0000
0000
3001
,
0010
0000
0002
0000
0000
2003
0000
3000
,
0000
0020
0000
1030
,
0001
0000
1000
0200
0000
0000
1300
0000
,
0001
0000
1000
0020
0000
0000
1030
0000
,
0001
0010
0001
1000
,
0010
0000
1000
0002
0000
0003
0000
0010
,
0001
1000
0010
0100
,
0001
0000
1000
0200
0000
0320
0000
0031
,
0000
1000
0002
0000
1003
0000
0020
0000
,
1030
0001
0000
0200
0000
0301
1000
0000
,
0100
0010
0100
1000
,
0001
0000
1000
0020
0000
1030
0001
0000
,
0010
0001
1000
0010
,
1000
0000
0001
0200
0000
0300
0000
0010
,
1000
0001
0010
0100
,
1000
0000
0001
0100
0000
0010
0100
0000
,
0001
2000
3001
0020
,
0034
0000
0000
0003
,
0000
0000
1000
0010
2000
0000
0000
3001
,
0000
1000
0100
0000
0010
0000
0100
0000
,
0000
0000
0020
0000
0230
0000
0000
2300
,
0000
3001
0100
0000
0020
0000
0230
0000
,
0300
0000
0002
0000
2003
0000
3000
0100
,
0010
0001
2000
3200
,
0320
0000
0031
2000
0000
3002
0000
0000
,
2003
3200
0320
0032
,
1003
0000
0010
0000
1000
0001
0000
0010
,
0000
0010
0000
0100
1000
0000
0001
0000
,
0040
0000
0000
0030
,
0000
0400
0000
0000
0000
0000
0300
0000
,
0000
0010
0002
0000
1003
0200
0000
2300
,
0000
3001
0200
0000
0310
2000
0000
3002
,
0000
1003
0010
0000
1000
0000
0001
0000
,
0010
0100
0000
2000
0000
0000
3000
0000
,
0000
0001
0020
0000
0031
2000
0000
3020
,
0000
0130
0002
0000
1003
0200
0000
0300
,
0000
0010
0001
0000
1000
0000
0010
1000
,
0000
0001
0100
0000
0020
0000
0030
0000
,
0000
1000
0001
0000
1000
0020
0000
0230
,
0000
0301
1000
0000
0001
0010
0000
0002
,
0000
1003
0010
1000
,
0001
0010
0000
0200
0000
0300
0000
0000
,
0000
0010
0001
0000
1000
0020
0000
0230
,
0000
0300
0002
0000
1003
0200
0000
0000
,
0310
0002
0000
0000
1003
0000
0010
0000
,
2000
0000
3001
0200
0000
0320
0000
0000
,
4030
3000
0004
0003
,
0000
0040
0000
0430
4300
0000
3000
0000
,
0001
0010
0001
0000
1000
0200
0000
0320
,
0000
0031
1000
0000
0001
0100
0000
0000
,
0000
0001
1000
0000
0010
1000
0000
0002
,
0000
1003
0100
0000
0010
0000
0002
0000
,
1003
0010
1000
0000
0001
0100
0000
0020
,
0000
1030
0001
0000
1000
0100
0000
0000
,
0000
0010
0001
0000
1000
0001
0000
0020
,
0000
0031
1000
0000
0010
0000
1000
0000
,
0002
0000
0000
0203
0000
0000
0320
0000
,
0000
2030
0000
0000
3002
0000
0000
1003
,
0010
0000
1000
0000
0001
0000
1000
0010
,
0000
1000
0001
0000
0010
0000
0100
0000
,
1000
0100
0010
0001
0000
0000
2002
0000
,
0000
0000
0003
0000
0000
0004
0000
0000
,
3003
0000
0000
0000
;

//---------------dance-single - Ace Of Hearts (2010)----------------
#NOTES:
     dance-single:
     Ace Of Hearts (2010):
     Easy:
     5:
     0.274,0.000,0.010,0.151,0.000:
0000
0000
0000
0000
,
0000
0000
0000
0000
,
0000
0000
0000
0000
,
0000
0000
0000
0000
,
0000
0000
0000
0000
,
0000
0000
0000
0000
,
0000
0000
0000
0000
,
0000
0000
0000
0000
,
0000
0000
0000
0000
,
0001
0000
0001
0000
0001
0000
0000
1000
,
0000
1000
1000
0000
,
0000
0000
0010
0000
0010
0000
0000
0100
,
0000
0100
0100
0000
,
0010
0000
0010
0000
0010
0000
0000
1000
,
0000
1000
1000
0000
,
0000
0000
0001
0000
0001
0000
0000
0100
,
0000
0100
0100
0000
,
0020
0000
0000
2030
,
0000
0000
0000
0000
3002
0000
0000
0023
,
0000
0000
0000
0000
0000
0000
0000
0030
,
0000
0002
0000
1003
,
1000
0000
0000
1000
0000
0000
0010
0000
,
0010
0000
0000
0010
0000
0000
0100
0000
,
0100
0000
0001
0001
,
0001
0000
0000
0001
0000
0000
0000
0000
,
1000
1000
1000
0000
,
0100
0000
0000
0100
0000
0000
0000
0000
,
0010
0020
0031
0002
,
2003
0000
3000
0000
,
0010
0010
0010
0000
,
0100
0000
0000
0100
0000
0000
0000
0000
,
0001
0001
0001
0000
,
1000
0000
0000
1000
0000
0000
0000
0000
,
0100
0100
0100
0000
,
0010
0000
0000
0010
0000
0000
0000
0000
,
0001
0002
1003
2000
,
3040
0000
0030
0000
,
0000
0000
1000
0000
1000
0000
0000
0001
,
0000
0001
0001
0001
,
0000
0000
0010
0000
0010
0000
0000
0100
,
0000
0100
0100
0100
,
0000
0000
1000
0000
1000
0000
0000
0001
,
0000
0001
0001
0001
,
1000
0000
0000
1000
0000
0000
0000
0000
,
0010
0010
0010
0000
,
0100
0000
0100
0000
0100
0000
0000
0001
,
0000
0001
0000
0000
1000
0000
1000
0000
,
0004
0000
0000
0003
,
4000
0000
0000
3000
,
0000
0000
0010
0000
0000
0010
0000
0000
,
0000
0000
1000
0000
0000
1000
0000
0000
,
0000
0001
0001
0001
,
0000
0001
0000
0000
0000
0000
0000
0000
,
0000
0000
0100
0000
0000
0100
0000
0000
,
0000
0000
0010
0000
0000
0010
0000
0000
,
0000
1000
1000
0001
,
0000
0001
0000
0000
0001
0000
0000
0000
,
0000
0000
1000
0000
0000
1000
0000
0000
,
0000
0000
0010
0000
0000
0010
0000
0000
,
0000
0100
0100
0100
,
0000
0100
0000
0000
0000
0000
0000
0000
,
0000
0000
0001
0000
0000
0001
0000
0000
,
0000
0000
1000
0000
0000
1000
0000
0000
,
0100
0000
0100
0000
,
0010
0000
0000
0010
0000
0000
0000
0000
,
0004
0003
4000
3000
,
0000
0400
0000
0000
0300
0000
0000
0000
,
1000
0000
1000
0000
1000
0000
0000
0001
,
0000
0001
0001
0000
,
0000
0000
0010
0000
0010
0000
0000
0100
,
0000
0100
0100
0000
,
1000
0000
1000
0000
1000
0000
0000
0001
,
0000
0001
0001
0000
,
0000
0000
0100
0000
0100
0000
0000
0010
,
0000
0010
0010
0000
,
2000
0000
0000
3002
,
0000
0000
2003
0000
,
3100
0000
0010
0000
0010
0000
0000
0001
,
0000
1000
0100
0000
1000
0000
1000
0000
,
1000
0000
0001
0010
0000
0000
2002
0000
,
0000
0000
0003
0000
0000
0004
0000
0000
,
3003
0000
0000
0000
;

//---------------dance-single - Ace Of Hearts (2010)----------------
#NOTES:
     dance-single:
     Ace Of Hearts (2010):
     Beginner:
     2:
     0.179,0.000,0.010,0.191,0.000:
0000
0000
0000
0000
,
0000
0000
0000
0000
,
0000
0000
0000
0000
,
0000
0000
0000
0000
,
0000
0000
0000
0000
,
0000
0000
0000
0000
,
0000
0000
0000
0000
,
0000
0000
0000
0000
,
0000
0000
0000
0000
,
0001
0000
0001
0000
,
0001
0000
0000
0000
,
0002
0000
0000
0000
,
0003
0000
0000
0000
,
1000
0000
1000
0000
,
1000
0000
0000
0000
,
2000
0000
0000
0000
,
3000
0000
0000
0000
,
0010
0000
0000
0010
,
0000
0000
0010
0000
,
0000
0010
0000
0000
,
0000
0020
0030
0000
,
0100
0000
0100
0000
,
0100
0000
0000
0000
,
0001
0000
0001
0000
,
0001
0000
0000
0000
,
1000
0000
1000
0000
,
1000
0000
0000
0000
,
0020
0030
0020
0030
,
0020
0000
0030
0000
,
1000
0000
1000
0000
,
1000
0000
0000
0000
,
0001
0000
0001
0000
,
0001
0000
0000
0000
,
0100
0000
0100
0000
,
0100
0000
0000
0000
,
0020
0030
0020
0030
,
0040
0000
0030
0000
,
0000
0000
1000
0000
,
1000
0000
1000
0000
,
0000
0000
0010
0000
,
0010
0000
0010
0000
,
0000
0000
0100
0000
,
0100
0000
0100
0000
,
0001
0000
0001
0000
,
1000
0000
1000
0000
,
0010
0010
0010
0000
,
2000
0000
3000
0000
,
0020
0000
0030
0000
,
0400
0000
0000
0300
,
0000
0001
0000
0001
,
0000
0100
0000
0100
,
0000
0010
0000
0010
,
0000
0010
0000
0000
,
0000
1000
0000
1000
,
0000
0001
0000
0001
,
0000
0010
0000
0010
,
0000
0010
0000
0000
,
0000
0001
0000
0001
,
0000
1000
0000
1000
,
0000
0100
0000
0100
,
0000
0100
0000
0000
,
0000
0010
0000
0010
,
0000
0001
0000
0001
,
0000
1000
0000
0000
,
0020
0000
0030
0000
,
2000
3000
0002
0003
,
0000
0020
0000
0000
0030
0000
0000
0000
,
0001
0000
0001
0000
,
0001
0000
0000
0000
,
0020
0000
0000
0000
,
0030
0000
0000
0000
,
0100
0000
0100
0000
,
0100
0000
0000
0000
,
2000
0000
0000
0000
,
3000
0000
0000
0000
,
0100
0000
0000
0100
,
0000
0000
0100
0000
,
0010
0010
0010
0010
,
0000
0001
0001
0000
,
2000
0000
0000
3000
0000
0000
2002
0000
,
0000
0000
0000
0000
0000
3003
0000
0000
;
