#TITLE:KappaNet Nitori;
#SUBTITLE:;
#ARTIST:Iosys;
#TITLETRANSLIT:;
#SUBTITLETRANSLIT:;
#ARTISTTRANSLIT:;
#GENRE:Silly J-Pop;
#CREDIT:Ace Of Hearts;
#BANNER:KappaNet Nitori - bn.png;
#BACKGROUND:KappaNet Nitori - bg.png;
#LYRICSPATH:;
#CDTITLE:Ace Of Hearts.png;
#MUSIC:KappaNet Nitori.ogg;
#OFFSET:0.291;
#SAMPLESTART:58.760;
#SAMPLELENGTH:12.000;
#SELECTABLE:YES;
#BPMS:0.000=180.020,96.000=90.000,104.000=180.000,233.000=90.000,241.000=180.000,249.000=90.000,251.000=180.000,329.250=-180.001,333.750=180.000;
#DISPLAYBPM:90.000:180.000;
#STOPS:;
#BGCHANGES:0.750=KappaNet Nitori Video.avi=1.000=0=0=1=====,
99999=-nosongbg-=1.000=0=0=0 // don't automatically add -songbackground-
;
#KEYSOUNDS:;

//---------------dance-single - Con Artist!!----------------
#NOTES:
     dance-single:
     Ace Of Hearts (2011):
     Challenge:
     12:
     0.880,0.000,0.398,0.732,0.784: // measure 1
0000
0000
0000
0000
,  // measure 2
0000
000M
00M0
000M
M000
0M00
0000
0000
,  // measure 3
0000
00M0
0000
0000
000M
0000
M000
0000
,  // measure 4
0000
0000
000M
0000
0000
M000
0000
00M0
,  // measure 5
M000
000M
0000
0000
00M0
0000
0000
0000
,  // measure 6
0000
0000
0000
0000
0000
000M
M000
00M0
,  // measure 7
0M00
000M
0000
0000
0000
M000
0000
0000
,  // measure 8
0M00
00M0
0000
000M
,  // measure 9
0000
M000
0000
00M0
0000
0000
0M00
0000
,  // measure 10
000M
0000
0000
0000
0000
0000
0000
M000
,  // measure 11
0000
000M
0000
00M0
0000
000M
0000
0000
,  // measure 12
0000
0M00
0000
0000
000M
0000
00M0
0000
,  // measure 13
0000
0000
000M
0000
0000
M000
0000
0M00
,  // measure 14
0000
0000
0000
00M0
,  // measure 15
0M00
0000
0000
0000
,  // measure 16
0000
0000
M000
0000
0000
000M
0000
0000
,  // measure 17
0000
0000
0000
2010
,  // measure 18
3001
0000
0020
0000
0000
0000
0030
0000
0000
0000
0002
0000
1003
0010
0000
0000
,  // measure 19
2000
0000
3001
0020
0000
0000
0130
0000
1000
0000
0001
0000
0000
0000
1000
0000
,  // measure 20
0010
0000
1000
0001
1000
0000
0100
0000
0010
0000
0100
1000
0100
0000
0010
0000
,  // measure 21
0001
0010
0100
1000
0001
0100
0010
1000
0001
1000
0100
0010
0001
1000
0001
0000
,  // measure 22
0000
0000
0100
0001
1000
0010
0100
0001
1000
0100
1000
0001
0100
0001
1000
0100
,  // measure 23
0010
0100
1000
0001
0100
0001
1000
0001
0010
0000
0200
0000
0000
0000
1300
0001
,  // measure 24
0000
0100
0002
0000
0000
0000
0000
0000
0000
0000
0000
0000
0000
0000
0000
0000
,  // measure 25
0023
0130
1000
0001
1000
0100
0020
0000
,  // measure 26
0032
0000
0000
0000
2003
0000
0000
0000
0000
0000
0000
0000
0000
0000
0000
0000
0000
0000
0000
0000
0000
0000
0000
0000
0000
0000
0000
0000
0000
0000
3100
0010
,  // measure 27
0001
0000
0000
0000
1000
0001
0010
0100
0010
0001
1000
0010
1000
0100
1000
0001
,  // measure 28
1000
0100
0010
0001
1000
0010
1000
0001
0010
0100
1000
0001
0100
0010
1000
0010
,  // measure 29
0100
0010
1000
0001
0010
0001
1000
0010
0100
0001
1000
0100
0010
0001
1000
0001
,  // measure 30
0010
0001
1000
0010
0000
0100
0010
1000
0001
0010
0000
0000
0001
0000
2000
0000
,  // measure 31
3010
0000
0000
0000
0010
1000
0001
0100
0010
0100
0001
1000
0100
0010
0001
0010
,  // measure 32
0100
1000
0001
0100
0010
0100
0001
1000
0100
0010
0100
1000
0001
0100
0010
0100
,  // measure 33
0001
1000
0100
0010
0001
1000
0001
0100
0010
1000
0001
0010
0100
0010
0001
1000
,  // measure 34
0010
1000
0001
0010
0100
1000
0001
0100
0010
0100
0001
1000
0001
0000
0010
0100
,  // measure 35
1000
0000
0000
0000
0001
0010
0001
1000
0010
0100
0010
1000
0001
0010
0001
1000
,  // measure 36
0010
0100
0001
1000
0100
0010
0001
1000
0100
1000
0001
0100
0010
1000
0010
0100
,  // measure 37
0001
1000
0100
0010
0001
0010
0100
1000
0001
0100
0001
1000
0100
0010
0100
1000
,  // measure 38
0001
1000
0010
0100
0020
0000
1030
0001
0100
0000
0001
1000
0100
0000
0010
0100
,  // measure 39
1000
0000
0000
0000
0001
0100
0010
0100
0001
1000
0100
0010
0100
1000
0001
0010
,  // measure 40
0001
1000
0010
1000
0001
0010
0100
1000
0100
0010
0001
1000
0010
0100
0001
1000
,  // measure 41
0100
0010
0100
1000
0001
0000
0001
0000
1000
0000
1000
0000
0010
0000
0010
0000
,  // measure 42
1000
0001
0100
0010
1000
0001
0010
0001
1000
0010
1000
0001
1000
0010
1000
0001
,  // measure 43
1000
0100
1000
0100
1000
0100
0020
0000
0000
0000
0000
0000
0130
0000
0000
1000
0000
0000
1001
0000
0000
0001
0000
0000
,  // measure 44
0100
0010
1010
1000
0001
1000
2200
0000
,  // measure 45
3300
0000
2002
3000
0103
0010
2020
3000
,  // measure 46
0130
0001
1001
1000
1100
0100
0220
0000
,  // measure 47
0330
0000
0000
0000
0012
0000
1003
0010
0200
0000
0301
1000
0200
0000
0310
0000
,  // measure 48
0100
1000
0000
0001
0200
0000
0310
0000
1000
0000
0001
0000
2002
0000
0000
0000
,  // measure 49
3003
0000
2100
3001
0100
0110
0000
0010
,  // measure 50
1000
0010
0210
0301
1000
1010
0000
0000
,  // measure 51
0100
0010
0100
0010
0100
0010
0200
0000
0000
0301
0000
0000
1000
0000
0000
0100
0000
0000
0120
0000
0000
0000
0000
0000
,  // measure 52
1030
0010
0012
1003
0010
0100
0202
0000
,  // measure 53
0303
0000
2002
0003
3010
0100
0102
1003
,  // measure 54
0100
0010
0022
0000
0033
0000
0020
0030
,  // measure 55
0000
0000
0000
0000
0001
1000
0010
0000
1000
0000
0002
0000
0003
0000
0000
0000
,  // measure 56
0000
0000
1000
0010
0100
0000
0001
1000
0100
0010
0000
0000
0001
0010
0100
0000
,  // measure 57
1000
0000
1001
0000
0001
0100
0110
0010
,  // measure 58
1010
1000
1001
0001
0010
0110
0000
0000
,  // measure 59
0200
0000
0000
0000
1300
1000
0000
0020
0000
0030
0200
0000
0301
0001
0000
0020
,  // measure 60
0000
0000
0230
0000
1300
1000
0000
1001
0000
0000
0002
0000
0103
0100
0000
0010
,  // measure 61
0100
0010
2000
0000
3100
0000
0020
0000
0031
0000
2000
0000
3100
0000
0020
0000
,  // measure 62
0031
0000
0100
0001
1000
0000
0200
0000
0310
0000
0002
0000
1003
0000
0020
0000
,  // measure 63
1030
0001
0202
0303
2200
3300
1010
0000
,  // measure 64
0101
0000
0011
0000
0110
0000
2100
0100
,  // measure 65
0001
0000
0001
0000
3010
0000
0010
0000
0100
0000
0100
0000
0001
0100
0001
1000
,  // measure 66
0001
1000
0100
0010
0100
1000
0001
0100
0010
1000
0001
0010
0001
0000
1000
0000
,  // measure 67
0010
0100
0002
0000
1003
0100
2200
0000
,  // measure 68
0020
0000
0000
0000
0002
0000
0000
0000
3333
0000
0000
0000
0001
0000
1000
0100
,  // measure 69
0010
0001
2000
0000
3010
0100
0101
0000
,  // measure 70
0011
0000
0000
0000
2100
0000
3001
0100
0010
0100
0001
0000
2000
0000
3100
0010
,  // measure 71
0001
1000
0020
0000
1030
0001
0011
0000
,  // measure 72
0101
0000
0000
0000
1020
0000
0100
0000
1030
0000
0001
0010
0100
0000
0010
0001
,  // measure 73
1000
0000
0001
0100
0020
0000
0000
0000
1030
0000
0001
0000
0101
0000
0000
0000
,  // measure 74
0011
0000
0000
0000
2100
0000
0001
0000
3001
0000
0010
0100
0010
0000
0001
1000
,  // measure 75
0010
1000
0020
0000
1030
0001
0202
0000
,  // measure 76
2000
0000
0000
0000
0020
0000
0000
0000
3333
0000
0000
0000
1000
0000
0001
0100
,  // measure 77
0010
1000
0002
0000
0013
0001
0101
0000
,  // measure 78
1010
0000
0000
0000
1000
0001
0010
0000
0001
0000
0200
0000
0301
0000
1000
0100
,  // measure 79
0010
0001
0200
0000
0310
1000
1100
0000
,  // measure 80
0110
0000
0000
0000
0010
0001
1000
0000
0010
1000
0001
0000
0020
0000
0130
1000
,  // measure 81
0001
1000
0020
0000
0130
0001
2002
0000
,  // measure 82
0200
0000
0000
0000
0020
0000
0000
0000
3333
0000
0000
0000
0002
0000
0000
1003
,  // measure 83
0100
0000
0100
0000
1000
0000
000M
0000
0M00
0000
00M0
0000
M000
M000
M000
M000
,  // measure 84
0000
000M
00M0
0000
000M
0000
M00M
0000
0000
0000
0000
0000
0000
0000
0000
0000
,  // measure 85
0000
0000
0000
0000
MMMM
0M0M
M0M0
0M0M
,  // measure 86
M0M0
0M0M
M0M0
0M0M
M0M0
0M0M
M0M0
0M0M
,  // measure 87
M0M0
0M0M
M0M0
0M0M
2000
0000
3001
0000
,  // measure 88
0200
0310
2000
3001
,  // measure 89
0010
0100
1000
0001
1000
0001
0100
0010
1000
0001
0010
0100
1000
0000
1000
0000
,  // measure 90
0001
0000
0001
0000
0100
0000
0100
0000
0001
0000
0001
0000
1000
0100
1000
0100
,  // measure 91
0010
0001
0010
0002
2000
0000
0000
0000
0000
0000
0000
0000
0000
0000
0000
0000
,  // measure 92
3003
0000
0000
0000
;

//---------------dance-single - TV Pitchgirl----------------
#NOTES:
     dance-single:
     Ace Of Hearts (2011):
     Hard:
     10:
     0.613,0.000,0.239,0.716,0.259: // measure 1
0000
0000
0000
0000
,  // measure 2
0000
0000
0000
0000
,  // measure 3
0000
0000
0000
0000
,  // measure 4
0000
0000
0000
0000
,  // measure 5
0000
0000
0000
0000
,  // measure 6
0000
0000
0000
0000
,  // measure 7
0000
0000
0000
0000
,  // measure 8
0000
0000
0000
0000
,  // measure 9
0000
0000
0000
0000
,  // measure 10
0000
0000
0000
0000
,  // measure 11
0000
0000
0000
0000
,  // measure 12
0000
0000
0000
0000
,  // measure 13
0000
0000
0000
0000
,  // measure 14
0000
0000
0000
0000
,  // measure 15
0000
0000
0000
0000
,  // measure 16
0000
0000
0000
0000
,  // measure 17
0000
0000
0000
0002
,  // measure 18
1003
0000
0010
0000
0000
0000
0000
0000
0000
0000
2000
0000
3001
0010
0000
0000
,  // measure 19
0002
0000
1003
0010
0000
0000
1000
0000
0001
0000
0010
0000
0100
0000
0010
0000
,  // measure 20
0000
0000
0001
1000
0001
0000
0010
0000
0001
1000
0001
0000
0100
0000
0010
0000
,  // measure 21
1000
0001
1000
0000
0001
0010
0001
0000
1000
0010
1000
0000
0001
0010
0001
0000
,  // measure 22
1000
0000
0000
0000
0010
1000
0010
0000
1000
0001
1000
0000
0010
1000
0010
0000
,  // measure 23
1000
0000
0001
0010
0001
0000
1000
0000
0001
0000
0010
0000
0000
0000
0001
2000
,  // measure 24
0000
3100
0020
0000
0000
0000
0000
0000
0000
0000
0000
0000
0000
0000
0000
0000
,  // measure 25
0032
1003
0010
1000
0001
0100
0020
0000
,  // measure 26
1030
0000
0000
0000
0002
0000
0000
0000
0000
0000
0000
0000
0000
0000
0000
0000
0000
0000
0000
0000
0000
0000
0000
0000
0000
0000
0000
0000
0000
0000
1003
0100
,  // measure 27
1000
0000
1001
0000
0001
0101
0000
0200
,  // measure 28
0000
0300
0110
0000
0010
1010
0000
2000
,  // measure 29
0000
3000
1001
0000
0001
0011
0000
0020
,  // measure 30
0000
0000
0030
0000
0100
0000
1000
0001
0010
0000
0001
0000
1000
0000
0020
0000
,  // measure 31
0130
0000
0101
0000
0001
1001
0000
2000
,  // measure 32
0000
3000
1100
0000
0100
0110
0000
0020
,  // measure 33
0000
0030
0011
0000
0001
0101
0000
0200
,  // measure 34
0000
0000
0300
0000
0010
1000
0010
1000
0001
0100
0001
0100
0010
0000
2000
0000
,  // measure 35
3001
0000
0101
0000
0100
0110
0000
0020
,  // measure 36
0000
0030
0110
0000
0100
0101
0000
0002
,  // measure 37
0000
0003
1001
0000
1000
1100
0000
0200
,  // measure 38
0000
0000
0300
0000
0010
0001
1000
0000
0010
0000
1000
0001
0010
0000
0001
1000
,  // measure 39
0100
0000
0110
0000
0010
0011
0000
0002
,  // measure 40
0000
0003
1001
0000
1000
1010
0000
0020
,  // measure 41
0000
0030
1000
0001
1000
0001
0100
0001
,  // measure 42
0100
0000
0001
0000
1000
0010
1000
0010
0100
0001
0100
0001
1000
0001
1000
0001
,  // measure 43
0040
0000
0004
0000
0000
0000
0000
0000
0000
0033
0000
0000
0020
0000
0000
0000
0000
0000
0000
0000
0000
0000
0000
0000
0130
0000
0000
0000
0000
0000
1000
0000
0000
0000
0000
0000
0001
0000
0000
0000
0000
0000
1000
0000
0000
0000
0000
0000
,  // measure 44
0010
0100
0010
0100
0001
1000
0200
0000
,  // measure 45
0300
0000
0020
0000
0031
1000
0010
1000
,  // measure 46
0001
0010
0001
1000
0100
1000
0020
0000
,  // measure 47
0030
0000
0000
0000
0100
0000
0001
1000
0010
0000
1000
0001
0010
0000
0001
0000
,  // measure 48
1000
0010
0000
1000
0001
0000
0010
0000
0001
0000
1000
0000
0200
0000
0000
0000
,  // measure 49
0300
0000
1000
0100
0010
0011
0000
0001
,  // measure 50
0010
0100
1000
1000
0001
0010
0000
0000
,  // measure 51
0004
0000
4000
0000
0000
0000
0000
0000
0000
3003
0000
0000
0001
0000
0000
0000
0000
0000
0100
0000
0000
0000
0000
0000
0010
0000
0000
0000
0000
0000
1000
0000
0000
0000
0000
0000
0002
0000
0000
0000
0000
0000
0000
0000
0000
0000
0000
0000
,  // measure 52
1003
0010
0100
0010
1000
0100
2000
0000
,  // measure 53
3000
0000
0020
0000
1030
0001
0010
0100
,  // measure 54
1000
0100
0020
0000
0000
0000
0032
0003
,  // measure 55
0000
0000
0000
0000
1000
0010
1000
0000
0001
0000
0010
0000
0000
0000
0000
0000
,  // measure 56
0000
0000
0010
0001
0010
0000
0001
0010
0100
1000
0000
0000
0001
0100
0001
0000
,  // measure 57
1000
0000
0010
0000
1000
0001
0010
0001
,  // measure 58
1000
0010
1000
0001
0001
0010
0000
0000
,  // measure 59
0002
0000
0000
0000
2003
0000
0000
3200
0000
0000
0310
0000
0002
0000
0000
2003
,  // measure 60
0000
0000
3100
0000
0020
0000
0000
0230
0000
0000
1300
0000
0002
0000
0000
0203
,  // measure 61
0000
0300
0020
0000
0000
2030
0000
3001
,  // measure 62
0010
0000
0200
0000
0000
2300
0000
0000
,  // measure 63
3001
0000
0200
0300
0020
0030
1010
0000
,  // measure 64
1000
1001
0001
0022
,  // measure 65
0000
0000
0000
0000
0033
0000
0001
1000
,  // measure 66
0010
0000
1000
0000
0001
0100
0001
0100
0010
1000
0010
1000
0001
0000
0010
0001
,  // measure 67
0010
0001
2000
0000
3010
1000
0002
0000
,  // measure 68
0023
0000
0000
0030
0220
0000
0000
0000
0330
0000
0000
0000
0100
0000
1000
0001
,  // measure 69
1000
0100
0020
0000
0031
1000
0002
0000
,  // measure 70
2003
0000
0000
3000
2020
0000
0000
0000
3030
0000
0000
0000
0010
0000
0100
0001
,  // measure 71
0100
0010
2000
0000
3001
0010
0002
0000
,  // measure 72
2003
0000
0000
3000
2200
0000
0000
0000
3300
0000
0000
0000
0100
0000
0010
0001
,  // measure 73
0010
0001
2000
0000
3010
0100
0002
0000
,  // measure 74
0023
0000
0000
0030
0220
0000
0000
0000
0330
0000
0000
0000
0010
0000
0001
1000
,  // measure 75
0010
1000
0002
0000
1003
0010
2000
0000
,  // measure 76
0200
0000
0000
0000
0020
0000
0000
0000
3330
0000
0000
0000
1000
0000
0001
0100
,  // measure 77
0010
1000
0002
0000
1003
0010
0200
0000
,  // measure 78
0002
0000
0000
0000
0020
0000
0000
0000
0333
0000
0000
0000
0001
0000
1000
0010
,  // measure 79
1000
0001
0020
0000
0031
1000
0020
0000
,  // measure 80
0200
0000
0000
0000
2000
0000
0000
0000
3330
0000
0000
0000
0010
0000
0100
0001
,  // measure 81
1000
0100
0020
0000
0031
0010
0002
0000
,  // measure 82
2000
0000
0000
0000
0020
0000
0000
0000
3033
0000
0000
0000
0002
0000
0000
1003
,  // measure 83
0010
0000
0010
0000
1000
0000
M000
0000
000M
0000
000M
0000
00M0
00M0
00M0
0M00
,  // measure 84
M000
0000
000M
0000
0M00
0M00
0M00
0000
M00M
0000
0000
0000
0000
0000
0000
0000
,  // measure 85
0000
0000
0000
0000
M00M
0MM0
M00M
0MM0
,  // measure 86
M00M
0MM0
M00M
0MM0
M00M
0MM0
M00M
0MM0
,  // measure 87
M00M
0MM0
M00M
0MM0
0002
0000
0103
0000
,  // measure 88
0010
1000
0001
0010
,  // measure 89
0200
0000
0320
0032
,  // measure 90
1003
0000
1000
0000
0010
0000
0010
0000
1000
0000
1000
0000
0001
0010
0001
0010
,  // measure 91
0100
1000
0100
1000
0002
0000
0000
0000
0000
0000
0000
0000
0000
0000
0000
0000
,  // measure 92
0003
0000
0000
0000
;

//---------------dance-single - Kiosk Pitcher----------------
#NOTES:
     dance-single:
     Ace Of Hearts (2011):
     Medium:
     8:
     0.494,0.000,0.008,0.668,0.032: // measure 1
0000
0000
0000
0000
,  // measure 2
0000
0000
0000
0000
,  // measure 3
0000
0000
0000
0000
,  // measure 4
0000
0000
0000
0000
,  // measure 5
0000
0000
0000
0000
,  // measure 6
0000
0000
0000
0000
,  // measure 7
0000
0000
0000
0000
,  // measure 8
0000
0000
0000
0000
,  // measure 9
0000
0000
0000
0000
,  // measure 10
0000
0000
0000
0000
,  // measure 11
0000
0000
0000
0000
,  // measure 12
0000
0000
0000
0000
,  // measure 13
0000
0000
0000
0000
,  // measure 14
0000
0000
0000
0000
,  // measure 15
0000
0000
0000
0000
,  // measure 16
0000
0000
0000
0000
,  // measure 17
0000
0000
0000
0002
,  // measure 18
1003
0010
0000
0000
0000
1000
0001
0010
,  // measure 19
0001
1000
0010
2000
0000
3002
0000
0013
,  // measure 20
0001
1000
0010
0100
0010
1000
0001
0010
,  // measure 21
0100
0010
0001
1000
0001
0100
0001
1000
,  // measure 22
0010
0000
1000
0001
0010
0001
1000
0010
,  // measure 23
0100
0000
0001
0000
1000
0000
0100
0000
0010
0000
0001
0000
2000
0000
0000
3002
,  // measure 24
0000
0023
0000
0000
0000
0000
0000
0000
,  // measure 25
0032
1003
0010
1000
0001
0010
0200
0000
,  // measure 26
1300
0000
0002
0000
0000
0000
0000
0000
0000
0000
0000
0000
0000
0000
0000
1003
,  // measure 27
0010
0000
1000
0000
0001
0010
0000
0200
,  // measure 28
0000
0300
1000
0000
0001
0100
0000
0020
,  // measure 29
0000
0030
1000
0000
0001
0010
0000
0200
,  // measure 30
0000
0300
0010
0001
1000
0010
0100
0010
,  // measure 31
1000
0000
0001
0000
0010
0100
0000
2000
,  // measure 32
0000
3000
0001
0000
0100
0010
0000
0200
,  // measure 33
0000
0300
0001
0000
1000
0100
0000
0020
,  // measure 34
0000
0030
0001
1000
0010
1000
0001
0010
,  // measure 35
0100
0000
0010
0000
0001
1000
0000
0020
,  // measure 36
0000
0030
0100
0000
0010
1000
0000
0002
,  // measure 37
0000
0003
0010
0000
0001
1000
0000
0200
,  // measure 38
0000
0300
0010
0001
1000
0010
1000
0001
,  // measure 39
0010
0000
0001
0000
1000
0010
0000
2000
,  // measure 40
0000
3000
0001
0000
0010
0100
0000
0020
,  // measure 41
0000
0030
0001
0010
0001
1000
0010
0100
,  // measure 42
0001
0000
1000
0000
0004
4000
0000
0000
0000
0000
0000
0000
0000
0000
3003
0000
,  // measure 43
0040
0000
2030
0000
3001
0100
0001
1000
,  // measure 44
0100
0010
0100
1000
0001
0100
0002
0000
,  // measure 45
0003
0000
2000
0000
3100
0010
0200
0000
,  // measure 46
1300
0001
0100
0001
1000
0100
0020
0000
,  // measure 47
0030
0000
0001
1000
0010
1000
0001
0010
,  // measure 48
0100
1000
0100
0010
0001
1000
0200
0000
,  // measure 49
0300
0000
1000
0100
0010
0001
0000
1000
,  // measure 50
0010
1000
0001
0001
1000
0010
0000
0000
,  // measure 51
4000
0000
3001
0100
0010
0100
0001
0000
,  // measure 52
1000
0010
0100
0001
0100
0010
2000
0000
,  // measure 53
3000
0000
0002
0000
0013
0001
1000
0010
,  // measure 54
0100
0010
2000
0000
0000
0000
3001
0000
,  // measure 55
0000
0000
0001
0010
0100
1000
0000
0000
,  // measure 56
0000
0001
0100
0010
1000
0001
0000
1000
,  // measure 57
0010
0000
1000
0000
0001
0010
0001
1000
,  // measure 58
0010
1000
0010
0010
0100
0001
0000
0000
,  // measure 59
2000
0000
0000
0000
3002
0000
0000
0023
0000
0000
0031
0000
2000
0000
0000
3020
,  // measure 60
0000
0000
0130
0000
0002
0000
0000
2003
0000
0000
3100
0000
0020
0000
0000
0230
,  // measure 61
0000
0300
2000
0000
0000
3002
0000
1003
,  // measure 62
0010
0000
0200
0000
0000
0310
0000
0000
,  // measure 63
1000
0000
0002
0003
2000
3000
0200
0000
,  // measure 64
1300
0002
0013
0220
,  // measure 65
0000
0000
0000
0330
,  // measure 66
0000
0000
0000
0000
0000
0000
0010
0001
,  // measure 67
1000
0001
0020
0000
0031
1000
0020
0000
,  // measure 68
0230
0000
0002
0000
0303
0000
0100
0010
,  // measure 69
1000
0001
0020
0000
0031
1000
0002
0000
,  // measure 70
2003
0000
0020
0000
3030
0000
1000
0001
,  // measure 71
0010
0100
2000
0000
3001
1000
0200
0000
,  // measure 72
2300
0000
0002
0000
3003
0000
1000
0010
,  // measure 73
0100
0010
2000
0000
3001
0010
0002
0000
,  // measure 74
0203
0000
0020
0000
0330
0000
0100
0001
,  // measure 75
1000
0100
0020
0000
0130
1000
0002
0000
,  // measure 76
2003
0000
0020
0000
3030
0000
1000
0001
,  // measure 77
0010
0001
2000
0000
3010
0100
0002
0000
,  // measure 78
2003
0000
0002
0000
3003
0000
1000
0100
,  // measure 79
0010
0001
0020
0000
0130
1000
0002
0000
,  // measure 80
0203
0000
0020
0000
0330
0000
0100
0001
,  // measure 81
1000
0100
0020
0000
0130
1000
0002
0000
,  // measure 82
2003
0020
3030
2000
,  // measure 83
3001
0000
0010
0000
0001
0000
M000
0000
00M0
0000
0M00
0000
000M
000M
000M
0000
,  // measure 84
M000
0M00
00M0
0000
M00M
0000
0000
0000
,  // measure 85
0000
0000
0000
0000
0MM0
M00M
0MM0
M00M
,  // measure 86
M00M
M00M
0MM0
M00M
0MM0
M00M
0MM0
M00M
,  // measure 87
0MM0
M00M
M00M
0MM0
1000
0000
0100
0000
,  // measure 88
0010
0001
1000
0001
,  // measure 89
0020
0000
0230
2300
,  // measure 90
0000
0000
3001
0001
1000
1000
0010
1000
,  // measure 91
0001
1000
0002
0000
0000
0000
0000
0000
,  // measure 92
0003
0000
0000
0000
;

//---------------dance-single - QVC Pitcher----------------
#NOTES:
     dance-single:
     Ace Of Hearts (2011):
     Easy:
     6:
     0.331,0.000,0.008,0.469,0.000: // measure 1
0000
0000
0000
0000
,  // measure 2
0000
0000
0000
0000
,  // measure 3
0000
0000
0000
0000
,  // measure 4
0000
0000
0000
0000
,  // measure 5
0000
0000
0000
0000
,  // measure 6
0000
0000
0000
0000
,  // measure 7
0000
0000
0000
0000
,  // measure 8
0000
0000
0000
0000
,  // measure 9
0000
0000
0000
0000
,  // measure 10
0000
0000
0000
0000
,  // measure 11
0000
0000
0000
0000
,  // measure 12
0000
0000
0000
0000
,  // measure 13
0000
0000
0000
0000
,  // measure 14
0000
0000
0000
0000
,  // measure 15
0000
0000
0000
0000
,  // measure 16
0000
0000
0000
0000
,  // measure 17
0000
0000
0000
0001
,  // measure 18
0001
0001
0000
1000
,  // measure 19
0010
0010
0100
0100
,  // measure 20
0001
0001
1000
1000
,  // measure 21
0010
0010
0020
0030
,  // measure 22
0000
1000
1000
1000
,  // measure 23
0001
0001
0200
0301
,  // measure 24
1000
2000
0000
0000
,  // measure 25
3001
0001
0010
0002
,  // measure 26
0000
2000
0000
0000
0000
0000
0000
3003
,  // measure 27
0000
0000
0001
0000
1000
0010
0000
2000
,  // measure 28
0000
0000
3010
0000
1000
0001
0000
0020
,  // measure 29
0000
0000
0031
0000
1000
0010
0000
2000
,  // measure 30
0000
3001
0001
0010
,  // measure 31
0010
0000
0001
0000
1000
0010
0000
2000
,  // measure 32
0000
0000
3001
0000
1000
0010
0000
2000
,  // measure 33
0000
0000
3001
0000
1000
0100
0000
0020
,  // measure 34
0000
0130
0100
1000
,  // measure 35
1000
0000
0001
0000
1000
0010
0000
2000
,  // measure 36
0000
0000
3001
0000
1000
0001
0000
0020
,  // measure 37
0000
0000
0031
0000
1000
0010
0000
2000
,  // measure 38
0000
3001
0001
0100
,  // measure 39
0100
0000
0010
0000
1000
0010
0000
0200
,  // measure 40
0000
0000
0301
0000
1000
0001
0000
0020
,  // measure 41
0000
0031
0001
1000
,  // measure 42
1000
0020
0000
0000
,  // measure 43
0030
1000
0001
0001
,  // measure 44
1000
0010
0010
0020
,  // measure 45
0030
1000
0001
0001
,  // measure 46
0001
0010
0010
0010
,  // measure 47
0000
0001
1000
1000
,  // measure 48
1000
0100
0100
0100
,  // measure 49
0000
0000
0010
0000
0001
0010
0000
0001
,  // measure 50
1000
0000
0010
0000
1000
0001
0000
0000
,  // measure 51
2000
3001
0010
0010
,  // measure 52
0001
1000
1000
2000
,  // measure 53
3000
0020
1030
0001
,  // measure 54
0001
0002
0000
0003
,  // measure 55
0000
1000
1000
0000
,  // measure 56
0000
0010
0010
0100
,  // measure 57
0100
0001
1000
0010
,  // measure 58
1000
0001
0000
0010
0000
0001
0000
0000
,  // measure 59
0000
2000
3000
0020
,  // measure 60
0030
2000
3000
0002
,  // measure 61
0003
0000
0020
0000
0000
0031
0000
0000
,  // measure 62
1000
0000
0020
0000
0000
1030
0000
0000
,  // measure 63
0001
0000
2000
3000
0002
0003
1000
0000
,  // measure 64
1000
0001
0001
0020
,  // measure 65
0000
0000
0000
0030
,  // measure 66
0000
0000
0000
0001
,  // measure 67
0001
1000
0010
2000
,  // measure 68
3002
0200
0303
0001
,  // measure 69
0001
1000
1000
0002
,  // measure 70
2003
0020
3030
1000
,  // measure 71
1000
0010
0010
0200
,  // measure 72
0302
2000
3003
0001
,  // measure 73
0001
0010
0010
0002
,  // measure 74
2003
0020
3030
1000
,  // measure 75
1000
0001
0001
0020
,  // measure 76
0230
2000
3300
0100
,  // measure 77
0100
0010
0010
0002
,  // measure 78
2003
0020
3030
1000
,  // measure 79
1000
0001
0001
2000
,  // measure 80
3002
0020
0033
0001
,  // measure 81
0001
1000
1000
0020
,  // measure 82
2030
0002
3003
1000
,  // measure 83
0010
0010
0M00
000M
,  // measure 84
000M
M000
M00M
0000
,  // measure 85
0000
0000
M00M
0MM0
,  // measure 86
M00M
0MM0
M00M
0MM0
,  // measure 87
M00M
0MM0
1000
1000
,  // measure 88
0001
0001
0100
0100
,  // measure 89
0020
0000
1030
0002
,  // measure 90
0000
0000
0000
0000
,  // measure 91
0003
2002
0000
0000
,  // measure 92
3003
0000
0000
0000
;

//---------------dance-single - Commercial----------------
#NOTES:
     dance-single:
     Ace Of Hearts (2011):
     Beginner:
     2:
     0.166,0.000,0.024,0.135,0.000: // measure 1
0000
0000
0000
0000
,  // measure 2
0000
0000
0000
0000
,  // measure 3
0000
0000
0000
0000
,  // measure 4
0000
0000
0000
0000
,  // measure 5
0000
0000
0000
0000
,  // measure 6
0000
0000
0000
0000
,  // measure 7
0000
0000
0000
0000
,  // measure 8
0000
0000
0000
0000
,  // measure 9
0000
0000
0000
0000
,  // measure 10
0000
0000
0000
0000
,  // measure 11
0000
0000
0000
0000
,  // measure 12
0000
0000
0000
0000
,  // measure 13
0000
0000
0000
0000
,  // measure 14
0000
0000
0000
0000
,  // measure 15
0000
0000
0000
0000
,  // measure 16
0000
0000
0000
0000
,  // measure 17
0000
0000
0000
0002
,  // measure 18
0000
0003
1000
0000
,  // measure 19
1000
0000
1000
0000
,  // measure 20
0001
0000
0001
0000
,  // measure 21
0010
0000
0010
0000
,  // measure 22
0000
0000
0001
0000
,  // measure 23
0001
0000
1000
0000
,  // measure 24
2002
0000
3003
0000
,  // measure 25
1000
0000
0000
0020
,  // measure 26
0000
0000
0000
0000
0000
0000
0000
0030
,  // measure 27
0000
1000
0000
1000
,  // measure 28
0000
0001
0000
0001
,  // measure 29
0000
0010
0000
0010
,  // measure 30
0000
0004
0000
0003
,  // measure 31
0000
1000
0000
1000
,  // measure 32
0000
0010
0000
0010
,  // measure 33
0000
1000
0000
1000
,  // measure 34
0000
0400
0000
0300
,  // measure 35
0000
1000
0000
1000
,  // measure 36
0000
0001
0000
0001
,  // measure 37
0000
0010
0000
0010
,  // measure 38
0000
0004
0000
0003
,  // measure 39
0000
0100
0000
0100
,  // measure 40
0000
0010
0000
0010
,  // measure 41
0000
1000
0000
1000
,  // measure 42
0000
0040
0000
0030
,  // measure 43
0000
1000
0000
1000
,  // measure 44
0000
0001
0000
0001
,  // measure 45
0000
0100
0000
0100
,  // measure 46
0000
0010
0000
0010
,  // measure 47
0000
1000
0000
1000
,  // measure 48
0000
0001
0000
0001
,  // measure 49
0000
0040
0000
0030
,  // measure 50
0000
0004
0000
0003
,  // measure 51
0000
0010
0000
0010
,  // measure 52
0000
0001
0000
0001
,  // measure 53
0000
1000
0000
1000
,  // measure 54
0000
2000
0000
3000
,  // measure 55
0000
0002
0003
0000
,  // measure 56
0000
2000
3000
0000
,  // measure 57
0000
0001
0000
0004
,  // measure 58
0000
0000
0000
0000
0000
0003
0000
0000
,  // measure 59
0000
2000
0000
3000
,  // measure 60
0000
0020
0000
0030
,  // measure 61
0000
1000
0000
1000
,  // measure 62
0000
0001
0000
0001
,  // measure 63
0000
0000
2000
3000
0002
0003
0010
0000
,  // measure 64
0000
0001
0000
2002
,  // measure 65
0000
0000
0000
3003
,  // measure 66
0000
0000
0000
0001
,  // measure 67
0000
0001
0000
1000
,  // measure 68
1000
1000
0000
0100
,  // measure 69
0000
0100
0000
0010
,  // measure 70
0010
0010
0000
0001
,  // measure 71
0000
0001
0000
1000
,  // measure 72
1000
1000
0000
0010
,  // measure 73
0000
0010
0000
0100
,  // measure 74
0100
0100
0000
0001
,  // measure 75
0000
0001
0000
0100
,  // measure 76
0100
0100
0000
0001
,  // measure 77
0000
0001
0000
1000
,  // measure 78
1000
1000
0000
0001
,  // measure 79
0000
0001
0000
0100
,  // measure 80
0100
0100
0000
0001
,  // measure 81
0000
0001
0000
0010
,  // measure 82
0010
0010
0000
0001
,  // measure 83
0000
0001
0000
M000
,  // measure 84
0000
M000
0000
0000
,  // measure 85
0000
0000
0MM0
0000
,  // measure 86
M00M
0000
0MM0
0000
,  // measure 87
0000
0000
1000
0000
,  // measure 88
1000
0000
0010
0000
,  // measure 89
0020
0000
0000
2030
,  // measure 90
0000
0000
0000
3000
,  // measure 91
0000
2002
0000
0000
,  // measure 92
3003
0000
0000
0000
;
