#TITLE:First Kiss;
#SUBTITLE:(Fandub);
#ARTIST:Cristina Vee & WhatOcean;
#TITLETRANSLIT:;
#SUBTITLETRANSLIT:;
#ARTISTTRANSLIT:;
#GENRE:J-Pop;
#CREDIT:AceOfHearts;
#BANNER:First Kiss Fandub - bn.png;
#BACKGROUND:First Kiss Fandub - bg.jpg;
#LYRICSPATH:First Kiss - Lyrics.lrc;
#CDTITLE:Ace Of Hearts.png;
#MUSIC:First Kiss -Fandub-.ogg;
#OFFSET:0.065;
#SAMPLESTART:76.700;
#SAMPLELENGTH:12.000;
#SELECTABLE:YES;
#BPMS:0.000=156.000;
#STOPS:6.500=1.500
;
#BGCHANGES:8.000=First Kiss Video.avi=1.000=0=0=0=StretchNoLoop====,
237.000=First Kiss - bg.jpg=1.000=0=0=1=Centered====,
99999=-nosongbg-=1.000=0=0=0 // don't automatically add -songbackground-
;
#KEYSOUNDS:;

//---------------dance-single - Expert----------------
#NOTES:
     dance-single:
     Ace Of Hearts (2010):
     Challenge:
     9:
     0.711,0.364,0.655,0.983,0.108: // measure 1
0000
0000
1001
0000
1000
0010
0100
0101
,  // measure 2
0000
0000
0000
0000
0002
0000
0000
0000
2000
0000
0000
0000
0000
0000
0000
0000
0000
0000
0000
0000
0010
3003
0000
0000
0000
0000
0000
0000
0000
0000
0000
0000
,  // measure 3
0001
0010
0100
1000
0001
0010
0100
1000
0001
0010
0100
1000
0001
0010
0100
1000
,  // measure 4
0020
0000
0000
0030
0110
0000
0000
0000
0200
0000
0310
0000
0000
0000
1020
0000
,  // measure 5
0000
0130
0001
2002
0000
3003
0000
1200
,  // measure 6
0000
0310
0001
0100
0010
1000
0100
0120
,  // measure 7
0000
0000
0001
0000
0002
0000
0030
0000
1003
0001
0100
0000
0110
0000
0100
0001
,  // measure 8
2000
0000
3020
0000
0230
0000
0301
2001
,  // measure 9
0000
3001
0010
0200
0000
0300
0000
0000
,  // measure 10
0200
0310
0001
0201
0000
0320
0000
2030
,  // measure 11
0000
0000
0000
0000
,  // measure 12
3000
0000
0000
0001
0010
0200
1300
1001
,  // measure 13
0001
0000
0100
0010
1000
0000
0100
0000
1000
0000
0010
0000
0100
0000
0001
0000
,  // measure 14
0011
0110
1100
1001
,  // measure 15
0101
0000
0100
0010
1000
0000
0001
0000
1001
0000
0001
0000
0100
0000
0220
0000
,  // measure 16
0000
0000
0000
0001
,  // measure 17
0330
0000
0100
0001
0100
1000
0100
0001
,  // measure 18
0000
0001
0010
0100
0000
0100
0010
0000
,  // measure 19
0011
0000
0001
0010
1000
0010
0001
0100
,  // measure 20
0000
0100
0010
1000
0000
1000
0100
0000
,  // measure 21
0110
0000
0010
0001
0100
0010
1000
0200
,  // measure 22
0000
0302
0M00
2003
000M
3020
M000
0032
,  // measure 23
00M0
0000
0000
0000
0000
0000
0000
0003
,  // measure 24
0M0M
1000
0100
0010
0100
1000
0001
0100
,  // measure 25
0110
0000
0100
0001
1000
0100
0010
0400
,  // measure 26
0000
0310
0100
1000
0001
0100
0010
1000
,  // measure 27
1001
0000
1000
0100
0010
0001
1000
0002
,  // measure 28
0003
0100
0001
0010
0100
1000
0001
0020
,  // measure 29
0030
0001
0100
0020
0030
1000
0001
0100
,  // measure 30
0001
1000
0000
2010
0000
3001
0000
0200
,  // measure 31
0000
0000
0301
1000
0004
0000
0000
0000
0000
0000
0000
0000
0000
0000
0000
0000
,  // measure 32
0003
0000
0000
0000
0000
0000
0201
0000
0000
0000
0320
0000
2030
0000
3200
0300
,  // measure 33
0220
0000
0000
0000
0000
0000
0000
0330
,  // measure 34
0000
0000
0000
0012
0000
1003
0010
0100
,  // measure 35
0220
0000
0030
0000
0302
0000
0000
1003
0010
0000
0200
0000
0301
0000
0020
0000
,  // measure 36
0000
0000
0000
0000
0000
0000
0130
1000
0001
1000
0010
0000
1000
0000
0001
0000
,  // measure 37
0011
0010
0100
2100
0000
3010
0000
0000
,  // measure 38
0110
0100
0001
2001
0000
3100
0000
1000
,  // measure 39
1020
0000
0000
0000
0230
0000
0000
0300
0102
0000
0000
0000
2003
0000
3000
0000
,  // measure 40
1200
0000
0000
0310
0022
0000
0000
0000
,  // measure 41
0033
0110
0110
0000
1100
1100
0000
0000
,  // measure 42
0012
0000
0203
0300
0120
1030
0000
1002
,  // measure 43
0000
0013
0100
2200
3300
1000
1000
1020
,  // measure 44
0000
0130
0001
1000
0100
0010
0100
2100
,  // measure 45
0000
0000
0010
0000
0020
0000
3000
0000
0130
0001
1000
0000
0100
0000
0010
0001
,  // measure 46
0020
0000
0230
0000
2300
0000
3010
0210
,  // measure 47
0000
0301
1000
2020
3030
0010
0010
0100
,  // measure 48
0001
1000
0001
0200
0000
0320
0000
1030
,  // measure 49
1002
0103
0010
0220
0330
0100
0101
0001
,  // measure 50
2002
3003
2200
3300
0120
0031
0000
0201
,  // measure 51
0000
0310
1000
2200
3300
0100
0100
0120
,  // measure 52
0000
0031
1000
0100
0010
0100
1000
1002
,  // measure 53
0000
0000
0100
0000
0200
0000
0000
0000
0303
0000
0001
0000
0001
0000
1000
0100
,  // measure 54
0020
0000
0032
0000
0203
0000
0310
2010
,  // measure 55
0000
3001
0010
0200
0000
1300
1000
0010
,  // measure 56
0100
0001
0010
0200
0000
0310
0000
0022
,  // measure 57
0000
0000
0000
0000
0000
0000
0030
2003
,  // measure 58
0000
3010
0110
0100
0102
1003
0100
0110
,  // measure 59
0010
0100
1000
0000
0001
0000
0101
0000
0000
0000
0100
0010
1000
0000
2002
0000
,  // measure 60
0000
3003
0000
0000
;

//---------------dance-single - Hard----------------
#NOTES:
     dance-single:
     Ace Of Hearts (2010):
     Hard:
     7:
     0.484,0.273,0.113,0.666,0.026:
0000
0000
1000
0000
0001
0010
0100
1000
,
0000
0010
0100
0000
0000
1001
0000
0000
,
0004
0400
0000
0000
0000
0000
0000
0000
0000
0000
0000
0000
0000
0000
0000
0303
,
0002
0000
1003
0000
0020
0130
0000
0002
,
0000
0013
0100
2000
0000
3000
0000
0200
,
0000
0310
0001
1000
0001
0100
0001
2000
,
0000
0000
3001
0000
0020
0000
0000
0000
0000
0000
0000
0000
0030
0000
0001
0010
,
0002
0000
0023
0000
0230
0000
1300
0002
,
0000
1003
0010
0200
0000
0300
0000
0000
,
0001
1000
0010
0200
0000
0301
0000
0020
,
0000
0000
0000
0000
,
0030
0000
0000
0001
0010
0100
1000
1001
,
0000
0001
1000
0100
0010
0001
1000
0100
,
0010
0100
1100
1000
,
1001
0000
0000
0000
0101
0000
0000
2020
,
0000
0000
3030
0110
,
0000
0000
0100
0001
1000
0001
0010
0100
,
0000
1000
0000
0001
0000
1000
0100
0000
,
1000
0000
0001
0100
0001
1000
0100
0010
,
0000
0100
0000
1000
0000
0001
0010
0000
,
0001
0000
1000
0100
1000
0001
0010
0002
,
0000
0023
0000
0230
0000
2300
0000
0002
,
0000
0000
0000
0000
0000
0000
0000
3003
,
0000
M00M
0000
0000
1000
0000
0010
0000
1000
0000
0010
0000
1000
0000
0000
0000
,
0000
0000
0001
0100
0010
0100
0001
1000
,
0000
0001
0000
0100
0000
0010
0100
0000
,
0001
0000
1000
0100
0010
0100
1000
0001
,
0000
0100
0000
0001
0000
1000
0010
1000
,
0000
0001
0100
0001
0000
1000
0001
1000
,
0100
0010
0000
0002
0000
0023
0000
0200
,
0000
0000
0000
0000
,
0330
0000
0000
0200
0000
1300
0001
2000
,
0020
0000
0000
0000
0000
0000
0000
3030
,
0000
0000
0000
2000
0000
3001
0100
0001
,
0020
0000
0230
0000
1300
0001
0100
0020
,
0000
0000
0000
0030
0000
0000
0000
0000
,
1000
0001
0100
0020
0000
0130
0000
0000
,
0001
1000
0100
0020
0000
0130
0000
1000
,
0020
0130
0002
1003
,
0200
0000
0000
0310
0002
0000
0000
0000
,
0003
1000
0001
0000
0101
0100
0000
0000
,
0020
0000
1030
0000
0001
0100
0000
0020
,
0000
1030
0001
0010
0000
0000
0000
0002
,
0000
1003
0010
0100
0001
1000
0100
0020
,
0000
0000
0000
0000
0200
0000
0000
0000
0330
0000
0000
0000
0000
0000
0010
0100
,
0020
0000
0032
0000
0203
0000
0310
2000
,
0000
3001
0010
0200
0000
0300
0000
1000
,
0001
0100
0010
0200
0000
0302
0000
1003
,
0010
1000
0001
0200
0000
0000
0300
0000
,
0110
0000
1001
0000
1000
0100
0000
0020
,
0000
0031
1000
0200
0000
0300
0000
2000
,
0000
3001
0100
0010
0100
0001
1000
0200
,
0000
0000
1300
0000
0002
0000
0000
0000
0000
0000
0003
0000
0000
0000
1000
0010
,
2000
0000
3002
0000
0203
0000
0310
2000
,
0000
3100
0010
0002
0000
0003
0000
0000
,
1000
0100
0010
0002
0000
2003
0000
0020
,
0000
0000
0000
0000
0000
0000
0000
3030
,
0000
0000
0000
1000
0001
0100
0010
0100
,
0001
1000
0010
0100
0000
0100
0001
2002
,
0000
3003
0000
0000
;

//---------------dance-single - Medium----------------
#NOTES:
     dance-single:
     Ace Of Hearts (2010):
     Medium:
     5:
     0.276,0.212,0.102,0.440,0.000:
0000
0000
0001
0000
0010
0000
0001
1000
,
0000
0001
0000
0000
0000
1001
0000
0000
,
0022
0000
0000
0033
,
0001
0000
0100
0000
0001
0000
0000
2000
,
0000
0000
0000
3100
0000
0000
0000
2000
,
0000
0000
3001
0000
0100
0000
0000
0020
,
0000
2000
3030
0000
,
0001
0000
0010
0000
0001
0000
0000
0020
,
0000
0000
0000
0130
0000
0000
0000
0000
,
2200
3300
0220
0330
,
0022
0000
0000
0000
,
0033
0000
0000
0000
0002
0000
0000
0103
,
0000
0010
0010
0000
,
1000
0001
0100
0000
,
0001
0000
0000
0000
1000
0000
0000
0200
,
0000
0000
0000
0310
,
0000
0000
0001
0000
0001
0000
0000
0010
,
0000
0000
0100
0000
,
0000
0000
1000
0000
1000
0000
0000
0100
,
0000
0000
0010
0000
,
0000
0000
0001
0000
0001
0000
0000
1000
,
0000
1000
0000
0010
0000
0100
0000
0020
,
0000
0000
0000
0000
0000
0000
0000
0030
,
0000
0100
0110
0100
,
0001
0000
1000
0000
0002
0000
0000
0013
,
0000
0100
0100
0100
,
1000
0000
0001
0000
0200
0000
0000
0310
,
0000
0000
1000
0000
1000
0000
0000
0010
,
0000
0000
0000
0010
0000
0000
0000
0000
,
0020
0000
0000
1030
0000
0000
0000
0200
,
0000
0000
0000
0000
,
0300
0000
0000
2000
0000
0000
3001
0000
,
0020
0000
0000
0000
0000
0000
0000
0030
,
0000
0000
0000
0002
0000
0000
1003
0000
,
0100
0000
1000
0000
0001
0000
0000
0020
,
0000
0000
0000
0030
0000
0000
0000
0000
,
0002
0000
0000
0103
0000
0000
0000
0000
,
0200
0000
0000
0310
0000
0000
0000
0000
,
0010
1000
0001
1000
,
0200
0000
0020
0000
,
0330
1001
1001
0000
,
0001
0000
0100
0000
0001
0000
0000
2000
,
0000
0000
0000
3100
0000
0000
0000
0020
,
0000
0000
0031
0000
0001
0000
0000
2000
,
0000
0000
3000
0000
,
0010
0000
0010
0000
0010
0000
0000
0200
,
0000
0000
0000
0301
0000
0000
0000
0000
,
2000
0000
0000
3100
0000
0000
0000
0000
,
0020
0000
0000
0130
0000
0000
0000
0000
,
1001
0000
1000
0000
0010
0000
0000
0200
,
0000
0000
0000
0301
0000
0000
0000
2000
,
0000
0000
3001
0000
0001
0000
0000
0020
,
0000
0000
0030
0000
,
0100
0000
0100
0000
0100
0000
0000
2000
,
0000
0000
0000
3010
0000
0000
0000
0000
,
0200
0000
0000
0301
0000
0001
0000
2000
,
0000
0000
0000
0000
0000
0000
0000
3000
,
0000
0000
0000
0000
0020
0000
0000
1030
,
0001
0000
1000
0001
0000
0010
0000
2002
,
0000
3003
0000
0000
;

//---------------dance-single - Easy----------------
#NOTES:
     dance-single:
     Ace Of Hearts (2010):
     Easy:
     3:
     0.158,0.121,0.061,0.266,0.000:
0000
0020
0000
0000
,
0000
0030
0000
0000
0000
1001
0000
0000
,
0200
0000
0000
0300
,
0001
0000
0001
0000
,
0001
0000
0000
0000
,
1000
0000
1000
0000
,
1000
0000
0000
0000
,
0010
0000
0010
0000
,
0010
0000
0000
0000
,
0220
0000
0330
0000
,
2002
0000
0000
0000
,
3003
0000
0010
0000
,
0020
0000
0000
0000
,
0030
0000
0000
0000
,
0200
0000
0000
0000
,
0300
0000
0000
0010
,
0000
0000
1000
0000
,
1000
0000
0000
0000
,
0000
0000
0001
0000
,
0001
0000
0000
0000
,
0000
0000
0010
0000
,
0010
0000
0010
0000
,
0020
0000
0000
0030
,
0000
0000
0000
0000
,
0000
0000
0100
0000
,
0100
0000
0000
0000
,
0000
0000
1000
0000
,
1000
0000
0000
0000
,
0001
0000
0001
0000
,
1000
0000
1000
0000
,
2000
0000
0000
0000
,
3000
0000
0010
0000
,
0220
0000
0000
0000
,
0330
0000
0100
0000
,
0100
0000
0100
0000
,
0100
0000
0000
0000
,
0002
0000
0003
0000
,
2000
0000
3000
0000
,
0010
0000
0010
0000
,
0020
0000
0030
0000
,
0110
0000
0000
0000
,
1000
1000
1000
0000
,
0002
0000
0003
0000
,
0100
0000
0100
0000
,
0200
0000
0300
0000
,
0010
0000
0010
0000
,
0020
0000
0030
0000
,
0100
0000
0100
0000
,
0200
0000
0300
0000
,
0001
0001
0001
0000
,
2000
0000
3000
0000
,
0010
0000
0010
0000
,
0020
0000
0030
0000
,
0100
0000
0100
0000
,
0200
0000
0300
0000
,
0001
0000
0001
0000
,
0002
0000
0000
0003
,
0000
0000
0200
0000
,
0300
0000
0010
0000
,
2002
3003
0000
0000
;

//---------------dance-single - Novice----------------
#NOTES:
     dance-single:
     Ace Of Hearts (2010):
     Beginner:
     1:
     0.102,0.121,0.051,0.184,0.000:
0000
2002
0000
0000
,
0000
0000
0000
0000
0000
3003
0000
0000
,
0020
0000
0030
0000
,
0001
0000
0000
0000
,
0000
0000
0000
0000
,
1000
0000
0000
0000
,
0000
0000
0000
0000
,
0010
0000
0000
0000
,
0000
0000
0000
0000
,
2002
0000
0000
0000
,
0000
0000
0000
0000
,
3003
0000
0000
0000
,
0020
0000
0000
0000
,
0030
0000
0000
0000
,
0010
0000
0000
0000
,
2002
0000
0000
3003
,
0000
0000
1000
0000
,
0000
0000
0000
0000
,
0000
0000
0001
0000
,
0000
0000
0000
0000
,
0000
0000
0010
0000
,
0000
0000
0000
0000
,
0020
0000
0000
0000
,
0030
0000
0000
0000
,
0000
0000
0100
0000
,
0000
0000
0000
0000
,
0000
0000
0000
0000
,
0001
0000
0000
0000
,
0000
0000
0100
0000
,
0000
0000
0000
0000
,
0002
0000
0000
0000
,
0003
0000
0000
0000
,
2002
0000
0000
0000
,
3003
0000
0000
0000
,
0001
0000
0000
0000
,
0000
0000
0000
0000
,
2000
0000
3000
0000
,
0002
0000
0003
0000
,
0100
0000
0100
0000
,
0200
0000
0000
0000
,
0300
0000
0000
0000
,
0010
0000
0010
0000
,
0020
0000
0030
0000
,
1000
0000
0000
0000
,
1000
0000
0000
0000
,
0001
0000
0001
0000
,
0001
0000
0000
0000
,
0010
0000
0000
0000
,
0010
0000
0000
0000
,
0100
0000
0100
0000
,
0200
0000
0300
0000
,
1000
0000
0000
0000
,
1000
0000
0000
0000
,
0010
0000
0010
0000
,
0010
0000
0000
0000
,
0100
0000
0000
0000
,
0200
0000
0000
0000
,
0300
0000
0000
0000
,
0001
0000
1000
0000
,
1001
0000
0000
0000
;
