#TITLE:Dum Dadi Do;
#SUBTITLE:;
#ARTIST:Nightcore;
#TITLETRANSLIT:;
#SUBTITLETRANSLIT:;
#ARTISTTRANSLIT:;
#GENRE:;
#CREDIT:Ace Of Hearts;
#BANNER:Dum Dadi Do - bn.png;
#BACKGROUND:Dum Dadi Do - bg.jpg;
#LYRICSPATH:;
#CDTITLE:Ace Of Hearts.png;
#MUSIC:Dum Dadi Do.ogg;
#OFFSET:0.970;
#SAMPLESTART:50.400;
#SAMPLELENGTH:12.000;
#SELECTABLE:YES;
#BPMS:0.000=172.650,308.000=86.325,316.000=172.650;
#STOPS:;
#BGCHANGES:;
#KEYSOUNDS:;

//---------------dance-single - Ace Of Hearts (2010)----------------
#NOTES:
     dance-single:
     Ace Of Hearts (2010):
     Hard:
     11:
     1.000,0.463,0.166,1.000,0.636: // measure 1
0000
0000
0000
0000
,  // measure 2
1000
0000
0001
0200
0310
0000
0000
1000
,  // measure 3
0000
1000
0000
0001
0200
0301
2000
0000
,  // measure 4
3100
0000
0010
0002
1003
0000
0000
0100
,  // measure 5
0000
0000
0100
0000
0000
0000
0020
0000
0031
0000
2000
0000
3002
0000
0000
0003
,  // measure 6
0101
1010
1100
0011
,  // measure 7
1001
1100
0011
0101
,  // measure 8
0100
0010
1000
0001
1000
0100
0010
0001
0010
0100
1000
0001
0100
0010
1000
0001
,  // measure 9
0020
0000
0000
0000
0230
0000
0000
0000
1300
0001
0100
0010
0100
0001
1000
0100
,  // measure 10
0020
0031
1000
0010
1000
0200
0320
0032
,  // measure 11
1003
0010
1000
0001
0010
0200
0320
0032
,  // measure 12
1003
0010
1000
0100
0010
0002
0023
0230
,  // measure 13
1300
0002
0103
0020
2030
3001
0020
0130
,  // measure 14
2000
3001
0100
0010
1000
0200
0320
0032
,  // measure 15
1003
0010
1000
0001
0010
0002
2003
3020
,  // measure 16
1030
0001
0100
0010
1000
0002
0023
0230
,  // measure 17
1300
0002
0103
0020
2030
3001
0020
0130
,  // measure 18
1000
0000
0000
0000
0001
0000
0000
0000
0100
0000
0000
0000
0010
0000
0000
0000
1010
0000
0000
M0M0
0000
0000
1010
0000
0000
0000
0000
0000
1000
0000
0000
0000
,  // measure 19
0100
0000
0000
0000
0010
0000
0000
0000
0001
0000
0000
0000
0100
0000
0000
0000
0101
0000
0000
0M0M
0000
0000
0101
0000
0000
0000
0000
0000
0001
0000
0000
0000
,  // measure 20
1000
0000
0000
0100
0000
0000
0010
0000
0000
0100
0000
0000
1000
0000
0000
000M
00M0
0M00
M000
0000
0000
0001
0000
0000
,  // measure 21
0100
0000
0010
0000
1000
0000
0100
0000
0010
0000
0001
1000
0100
0000
0010
0000
,  // measure 22
0001
0000
0000
0000
0100
0000
0000
0000
0010
0000
0000
0000
1000
0000
0000
0000
1001
0000
0000
M00M
0000
0000
1001
0000
0000
0000
0000
0000
0001
0000
0000
0000
,  // measure 23
0100
0000
0000
0000
0010
0000
0000
0000
1000
0000
0000
0000
0100
0000
0000
0000
0110
0000
0000
0MM0
0000
0000
0110
0000
0000
0000
0000
0000
0010
0000
0000
0000
,  // measure 24
0001
1000
0010
0200
0002
0000
0000
0010
,  // measure 25
1000
0000
0000
1000
0010
0300
0003
0100
,  // measure 26
0010
0000
2M00
0000
0000
0000
0200
0000
00M0
3000
0002
0000
M000
0300
2000
0000
,  // measure 27
0M00
0003
0020
0000
000M
3000
0002
0000
M000
0030
2000
0000
0M00
0003
0020
0000
,  // measure 28
000M
3000
0002
0000
M000
0030
2000
0000
00M0
0003
0200
0000
000M
3000
0002
0000
,  // measure 29
M000
0300
2000
0000
0M00
0003
3200
0000
000M
0000
0300
0000
0000
0000
0200
0000
,  // measure 30
0000
0020
M300
0002
0M30
2000
00M3
0200
,  // measure 31
300M
0002
M300
2000
0M03
0020
300M
0002
,  // measure 32
M030
0200
00M3
0020
030M
0002
M030
2000
,  // measure 33
00M3
0200
300M
0002
M300
2000
00M3
3100
,  // measure 34
1000
0100
0010
0001
1000
0010
0100
0001
1000
0000
0001
0100
0010
1000
0001
0010
,  // measure 35
0100
0010
0001
1000
0010
0100
0001
1000
0100
0000
0010
0100
1000
0001
0100
0010
,  // measure 36
1000
0001
0010
0100
1000
0100
0010
0001
1000
0000
0010
1000
0001
0010
0100
0010
,  // measure 37
0001
1000
0001
0100
0010
1000
0001
0010
0100
0000
0000
0000
0000
0000
0000
0000
,  // measure 38
0020
0000
0031
1000
0100
0000
0010
0000
0002
1003
0010
0000
1000
0000
0002
1003
,  // measure 39
0010
0000
0200
0000
0301
0000
1000
0010
0200
0000
0310
0000
2000
3001
0010
0000
,  // measure 40
0200
0000
0310
0001
1000
0000
0010
0000
2000
3001
0100
0000
0010
0000
2000
0000
,  // measure 41
3001
0000
0010
0100
1000
0000
0001
0000
2000
3010
0100
0000
0002
0000
1003
0000
,  // measure 42
0200
0000
0310
0100
1000
0000
0001
0000
0200
0310
1000
0000
0001
0000
0020
0000
,  // measure 43
0031
0000
1000
0010
0100
0000
0010
0000
2000
3001
0100
0000
0010
0000
1000
0000
,  // measure 44
0002
0000
0013
0100
1000
0000
0001
0000
1000
0100
0010
0000
0100
0000
1000
0001
,  // measure 45
0100
0000
0010
1000
0001
0000
1000
0010
1000
0001
0010
0100
1000
0001
0100
0010
,  // measure 46
2000
3001
0010
0100
1000
0002
0203
0320
,  // measure 47
1030
0001
0010
0100
1000
0002
0203
0320
,  // measure 48
0130
0001
1000
0100
0010
0200
2300
3002
,  // measure 49
0103
0020
1030
0002
0023
0031
2000
3010
,  // measure 50
0200
0301
1000
0100
0010
0002
2003
3020
,  // measure 51
0130
0001
1000
0100
0010
0200
2300
3002
,  // measure 52
0103
0010
1000
0001
0010
0200
2300
3002
,  // measure 53
0013
0200
0310
0002
2003
3010
0200
0301
,  // measure 54
1000
0100
0010
0001
0010
0100
1000
0001
0100
0010
1000
0001
0010
0100
0010
0001
,  // measure 55
1000
0000
0001
0100
0010
0100
0001
1000
0001
0010
0100
1000
0001
0100
0010
0100
,  // measure 56
0001
0000
1000
0100
0010
0001
1000
0010
0100
0010
1000
0001
0100
0010
2000
0000
,  // measure 57
0000
0000
3001
0000
0010
0000
0100
0000
1000
0001
0100
0000
0010
0000
1000
0000
,  // measure 58
0001
0000
0000
0000
0000
0000
0100
0000
0000
0000
0000
0000
0010
0000
0000
0000
0000
0000
1000
0000
0000
0000
0000
0000
1100
0000
0000
0000
MM00
0000
0000
0000
0000
1100
0000
0000
0000
0000
0000
0000
0000
0000
0100
0000
0000
0000
0000
0000
,  // measure 59
0010
0000
0000
0000
0000
0000
0001
0000
0000
0000
0000
0000
0100
0000
0000
0000
0000
0000
0010
0000
0000
0000
0000
0000
0110
0000
0000
0000
0MM0
0000
0000
0000
0000
0110
0000
0000
0000
0000
0000
0000
0000
0000
0010
0000
0000
0000
0000
0000
,  // measure 60
2000
3001
0010
010M
10M0
0M00
M000
0100
,  // measure 61
0020
0000
0031
0000
1000
0000
0100
0000
M010
0000
0M01
1000
0010
0000
010M
0000
,  // measure 62
0001
0000
0000
0000
0000
0000
0010
0000
0000
0000
0000
0000
0100
0000
0000
0000
0000
0000
1000
0000
0000
0000
0000
0000
1010
0000
0000
0000
M0M0
0000
0000
0000
0000
1010
0000
0000
0000
0000
0000
0000
0000
0000
0010
0000
0000
0000
0000
0000
,  // measure 63
0200
0000
0000
0000
0000
0000
0301
0000
0000
0000
0000
0000
1000
0000
0000
0000
0000
0000
0010
0000
0000
0000
0000
0000
0110
0000
0000
0000
0MM0
0000
0000
0000
0000
0110
0000
0000
0000
0000
0000
0000
0000
0000
0000
0000
0000
0000
0000
0000
,  // measure 64
0100
0001
1000
0200
2000
0000
0000
0010
,  // measure 65
0001
0000
0000
0001
0010
3000
1300
0001
,  // measure 66
020M
0002
M300
2000
0M03
0200
300M
0020
,  // measure 67
M300
2000
0M30
0002
30M0
0200
M003
2000
,  // measure 68
030M
0002
3M00
0200
M003
0020
030M
0002
,  // measure 69
0M30
2000
00M3
0200
300M
0300
0M00
0002
,  // measure 70
M000
2000
0M03
0200
300M
0020
M300
2000
,  // measure 71
0M30
0002
30M0
0200
M003
0020
030M
2000
,  // measure 72
0M30
0002
30M0
0200
M003
0020
030M
0002
,  // measure 73
0M30
0200
00M3
0020
030M
2000
0M30
3001
,  // measure 74
0100
0010
1000
0001
0010
0100
1000
0100
0010
0000
0001
0010
0100
1000
0001
0100
,  // measure 75
0010
1000
0100
0010
0001
1000
0010
1000
0100
0000
0010
0001
1000
0010
1000
0100
,  // measure 76
0010
0001
1000
0010
1000
0001
0010
0100
0010
0001
1000
0010
0100
0001
2000
0000
,  // measure 77
0000
3010
0100
0001
1000
0000
0M00
0000
,  // measure 78
M010
0000
2000
3001
0M10
0000
0000
0001
00M0
0002
0000
1003
0M20
0130
0002
0000
,  // measure 79
M013
0000
0200
1300
00M1
0000
0000
1000
000M
2000
0000
3010
M200
0301
2000
0000
,  // measure 80
3001
0100
0010
1000
0001
0010
0100
1000
0100
0010
0001
1000
0010
1000
0001
1000
,  // measure 81
0010
0000
0100
0010
1000
0001
0010
0100
0010
0001
1000
0001
0100
0010
1000
0001
,  // measure 82
0010
0000
0001
0100
0010
1000
0001
0010
0100
0010
0001
1000
0010
0100
0010
1000
,  // measure 83
0002
0000
0103
0000
0120
0000
1030
0000
0001
0010
0001
1000
0010
0100
0010
1000
,  // measure 84
0002
0000
0103
0010
1000
0000
0001
0000
0020
0130
1000
0000
0001
0000
1000
0010
,  // measure 85
0100
0000
0001
0000
1000
0000
0100
0010
0002
0000
1003
0000
0020
0130
0001
0000
,  // measure 86
2000
0000
3100
0010
0001
0000
1000
0000
0020
0130
0001
0000
1000
0000
0020
0000
,  // measure 87
1030
0000
0002
0013
0100
0000
1000
0000
0002
1003
0010
0000
2000
0000
3001
0000
,  // measure 88
0020
0000
0130
0010
0001
0000
1000
0000
0002
1003
0010
0000
1000
0000
0002
0013
,  // measure 89
0100
0000
2000
0000
3001
0000
0100
0000
0002
1003
0010
0000
0200
0000
0301
0000
,  // measure 90
2000
0000
3010
0100
0001
0000
0100
0000
0020
1030
0001
0000
0010
0000
0200
0000
,  // measure 91
1300
0000
0002
0013
0100
0000
1000
0000
0001
0100
0010
0000
1000
0000
0100
0010
,  // measure 92
0002
1003
0010
0100
0001
0200
0320
2030
,  // measure 93
3001
0010
0100
0010
0001
2000
3020
0230
,  // measure 94
0301
1000
0100
0010
0001
0020
0230
2300
,  // measure 95
3001
0200
0310
2000
3002
0103
0020
1030
,  // measure 96
0002
0013
0100
1000
0100
0020
0032
2003
,  // measure 97
3010
0100
0001
1000
0100
2000
3002
0203
,  // measure 98
0301
0010
0100
0010
0001
2000
3200
0320
,  // measure 99
0031
0000
2000
0000
3001
0000
0200
0000
0310
0000
1000
0001
0010
0000
0001
1000
,  // measure 100
002M
0000
2000
0000
0M30
0000
3002
0000
M000
0000
0203
0000
000M
0300
0120
0000
,  // measure 101
0M00
2030
00M0
3200
M000
0310
0001
1000
,  // measure 102
0010
0000
0100
0001
1000
0000
0100
0000
0010
0001
1000
0000
0010
0000
0100
0000
,  // measure 103
0001
0000
1000
0010
0100
0000
0001
0000
1000
0100
0010
0000
0100
0000
1000
0000
,  // measure 104
M002
0000
0203
0000
000M
0000
0320
0000
0M00
0000
2030
0000
00M0
3000
1200
0000
,  // measure 105
M000
0320
0M00
0032
00M0
1003
0010
0100
,  // measure 106
0001
0000
1000
0010
0100
0000
0001
0000
1000
0100
0010
0000
0100
0000
1000
0000
,  // measure 107
0001
0000
0100
0010
1000
0000
0001
0000
0010
0001
1000
0000
0010
0000
1000
0001
,  // measure 108
0020
0000
0130
1000
0002
0000
0103
0000
0010
1000
0001
0000
0010
0000
0200
0000
,  // measure 109
1300
0000
0002
0103
0010
0000
1000
0000
0200
0310
0001
0000
2000
0000
3010
0000
,  // measure 110
0200
0000
0301
0100
0020
0000
1030
0000
0001
0010
0100
0000
0010
0000
0002
0000
,  // measure 111
1003
0000
0020
0130
0001
0000
1000
0000
0002
0013
0100
0000
2000
0000
3001
0000
,  // measure 112
0200
0000
0310
1000
0002
0000
0013
0000
0001
1000
0100
0000
0010
0000
0200
0000
,  // measure 113
1300
0000
0002
0103
0010
0000
1000
0000
0002
0013
0100
0000
2000
0000
3001
0000
,  // measure 114
0200
0000
0310
1000
0002
0000
0013
0000
0100
1000
0001
0000
0100
0000
0010
1000
,  // measure 115
0001
0000
0010
0100
1000
0000
0001
0100
0010
0000
1000
0100
0010
0001
0010
0100
,  // measure 116
20MM
0000
0000
3000
;

//---------------dance-single - Ace Of Hearts (2010)----------------
#NOTES:
     dance-single:
     Ace Of Hearts (2010):
     Medium:
     9:
     0.762,0.427,0.105,1.000,0.123:
0000
0000
0000
0000
,
0001
0000
2000
3100
0010
0000
0000
0001
,
0000
0001
0000
1000
0020
1030
0002
0000
,
0013
0000
0100
1000
0001
0000
0000
1000
,
0000
1000
0000
0010
2000
3001
0020
0000
,
0130
0100
1000
1000
,
0001
0001
0100
0100
,
0004
4000
0000
0000
0000
0000
0000
0000
0000
0000
0000
0000
0000
0000
3003
0000
,
0201
0000
0000
0000
0320
0000
0000
0000
1030
0001
1000
0000
0001
0000
0100
0000
,
0120
0000
1000
0000
1030
0100
0010
0002
,
0000
0000
1000
0000
1003
0010
0100
0020
,
0000
0000
0100
0000
0130
0001
1000
0100
,
0000
0110
0000
0020
0032
0000
0203
0000
,
0320
0000
0100
0000
0130
0001
1000
0200
,
0000
0000
0010
0000
0310
0001
1000
0002
,
0000
0000
0100
0000
0103
0010
1000
0001
,
1001
0110
1010
0101
,
0001
0000
0000
0000
0000
0000
1000
0000
0000
0000
0000
0000
0100
0000
0000
0000
0000
0000
0010
0000
0000
0000
0000
0000
0100
0000
0000
0000
0M00
0000
0000
0000
0000
0100
0000
0000
0000
0000
0000
0000
0000
0000
1000
0000
0000
0000
0000
0000
,
0001
0000
0000
0000
0000
0000
0100
0000
0000
0000
0000
0000
0010
0000
0000
0000
0000
0000
1000
0000
0000
0000
0000
0000
0001
0000
0000
0000
000M
0000
0000
0000
0000
0001
0000
0000
0000
0000
0000
0000
0000
0000
1000
0000
0000
0000
0000
0000
,
0010
1000
0001
0010
M001
0M00
00M0
100M
,
0010
0100
0001
1000
010M
00M0
0M00
M000
,
0010
0000
0000
0000
0000
0000
0100
0000
0000
0000
0000
0000
1000
0000
0000
0000
0000
0000
0001
0000
0000
0000
0000
0000
0100
0000
0000
0000
0M00
0000
0000
0000
0000
0100
0000
0000
0000
0000
0000
0000
0000
0000
0001
0000
0000
0000
0000
0000
,
1000
0000
0000
0000
0000
0000
0100
0000
0000
0000
0000
0000
0010
0000
0000
0000
0000
0000
0001
0000
0000
0000
0000
0000
1000
0000
0000
0000
M000
0000
0000
0000
0000
1000
0000
0000
0000
0000
0000
0000
0000
0000
0010
0000
0000
0000
0000
0000
,
0100
0000
0001
0000
1000
0000
0001
0000
1001
0000
0000
M00M
0000
0000
1000
0000
,
1100
0000
0000
M00M
0000
0000
0010
0000
0011
0000
0000
0000
0000
0000
0001
0000
,
1000
0M20
0000
0230
0000
03M2
0000
2003
,
0000
320M
0000
0302
0000
M203
0000
2300
,
0000
3M02
0000
0203
0000
032M
0000
2030
,
0000
32M0
0000
0320
0000
0M30
0000
0020
,
0000
023M
0000
2300
0000
3M02
0000
0203
,
0000
230M
0000
3200
0000
M302
0000
2003
,
0000
320M
0000
0320
0000
2M30
0000
3020
,
0000
M032
0000
2003
0000
302M
0000
1030
,
0004
0400
0000
0000
0000
0000
0000
0000
0000
0000
0000
0000
0000
0000
0000
0000
,
0000
0000
0000
0000
,
0000
0000
0000
0000
0000
0000
0000
0303
,
0000
0001
1000
0100
0010
0000
0000
0000
,
0200
1300
0002
0203
0320
1030
0001
0020
,
0031
2000
3010
0200
0302
2003
3020
1030
,
0002
0013
0200
2300
3002
0103
0010
2000
,
3001
0020
0031
0200
0320
2030
3002
0013
,
0200
0310
0002
2003
3020
0130
0001
2000
,
3100
0020
0130
2000
3002
0203
0320
0130
,
0002
1003
0200
0320
0032
1003
0010
0200
,
0301
2000
3100
0020
0032
2003
3020
0130
,
0002
0000
0100
0000
0013
0100
1000
0020
,
0000
0000
1000
0000
0130
0001
1000
0200
,
0000
0000
1000
0000
0310
0001
1000
0001
,
0000
0101
0000
0200
0320
0000
2030
0000
,
3200
0000
0001
0000
0310
0001
1000
0020
,
0000
0000
0001
0000
0130
0001
1000
0020
,
0000
0000
0001
0000
0130
0001
0100
0010
,
0000
1010
0000
2000
3002
0000
0203
0000
,
0340
4000
0000
0000
0000
0000
0000
0000
0000
0000
0000
0000
0000
0000
0000
0000
,
0000
0000
0000
0000
,
0000
0000
0000
0000
0000
0000
0000
3030
,
0000
0000
1000
0000
0001
0000
0010
0000
0001
1000
0001
0000
0100
0000
0001
0000
,
1000
0000
0000
0000
0000
0000
0100
0000
0000
0000
0000
0000
0010
0000
0000
0000
0000
0000
0001
0000
0000
0000
0000
0000
0010
0000
0000
0000
00M0
0000
0000
0000
0000
0010
0000
0000
0000
0000
0000
0000
0000
0000
0001
0000
0000
0000
0000
0000
,
2000
0000
0000
0000
0000
0000
3010
0000
0000
0000
0000
0000
0100
0000
0000
0000
0000
0000
0001
0000
0000
0000
0000
0000
0100
0000
0000
0000
0M00
0000
0000
0000
0000
0100
0000
0000
0000
0000
0000
0000
0000
0000
0010
0000
0000
0000
0000
0000
,
2000
3001
0010
0100
100M
00M0
0M00
M010
,
2000
3001
0010
M001
0M10
00M0
000M
0000
,
0001
0000
0000
0000
0000
0000
0100
0000
0000
0000
0000
0000
0010
0000
0000
0000
0000
0000
1000
0000
0000
0000
0000
0000
0001
0000
0000
0000
000M
0000
0000
0000
0000
0001
0000
0000
0000
0000
0000
0000
0000
0000
0100
0000
0000
0000
0000
0000
,
0020
0000
0000
0000
0000
0000
1030
0000
0000
0000
0000
0000
0001
0000
0000
0000
0000
0000
0100
0000
0000
0000
0000
0000
0010
0000
0000
0000
00M0
0000
0000
0000
0000
0010
0000
0000
0000
0000
0000
0000
0000
0000
1000
0000
0000
0000
0000
0000
,
0001
0000
0010
0000
0100
0000
0010
0000
0011
0000
0000
M00M
0000
0000
0001
0000
,
1001
0000
M00M
1000
1010
0000
0000
0010
,
0200
M302
0000
0203
0000
230M
0000
3200
,
0000
M320
0000
2030
0000
30M2
0000
0023
,
0000
023M
0000
2300
0000
32M0
0000
0302
,
0000
M203
0000
2300
0000
3M00
0000
0002
,
0000
M203
0000
0320
0000
0M32
0000
0023
,
0000
203M
0000
3002
0000
M023
0000
0230
,
0000
03M2
0000
0203
0000
230M
0000
3002
,
0000
M203
0000
0320
0000
203M
0000
3001
,
0040
0004
0000
0000
0000
0000
0000
0000
0000
0000
0000
0000
0000
0000
0000
0000
,
0000
0000
0000
0000
,
0000
0000
0000
0000
0000
0000
0000
0033
,
0000
0001
1000
0010
0100
0000
000M
0000
,
M010
0000
1000
0002
0013
0000
0000
0001
00M0
0001
0000
1000
0020
1030
0002
0000
,
M013
0000
0100
1000
0100
0000
0000
0010
0M00
0010
0000
0001
2000
3001
0020
0000
,
0430
4000
0000
0000
0000
0000
0000
0000
0000
0000
0000
0000
0000
0000
0000
0000
,
0000
0000
0000
0000
,
0000
0000
0000
3300
,
1000
0000
0001
0000
0100
0000
0010
0000
4000
0004
0000
0000
0000
0000
3003
0000
,
0002
0013
0200
0320
0032
1003
0010
0200
,
0301
2000
3100
0020
0230
2300
3002
0103
,
0020
1030
0002
2003
3020
0130
0001
2000
,
3100
0020
0130
2000
3002
0023
0230
0310
,
0002
1003
0020
0230
0302
1003
0100
0020
,
0031
2000
3001
0200
0320
2030
3002
0013
,
0002
1003
0020
0230
0302
1003
0100
0020
,
0130
2000
3001
0200
0320
2030
3002
0013
,
0200
0000
0010
0000
1300
0001
0100
0020
,
0000
0000
0001
0000
0130
0001
1000
0002
,
0000
0000
0100
0000
0013
0100
1000
0001
,
0000
0011
0000
0002
2003
0000
3020
0000
,
0230
0000
1000
0000
0301
1000
0100
0020
,
0000
0000
1000
0000
0031
0100
0010
2000
,
0000
0000
0010
0000
3100
0010
0001
0100
,
0000
0000
0110
0000
0000
0000
0020
0000
1030
0001
1000
0000
0100
0000
0010
0000
,
0002
20M3
0000
3020
0000
M032
0000
0023
,
0000
203M
0000
3002
0000
M003
0000
0000
,
0010
0100
1000
0100
0010
0001
1000
0001
,
0100
0010
1000
0001
0100
0001
0010
0100
,
2000
30M2
0000
0203
0000
230M
0000
3200
,
0000
M302
0000
2003
0000
300M
0000
0000
,
0100
0010
0001
0010
0100
1000
0001
0100
,
0010
0000
1000
0000
0001
0000
0010
0000
0001
0000
1000
0010
1000
0000
0001
0000
,
0020
0130
2000
3002
0203
0310
1000
0002
,
0013
0200
0310
0002
2003
3200
0320
0130
,
2000
3001
0200
0320
2030
3001
0010
0002
,
1003
0020
0130
0002
0203
0320
2030
3001
,
0020
0130
0020
0032
2003
3010
0100
0020
,
1030
0002
0013
0200
2300
3002
0203
0310
,
2000
3001
0200
0320
2030
3001
0010
0002
,
1003
0000
0010
1000
0010
0000
1000
0000
0001
0000
0010
0000
0100
0000
1000
0000
,
0M02
0000
0000
0003
;

//---------------dance-single - Ace Of Hearts (2010)----------------
#NOTES:
     dance-single:
     Ace Of Hearts (2010):
     Challenge:
     13:
     1.000,0.605,0.264,0.689,1.000:
0000
0000
0000
0000
,
1001
0000
0002
0103
0010
0000
0000
1010
,
0000
0000
0102
0000
0000
0000
1003
0000
1100
0000
0100
0000
0020
0000
0000
0030
,
0011
0000
0002
1003
0010
0000
0000
0110
,
0000
0000
0102
0000
0000
0000
1003
0000
1010
0000
0010
0000
0200
0000
0000
0300
,
0202
0303
1001
0000
1100
0000
0011
0000
,
0101
0000
1010
0000
1001
0001
0011
0010
,
0100
1000
0100
0010
0001
1000
0010
0100
0001
1000
0100
0010
0002
0103
0010
1000
,
0200
0310
0001
1000
0020
1030
0001
0100
0002
1003
0100
0010
0200
1300
0001
0100
,
0010
0000
1000
0001
0010
0000
0001
0100
0010
0000
1000
0001
0010
0000
0100
1000
,
0001
0000
0100
0010
1000
0000
0001
0100
0010
0000
1000
0001
0010
0000
0100
1000
,
0001
0000
0100
0010
1000
0000
0001
0100
0010
0000
1000
0100
0010
0000
0001
0010
,
0100
0000
1000
0001
0100
0000
0010
1000
0001
0000
0010
0100
1000
0000
0100
0010
,
0001
0000
1000
0010
0100
0000
0010
1000
0001
0000
0010
0100
1000
0000
0001
1000
,
0010
0000
0100
0001
1000
0000
0010
1000
0001
0000
0010
0100
1000
0000
0001
0100
,
0010
0000
1000
0001
0010
0000
0001
0010
0100
0000
1000
0001
0100
0000
0010
1000
,
2002
3003
0202
0303
2020
3030
2200
3300
,
0100
0000
0010
0000
0001
1000
0010
0000
0100
0000
0MM1
1000
0000
10MM
0100
0000
,
0010
0000
0001
0000
1000
0010
0100
0000
0001
0000
0M1M
0100
0000
M1M0
1000
0000
,
0001
0100
0010
0000
1000
0000
0100
0000
MM11
0000
00M0
000M
00M0
MM00
0001
0000
,
1000
0010
0100
0000
0001
0000
1000
0000
1M1M
0000
0010
1000
M1M0
0000
0110
0000
,
0010
0000
0001
0000
1000
0010
0100
0000
MM01
0000
1000
01MM
0000
0100
0010
0000
,
0001
0010
0100
0000
1000
0000
0001
0000
M10M
0000
0010
1MM0
0000
1000
0100
0000
,
0010
0001
1000
0000
0010
0000
0100
0000
0111
0000
0000
MMMM
0000
0000
0001
0000
,
1101
0000
0000
MMMM
0000
0000
1000
0000
1110
0000
1000
0001
0010
0000
0001
0000
,
M200
002M
M300
2M00
003M
02M0
300M
M002
,
03M0
0M20
M003
200M
0M30
02M0
300M
M020
,
030M
0M02
M030
0M20
M003
200M
0M30
02M0
,
300M
M002
03M0
0M20
M003
003M
0MM0
M200
,
00M0
200M
03M0
0M02
30M0
M200
00M3
200M
,
03M0
0M20
300M
M002
0M30
02M0
M003
002M
,
M300
2M00
003M
02M0
300M
20M0
030M
0M20
,
300M
M002
0M30
02M0
M003
002M
M300
0031
,
1000
0010
1000
0001
0010
0100
1000
0100
0010
0001
1000
0010
1000
0100
0010
0001
,
0100
0010
1000
0001
0010
0100
0010
0001
1000
0010
0100
0001
1000
0100
0010
0001
,
1000
0010
0100
0001
1000
0100
0010
0100
1000
0001
0100
0010
1000
0001
0020
0000
,
0000
0000
0031
0000
1000
0000
0010
0000
0100
0000
0001
0100
0010
0000
1000
0000
,
0001
0010
0001
1000
0010
0100
0001
1000
0100
0010
0001
0010
0100
1000
0001
0100
,
0010
1000
0100
0010
0001
1000
0001
0100
0010
1000
0001
0010
0001
0100
0010
1000
,
0001
0010
0100
1000
0100
0010
0001
1000
0010
0100
0001
1000
0100
1000
0001
0100
,
0010
1000
0100
1000
0001
0100
0001
0010
0100
1000
0001
0100
0010
1000
0001
0010
,
0100
0010
0001
1000
0010
0100
0001
1000
0100
0010
0100
1000
0001
0100
0010
1000
,
0001
0100
0010
1000
0001
0010
0100
0010
0001
1000
0100
0010
0100
1000
0001
0100
,
0010
1000
0001
0100
0001
0010
0100
1000
0001
0100
0010
1000
0001
0100
0010
1000
,
0001
0000
1000
0010
0100
0000
0010
1000
0001
1000
0100
0010
0100
1000
0001
0100
,
0010
0000
1000
0001
0010
0000
0001
0100
0010
0000
1000
0001
0010
0000
0001
0100
,
0010
0000
1000
0100
0010
0000
0100
1000
0001
0000
0100
0010
1000
0000
0001
0100
,
0010
0000
1000
0001
0010
0000
0100
1000
0001
0000
0010
0001
0100
0000
0010
1000
,
0001
0000
0100
0010
1000
0000
0100
0010
0001
0000
1000
0001
0100
0000
0010
0100
,
0001
0000
1000
0100
0010
0000
0100
1000
0001
0000
0100
0010
1000
0000
0001
1000
,
0010
0000
0100
0001
1000
0000
0010
0100
0001
0000
1000
0100
0010
0000
0001
1000
,
0010
0000
0100
0001
1000
0000
0100
1000
0001
0000
0100
0010
1000
0000
0001
0100
,
0010
0000
1000
0100
0010
0000
0001
0010
0100
0000
0010
0001
1000
0000
0010
0100
,
0001
1000
0100
0010
0100
1000
0001
0100
0010
1000
0001
0010
0100
1000
0001
0100
,
0010
1000
0010
0100
0001
1000
0100
0010
0100
1000
0001
0100
0010
1000
0001
0010
,
0100
0010
0001
1000
0010
0100
0001
1000
0100
0010
0100
1000
0001
0100
0020
0000
,
0000
0000
1030
0000
0001
0000
0010
0000
0100
0010
0001
0000
1000
0000
0010
0000
,
1000
0001
0100
0000
0010
0000
1000
0000
M10M
0000
0010
0MM1
0000
0001
0100
0000
,
0010
1000
0001
0000
0010
0000
0100
0000
10MM
0000
1000
MM10
0000
0010
0100
0000
,
0001
1000
0010
0000
0100
0000
0001
M000
0M11
00M0
000M
00M0
0M00
M000
0M10
0000
,
0100
0000
0010
0000
0001
1000
0010
0000
010M
M010
1M00
00M0
0M01
M000
0M11
0000
,
0010
0000
0100
0000
1000
0001
0100
0000
0M1M
0000
1000
M0M1
0000
0001
0010
0000
,
0100
1000
0001
0000
0100
0000
0010
0000
M1M0
0000
0001
1M0M
0000
1000
0100
0000
,
0010
0000
0001
1000
0010
0000
1000
0000
1110
0000
0000
MMMM
0000
0000
0010
0000
,
0111
0000
0000
MMMM
0000
0000
0001
0000
1101
0000
1000
0000
0100
0010
0001
0000
,
2M00
002M
3M00
M200
003M
00M2
M300
0M20
,
M003
200M
0M30
02M0
300M
M020
030M
0M02
,
M030
02M0
M003
200M
03M0
0M20
300M
M002
,
0M30
02M0
M003
200M
03M0
3M00
M00M
0M02
,
00M0
M200
00M3
002M
M300
0M02
M030
02M0
,
M003
200M
03M0
0M20
300M
M002
0M30
02M0
,
M003
200M
03M0
0M20
300M
M002
0M30
M020
,
0M03
200M
0M30
02M0
300M
M020
030M
0031
,
1000
0100
0010
0100
1000
0001
0100
0010
1000
0001
0010
0100
0010
0001
1000
0010
,
1000
0001
0010
0100
0010
0001
1000
0010
1000
0100
0010
0001
0100
0001
1000
0100
,
0010
0100
1000
0001
0100
0010
1000
0001
0010
0001
1000
0010
0100
0001
2000
0000
,
0000
3010
0100
0001
1000
000M
00M0
M000
,
1M2M
0000
M230
0302
10M3
0000
0000
22MM
0000
0001
33M0
0100
M110
0010
0M02
0003
,
1MM1
0000
200M
3010
M100
0000
0000
M2M2
0000
1000
03M3
0001
M011
0010
020M
0000
,
1300
0001
0100
0010
1000
0001
0010
0100
1000
0100
0010
0001
0100
0010
1000
0001
,
1000
0100
1000
0001
0100
0010
1000
0001
1000
0100
1000
0010
0100
0001
1000
0001
,
0010
0001
0100
0010
1000
0001
0010
0100
1000
0010
1000
0001
0010
0100
0010
0001
,
1001
0000
0011
0000
0110
0000
1100
0000
1000
0001
0100
0010
0100
0001
1000
0100
,
0010
0001
1000
0010
0100
0001
1000
0100
0010
0100
1000
0001
0100
0010
1000
0100
,
0010
0001
0100
0010
1000
0001
1000
0010
0100
0001
0010
0100
1000
0001
0100
0010
,
1000
0100
0010
0001
0100
0010
1000
0001
0010
0001
1000
0010
0100
0001
1000
0010
,
0100
0001
0010
0100
1000
0001
0100
0010
1000
0001
0010
0001
0100
0010
1000
0001
,
0010
0001
1000
0010
0100
0001
1000
0100
0010
0100
1000
0001
0100
0010
1000
0001
,
0010
0100
1000
0001
0100
0010
1000
0100
0010
0001
0100
0010
1000
0001
0100
0010
,
1000
0100
0010
0001
1000
0001
0100
0001
0010
0100
1000
0010
0100
0001
1000
0010
,
0100
0000
0001
0100
0010
0000
1000
0001
0010
0000
0100
1000
0001
0100
0010
1000
,
0001
0000
1000
0010
0100
0000
0001
1000
0100
0000
0010
0100
1000
0000
0001
0100
,
0010
0000
1000
0001
0010
0000
0100
0010
0001
0000
1000
0010
0100
0000
0001
1000
,
0100
0000
0010
0001
1000
0000
0010
0100
0001
0000
1000
0100
0010
0000
0100
1000
,
0001
0000
0100
0010
1000
0000
0001
0010
0100
0000
0010
0001
1000
0000
0010
0100
,
0001
0000
1000
0010
0100
0000
0001
1000
0100
0000
1000
0001
0100
0000
0010
1000
,
0001
0000
0010
0100
1000
0000
0001
0100
0010
0000
1000
0001
0010
0000
0100
1000
,
0001
0000
0100
0010
1000
0000
0001
0010
0100
0000
0010
0001
1000
0000
0010
0100
,
0001
0000
1000
0100
0010
0000
0100
1000
0001
0000
0100
0010
1000
0000
0001
0000
,
M021
023M
00M0
M302
0M00
M023
000M
2M30
,
00M0
0000
320M
0000
M000
0000
032M
0000
0M00
0000
0031
1000
0010
0000
1000
0000
,
0001
0010
0100
1000
0100
0010
0001
1000
0010
0100
0001
1000
0100
0010
0100
1000
,
0001
0100
0010
1000
0001
0010
0100
0010
0001
1000
0010
0100
0001
1000
0100
0010
,
M002
02M3
000M
23M0
0M00
302M
M000
0M32
,
00M0
0000
M203
0000
000M
0000
M320
0000
0M00
0000
1030
0001
0010
0000
0100
0000
,
0010
0001
1000
0010
0100
0001
1000
0100
0010
0100
1000
0001
0100
0010
1000
0001
,
0010
0001
1000
0010
0100
0001
1000
0100
0010
0000
0100
1000
0001
0000
0100
0001
,
1000
0100
0010
0001
1000
0010
0100
0001
1000
0100
0010
0001
1000
0010
0100
0001
,
1000
0010
0100
0001
0010
0100
1000
0100
0010
0001
1000
0010
0100
0001
0010
0100
,
0010
0001
1000
0010
0100
0001
0010
0100
1000
0001
0100
0010
1000
0001
0100
0001
,
1000
0100
1000
0010
0100
0001
1000
0100
0010
0100
1000
0001
0100
0010
1000
0001
,
0010
0001
0100
0010
1000
0001
0010
0100
1000
0001
0100
0010
1000
0100
0010
0001
,
0100
0010
1000
0001
0010
0001
0100
0010
1000
0001
0100
0010
1000
0100
1000
0001
,
0100
0010
1000
0001
0010
0100
0010
0001
1000
0010
0100
0001
1000
0100
0010
0001
,
1000
0000
0001
0100
0010
0000
1000
0001
0010
0000
0001
1000
0010
0100
0001
1000
,
M22M
0000
0000
0330
;

//---------------dance-single - Ace Of Hearts (2010)----------------
#NOTES:
     dance-single:
     Ace Of Hearts (2010):
     Easy:
     6:
     0.383,0.320,0.000,0.400,0.040:
0000
0000
0000
0000
,
0001
0000
0100
0000
0001
0000
0000
0100
,
0000
0100
0000
0001
2000
0000
3010
0000
,
1000
0000
0010
0000
1000
0000
0000
0001
,
0000
0001
0000
1000
0200
0000
0310
0000
,
0001
0000
0001
0000
1000
0000
0000
0010
,
0000
0010
0000
0000
0100
0000
0100
0000
,
0004
0000
0000
0000
0000
0000
0000
1003
,
0000
1000
0000
0000
0010
0000
0010
0000
,
1000
0000
0000
0000
0000
0001
0000
0001
,
0000
0000
0000
0000
0000
1000
0000
1000
,
0000
0000
0000
0000
0000
0001
0000
0001
,
0000
1000
0000
0010
2000
0000
3002
0000
,
0103
0000
0000
0000
0000
0010
0000
0010
,
0000
0000
0000
0000
0000
0100
0000
0100
,
0000
0000
0000
0000
0000
0001
0000
0001
,
0000
1000
0000
0001
0200
0000
0302
0000
,
1003
0000
0000
0000
1000
0000
0000
0000
0010
0000
0000
0010
0000
0000
0000
0000
,
1000
0000
0000
0000
1000
0000
0000
0000
0001
0000
0000
0001
0000
0000
0000
0000
,
0010
0010
0010
00M0
,
0001
0001
0001
000M
,
0100
0000
0000
0000
0100
0000
0000
0000
0010
0000
0000
0010
0000
0000
0000
0000
,
1000
0000
0000
0000
1000
0000
0000
0000
0001
0000
0000
0001
0000
0000
0000
0000
,
1000
0000
1000
0001
0100
0000
0000
0001
,
1000
0000
0000
0001
0010
0000
0000
0000
,
0002
1003
0000
0020
0000
1030
0000
0002
,
0000
2003
0000
3100
0000
0010
0000
0002
,
0000
0013
0000
0100
0000
1000
0000
0002
,
0000
2003
0000
3010
0000
0000
0000
2000
,
0000
3001
0000
0200
0000
0301
0000
2000
,
0000
3001
0000
0020
0000
0031
0000
2000
,
0000
3001
0000
2000
0000
3010
0000
0200
,
0000
0301
0000
2000
0000
3001
0000
0040
,
0000
0000
0000
0000
,
0000
0000
0000
0000
,
0000
0000
0000
0000
0000
0000
0000
0030
,
0000
0001
0001
0000
,
1000
0000
0010
0000
1000
0000
0000
0001
,
0000
0001
0000
1000
0020
0000
1030
0000
,
0001
0000
0100
0000
0001
0000
0000
1000
,
0000
1000
0000
0001
0020
0000
0031
0000
,
1000
0000
0100
0000
1000
0000
0000
0001
,
0000
0001
0000
1000
0200
0000
1300
0000
,
0001
0000
0001
0000
0001
0000
0000
0100
,
0000
0100
0000
0010
2000
0000
3010
0000
,
0100
0000
0000
0000
0000
0001
0000
0001
,
0000
0000
0000
0000
0000
1000
0000
1000
,
0000
0000
0000
0000
0000
0100
0000
0100
,
0000
1000
0000
0001
2000
0000
3020
0000
,
0130
0000
0000
0000
0000
0001
0000
0001
,
0000
0000
0000
0000
0000
0010
0000
0010
,
0000
0000
0000
0000
0000
0001
0000
0001
,
0000
1000
0000
0010
2000
0000
3001
0000
,
0400
0000
0000
0000
,
0000
0000
0000
0000
,
0000
0000
0000
0000
0000
0000
0000
0300
,
0000
0010
0010
0000
,
0100
0000
0000
0000
0100
0000
0000
0000
0001
0000
0000
0001
0000
0000
0000
0000
,
1000
0000
0000
0000
1000
0000
0000
0000
0100
0000
0000
0100
0000
0000
0000
0000
,
1000
1000
1000
M000
,
0100
0100
0100
0M00
,
1000
0000
0000
0000
1000
0000
0000
0000
0010
0000
0000
0010
0000
0000
0000
0000
,
1000
0000
0000
0000
1000
0000
0000
0000
0001
0000
0000
0001
0000
0000
0000
0000
,
1000
0000
0001
1000
0010
0000
0000
1000
,
0001
0000
0000
1000
0010
0000
0000
0000
,
1000
0020
0000
0230
0000
0301
0000
2000
,
0000
3200
0000
0310
0000
0001
0000
2000
,
0000
3010
0000
1000
0000
0001
0000
0020
,
0000
0032
0000
1003
0000
0000
0000
0020
,
0000
1030
0000
0002
0000
0103
0000
0020
,
0000
1030
0000
0001
0000
0010
0000
0002
,
0000
1003
0000
0020
0000
1030
0000
0002
,
0000
0013
0000
0200
0000
1300
0000
0004
,
0000
0000
0000
0000
,
0000
0000
0000
0000
,
0000
0000
0000
0000
0000
0000
0000
0003
,
0000
1000
1000
0000
,
001M
0000
1000
0000
0010
0000
0000
1000
00M0
1000
0000
0000
0001
0000
0010
0000
,
M001
0000
1000
0000
0001
0000
0000
0100
000M
0100
0000
0000
0010
0000
1000
0000
,
0004
4000
0000
0000
0000
0000
0000
0000
0000
0000
0000
0000
0000
0000
0000
0000
,
0000
0000
0000
0000
,
0000
0000
0000
0000
0000
0000
0000
3003
,
0000
1000
0000
0000
0001
0000
0001
0000
,
1000
0000
0010
0000
1000
0000
0000
0001
,
0000
0001
0000
1000
0020
0000
1030
0000
,
0001
0000
0100
0000
0001
0000
0000
1000
,
0000
1000
0000
0010
2000
0000
3001
0000
,
0010
0000
0001
0000
1000
0000
0000
0010
,
0000
0010
0000
1000
0002
0000
1003
0000
,
0001
0000
0010
0000
0001
0000
0000
0010
,
0000
0010
0000
0001
2000
0000
3001
0000
,
1000
0000
0000
0000
0000
0010
0000
0010
,
0000
0000
0000
0000
0000
1000
0000
1000
,
0000
0000
0000
0000
0000
0010
0000
0010
,
0000
1000
0000
0001
2000
0000
3200
0000
,
0310
0000
0000
0000
0000
0001
0000
0001
,
0000
0000
0000
0000
0000
0100
0000
0100
,
0000
0000
0000
0000
0000
0010
0000
0010
,
0000
1000
0000
0001
0020
0000
0032
0000
,
2003
3020
0000
2030
0000
3001
0000
0020
,
0000
0230
0000
1300
0000
0000
0000
0000
,
0001
0001
1000
1000
,
0010
0010
0100
0100
,
0002
2003
0000
3200
0000
0310
0000
0002
,
0000
2003
0000
3010
0000
0000
0000
0000
,
1000
1000
0001
0001
,
0010
0010
0100
0100
,
0010
0000
0001
0000
0010
0000
0000
0100
,
0000
0100
0000
0010
0002
0000
1003
0000
,
0001
0000
0100
0000
0001
0000
0000
0100
,
0000
0100
0000
0010
2000
0000
3001
0000
,
1000
0000
0010
0000
1000
0000
0000
0001
,
0000
0001
0000
0010
0002
0000
1003
0000
,
0010
0000
0100
0000
0010
0000
0000
1000
,
0000
1000
0000
0001
0020
0000
0130
0000
,
2000
0000
0000
3000
;

//---------------dance-single - Ace Of Hearts (2010)----------------
#NOTES:
     dance-single:
     Ace Of Hearts (2010):
     Beginner:
     3:
     0.244,0.214,0.037,0.123,0.000:
0000
0000
0000
0000
,
0001
0001
0001
0000
,
1000
1000
1000
0000
,
0010
0010
0010
0000
,
0100
0100
0100
0000
,
0001
0001
0001
0000
,
1000
1000
1000
0000
,
0002
0000
0000
0003
,
1000
1000
1000
0000
,
0010
0000
0000
1000
,
1000
0000
0000
0001
,
0001
0000
0000
0010
,
0010
0000
0100
0100
,
0100
0000
0000
1000
,
1000
0000
0000
0001
,
0001
0000
0000
0100
,
0100
0000
0010
0000
,
1000
1000
1000
0000
,
0001
0001
0001
0000
,
0010
0010
0010
0000
,
0100
0100
0100
0000
,
0010
0010
0010
0000
,
0001
0001
0001
0000
,
1000
1000
1001
0000
,
0110
0000
1001
0000
,
0002
0000
0013
0010
,
0020
0000
0030
0000
,
0001
0001
0002
0000
,
2003
0000
3000
0000
,
0010
0010
0010
0000
,
2000
0000
3000
0000
,
0001
0001
0001
0000
,
0200
0000
0300
0000
,
0040
0000
0000
0000
,
0000
0000
0000
0000
,
0000
0000
0000
0000
0000
0000
0000
0030
,
0000
0000
0000
0000
,
1000
1000
1000
0000
,
0001
0001
0001
0000
,
0010
0010
0010
0000
,
0001
0001
0001
0000
,
0100
0100
0100
0000
,
0010
0010
0010
0000
,
1000
1000
1000
0000
,
0001
0001
0001
0000
,
0010
0000
0000
0001
,
0001
0000
0000
0100
,
0100
0000
0000
0010
,
0010
0000
1000
1000
,
1000
0000
0000
0001
,
0001
0000
0000
0010
,
0010
0000
0000
0100
,
0100
0000
1000
0000
,
0400
0000
0000
0000
,
0000
0000
0000
0000
,
0000
0000
0000
0000
0000
0000
0000
0300
,
0000
0000
0000
0000
,
0010
0010
0010
0000
,
0001
0001
0001
0000
,
1000
1000
1000
0000
,
0010
0010
0010
0000
,
1000
1000
1000
0000
,
0001
0001
0001
0000
,
0010
0010
0110
0000
,
1001
0000
0110
0000
,
2000
0000
3001
0001
,
0002
0000
0003
0000
,
0010
0010
0010
0000
,
0002
0000
0003
0000
,
1000
1000
1000
0000
,
0020
0000
0030
0000
,
0100
0100
0100
0000
,
0002
0000
0003
0000
,
4000
0000
0000
0000
,
0000
0000
0000
0000
,
0000
0000
0000
0000
0000
0000
0000
3000
,
0000
0000
0000
0000
,
0002
0003
2000
3000
,
0020
0030
0200
0300
,
0004
0000
0000
0000
,
0000
0000
0000
0000
,
0000
0000
0000
0000
0000
0000
0000
0003
,
0000
0000
0000
0000
,
1000
1000
1000
0000
,
0010
0010
0010
0000
,
0100
0100
0100
0000
,
0001
0001
0001
0000
,
1000
1000
1000
0000
,
0100
0100
0100
0000
,
0010
0010
0010
0000
,
0001
0001
0001
0000
,
1000
0000
0000
0010
,
0010
0000
0000
0100
,
0100
0000
0000
0001
,
0001
0000
1000
1000
,
1000
0000
0000
0010
,
0010
0000
0000
1000
,
1000
0000
0000
0001
,
0001
0000
0010
0000
,
0002
0000
1003
1000
,
2000
0000
3000
0000
,
0010
0010
0010
0000
,
1000
1000
1000
0000
,
0010
0010
0010
0000
,
2000
0000
3000
0000
,
0001
0001
0001
0000
,
0010
0010
0010
0000
,
0001
0001
0001
0000
,
0100
0100
0100
0000
,
0010
0010
0010
0000
,
1000
1000
1000
0000
,
0001
0001
0001
0000
,
0010
0010
0010
0000
,
0001
0001
0001
0000
,
1000
1000
1000
0000
,
0020
0000
0000
0030
;
