#TITLE:Da Shit;
#SUBTITLE:-Eastwood Jacks Red Mix-;
#ARTIST:Agemixer;
#TITLETRANSLIT:;
#SUBTITLETRANSLIT:;
#ARTISTTRANSLIT:;
#GENRE:;
#CREDIT:AceOfHearts;
#BANNER:Da Shit - Bn.png;
#BACKGROUND:Da Shit - Bg.jpg;
#LYRICSPATH:;
#CDTITLE:Ace Of Hearts.png;
#MUSIC:Da Shit -Eastwood Jacks Red Mix-.ogg;
#OFFSET:0.797;
#SAMPLESTART:46.100;
#SAMPLELENGTH:11.940;
#SELECTABLE:YES;
#BPMS:0.000=125.280;
#STOPS:26.000=1.440
,149.000=0.240
,156.500=0.240
,164.000=0.240
,243.500=0.240
,251.000=0.240
,258.500=0.240
;
#BGCHANGES:0.000=Da Shit -Eastwood Jacks Red Mix- Video.avi=1.000=0=0=1=====,
99999=-nosongbg-=1.000=0=0=0 // don't automatically add -songbackground-
;
#KEYSOUNDS:;

//---------------dance-single - Expert----------------
#NOTES:
     dance-single:
     Ace Of Hearts (2010):
     Challenge:
     10:
     0.897,0.101,0.113,1.000,0.828:
0000
0000
2002
0000
,
0000
3003
0000
0000
,
1000
0010
0100
0001
1000
0100
0010
0000
0022
0000
0000
0000
0000
0000
0000
0000
,
0000
0033
0000
0000
,
4000
0400
0000
0000
0000
0000
0000
0000
0000
0000
0000
0000
0000
0000
0000
0000
0000
0000
0000
0000
0000
0000
0000
0000
,
0000
0000
0000
0000
0000
0000
0000
3300
,
1000
0000
0010
0000
1000
0000
0001
0000
0100
0000
0001
0000
0010
0000
0000
0000
0220
0330
0000
0000
0000
0000
0000
0000
0000
0000
0000
0000
0000
0000
0000
0000
,
0000
0000
0000
0000
0000
0000
0000
0000
2001
0000
0000
3001
0100
0000
0020
0030
,
1010
0000
0020
0030
0110
0000
0200
0300
0101
0000
0002
0003
1001
0000
2000
3000
,
1100
0000
0100
1000
0010
0100
0001
1000
0001
0000
0100
0000
0001
0000
0010
0000
,
0020
0000
0130
0000
0200
0000
1300
0000
2000
0000
3020
0000
0000
0030
0020
0000
,
0000
0030
0010
1000
0001
0100
0001
1000
0100
0000
1000
0000
2000
0000
3010
0000
,
0020
0130
0200
0301
0002
2003
0000
3002
,
0000
0000
1003
0010
1000
0010
0100
0001
2000
0000
3100
0000
2000
0000
3001
0000
,
2000
0000
3010
0000
0200
0000
0302
0000
0203
0000
0320
0000
0000
0030
0020
0000
,
0000
0000
1030
0001
0010
0100
1000
0001
0200
0000
0301
0000
2000
0000
3010
0000
,
0200
0000
0301
0000
2000
0000
3100
0000
1000
0000
0020
0000
0000
0030
0020
0000
,
0000
0000
1030
0010
0100
0001
1000
0100
2000
0000
3001
0000
0002
0000
0013
0000
,
0020
0000
0130
0000
0200
0000
1300
0000
2000
0000
3002
0000
0000
0003
0002
0000
,
0000
0000
1003
0100
0010
0100
1000
0001
0200
0000
0301
0000
0002
0000
1003
0000
,
2000
0000
3001
0000
0002
0000
0013
0000
0020
0000
0230
0000
0000
0300
0200
0000
,
0000
0000
1300
0001
0010
0100
1000
0001
0200
0000
0301
0000
0002
0000
0013
0000
,
0020
0000
0130
0000
0200
0000
2300
0000
3002
0000
0003
0000
0000
0000
0001
1000
,
0100
0000
0000
0010
0000
0000
0004
0000
0400
0000
0000
0000
0000
0000
0000
0000
0000
0000
0000
0000
0000
0000
0000
0000
0303
0000
0000
0000
0000
0000
0000
0000
0000
0000
0000
0000
0001
0000
0000
0000
0000
0000
0002
0000
0000
0000
0000
0000
,
0013
0020
0130
0200
1300
2000
3001
0020
,
0031
0000
2000
0000
3001
0010
0200
0000
1300
0001
0200
0000
0301
0000
2000
0000
,
3010
0200
0301
2000
3001
0200
0301
0020
,
0031
0000
2000
0000
3010
0100
0002
0000
1003
0010
0200
0000
0301
0000
0010
0000
,
0020
0130
0200
1300
2000
3001
1000
0020
,
0130
0000
0002
0000
0013
0100
2000
0000
3001
0010
0200
0000
1300
0000
2000
0000
,
3010
0000
0020
0000
0130
0000
0200
0000
0301
0000
0002
0000
2003
0000
3100
0010
,
0001
0000
0000
0010
0000
0000
0002
0000
0000
0003
0000
0000
0201
0000
0000
0000
0000
0000
0320
0000
0000
0030
0000
0000
2100
0000
0000
0000
0000
0000
3000
0000
0000
0000
0000
0000
0000
0000
0000
0000
0000
0000
0004
0000
0400
0000
0000
0000
,
0000
0000
0000
0000
,
0000
0000
0000
0000
,
0000
0000
0000
0000
,
0000
0000
0000
0000
0303
0000
0000
0000
0000
0000
0000
0000
0002
0000
1003
0010
,
1000
0100
1000
0001
0020
0000
0031
1000
0001
0100
0000
0000
0020
0000
1030
0001
,
1000
0100
0010
0002
0020
0003
0031
1000
0010
0000
1000
0001
0010
0100
1000
0100
,
0010
0001
2000
0000
3010
0100
0001
1000
0000
0000
0020
0000
0130
0001
1000
0010
,
1000
0002
0200
0003
0301
1000
0100
0000
2000
0000
3001
0100
0010
0100
0001
1000
,
0020
0000
0130
0001
1000
0100
0000
0000
2000
0000
3001
0100
0001
0010
0100
2000
,
0020
3000
0130
0001
1000
0000
0001
0000
0002
0000
1003
0000
2000
0000
3010
0000
,
0020
0000
0130
0000
0200
0000
0301
0000
1000
0010
0100
0001
1000
0000
1200
0000
,
0310
0000
0210
0000
0300
0000
0010
0001
0020
0130
1000
0002
0013
0001
2000
3100
,
0010
0002
0000
0000
1003
0001
1000
0001
0020
0130
0010
0002
1003
0100
0020
0130
,
0010
0002
0000
0000
2003
3001
0100
0010
2000
3001
0010
0200
1300
0001
0100
0001
,
1000
0020
0000
0130
0002
1003
0200
0310
0002
1003
0100
0020
0130
1000
0000
0010
,
0100
0020
1030
0001
0100
0002
1003
0010
0100
0002
1003
0100
2000
3001
0010
0200
,
1300
0020
0000
0000
1030
0100
1000
0001
0020
0130
1000
0002
0103
0010
0100
0001
,
1000
0200
0000
0000
1300
0001
0100
0002
0013
0100
2000
3001
0100
0020
0130
0001
,
1000
0000
0000
0020
0000
0000
0000
0000
0000
1030
0000
0000
0001
0000
0000
0100
0000
0000
0010
0000
0000
0000
0000
0000
MMMM
0000
0000
0000
0000
0000
0100
0000
0000
0000
0000
0000
0004
0000
4000
0M00
0000
0000
0000
0000
0000
00M0
0000
0000
,
0000
0000
0000
0M00
0000
0000
0000
0000
3003
0000
0000
0000
0000
0000
0000
0000
0000
0000
0001
0000
0000
1000
0000
0000
0020
0000
0000
0130
0000
0000
0001
0000
0000
2000
0000
0000
3100
0000
0000
0010
0000
0000
0002
0000
0000
1003
0000
0000
,
0001
0020
0000
0000
0031
0100
0001
1000
0020
0130
0001
2000
3100
1000
0002
1003
,
0100
0020
0000
0000
0130
1000
0010
0200
0301
1000
0020
0130
0001
1000
0200
0310
,
0001
2000
0000
3001
0010
0100
2000
3100
0010
0100
0010
0002
1003
0100
0000
1000
,
0001
0010
0001
0010
0001
0010
0200
1300
0001
0100
0001
0010
0100
1000
0002
0103
,
0001
0020
0000
0000
0130
1000
0002
0103
0010
0100
0002
1003
0100
0010
0002
0103
,
0010
2000
0000
0000
3001
0100
0001
0020
0031
1000
0020
0130
0001
0020
0130
1000
,
0001
0020
0000
0031
0010
0100
2000
3001
0100
0020
0130
0002
1003
0200
0000
0310
,
0100
1000
0100
1000
0100
1000
0001
0100
0001
1000
0010
0100
0001
1000
0020
0000
,
0130
0001
1000
0100
0000
0000
2000
0000
3001
0010
0100
1000
0001
2000
0020
3000
,
0130
0001
1000
0000
0100
1000
0001
0100
0010
1000
0001
1000
0020
0000
1030
0001
,
0010
0100
0000
0000
0020
0000
0031
1000
0010
0100
0001
0200
0020
0300
0130
0001
,
1000
0000
0010
0100
0001
1000
0100
0010
0100
1000
0002
0000
1003
0001
1000
0100
,
0000
0000
2000
0000
3010
0100
0001
1000
0100
2000
0002
3000
1003
0010
0100
0000
,
0001
0002
0013
0020
0130
0200
1300
2000
,
3002
0000
1003
0100
0010
0100
0020
0030
0202
0300
2003
3000
2200
0000
0000
0000
,
3300
0000
0000
0000
;

//---------------dance-single - Hard----------------
#NOTES:
     dance-single:
     Ace Of Hearts (2010):
     Hard:
     8:
     0.534,0.101,0.061,0.242,0.212:
0000
0000
2002
0000
,
0000
3003
0000
0000
,
1000
0010
1000
0100
0220
0000
0000
0000
,
0000
0330
0000
0000
,
2000
0000
0000
0000
,
0000
0000
0000
0000
0000
0000
0000
3000
,
0001
0000
0000
0000
1000
0000
0000
0000
0100
0000
0000
0000
0010
0000
0000
0000
0022
0033
0000
0000
0000
0000
0000
0000
0000
0000
0000
0000
0000
0000
0000
0000
,
0000
0000
0000
0000
0000
0000
0000
0000
1002
0000
0000
1003
0100
0000
0000
0000
,
1000
0010
1000
0010
0100
0001
0100
0000
,
0001
0000
1000
0001
1000
0000
0001
0000
0100
0000
0001
0000
0001
0000
1000
0000
,
1000
0010
0010
0100
0100
0002
0000
2003
,
0000
0000
3010
0000
0100
0001
0100
0000
0010
0000
1000
0000
1000
0000
0001
0000
,
0001
0010
0010
0100
0100
2000
0000
3002
,
0000
0000
1003
0000
0010
0100
0010
0000
1000
0000
0001
0000
0001
0000
1000
0000
,
1000
0010
0010
0100
0100
0002
0000
0023
,
0000
0000
0130
0000
1000
0001
1000
0000
0010
0000
0100
0000
0100
0000
0001
0000
,
0001
1000
1000
0100
0100
2000
0000
3020
,
0000
0000
0130
0000
0001
1000
0001
0000
0100
0000
0001
0000
0001
0000
0010
0000
,
0010
0100
0100
1000
1000
0020
0000
0230
,
0000
0000
0301
0000
1000
0100
1000
0000
0001
0000
0100
0000
0100
0000
0010
0000
,
0010
1000
1000
0100
0100
0020
0000
0032
,
0000
0000
1003
0000
0001
0010
0001
0000
1000
0000
0100
0000
0100
0000
0010
0000
,
0010
0100
0100
1000
1000
0000
0000
0000
,
0000
0000
0000
0004
4000
0000
0000
0000
0000
0000
0000
0000
3003
0000
0000
0000
0000
0000
1000
0000
0000
1000
0000
0000
,
0010
0010
0100
0100
0001
0001
1000
0001
,
1000
0000
0001
0000
1000
0010
1000
0000
0001
0100
0001
0000
1000
0000
1000
0000
,
0001
0001
0010
0010
0100
0100
1000
0001
,
1000
0000
0001
0000
0100
0001
0100
0000
0010
1000
0010
0000
0100
0000
0100
0000
,
0001
0001
1000
1000
0100
0100
1000
0001
,
0100
0000
0010
0000
1000
0001
1000
0000
0100
0010
0100
0000
1000
0000
1000
0000
,
0010
0000
0010
0000
0100
0000
0100
0000
0001
0000
0001
0000
1000
0000
0001
0100
,
0001
0100
0001
0000
1000
0000
0010
0000
0101
0000
0000
0000
0000
0000
2200
0000
,
0000
0000
0000
0000
,
0000
0000
0000
0000
,
0000
0000
0000
0000
,
0000
0000
0000
0000
3300
0000
0000
0000
0000
0000
0000
0000
0001
0000
1000
0001
,
1000
0000
0010
0000
0100
0000
0001
0000
1000
0100
0000
0000
1000
0000
0001
0000
,
0010
0001
0000
0000
2000
3000
0000
0000
0000
0000
0001
0000
0100
0001
0100
0000
,
0001
0000
1000
0000
0100
0000
0010
0001
0000
0000
1000
0000
0001
0000
0100
0001
,
0000
0000
0200
0300
0000
0000
0000
0000
0010
0000
1000
0001
1000
0000
0100
0000
,
0010
0000
0001
0000
1000
0010
0000
0000
1000
0000
0001
0000
1000
0100
0000
0000
,
0020
0030
0000
0000
0000
0000
0100
0000
0100
0000
1000
0000
1000
0000
0001
0000
,
0001
0000
0100
0000
0100
0000
0010
0000
0100
0001
0100
0001
0100
0000
0010
0000
,
1000
0000
1100
0000
0000
0000
1000
0001
1000
0000
0100
0000
0010
0000
0001
0000
,
1000
0000
0100
0000
1000
0000
0001
0100
0001
0000
1000
0000
0100
0000
1000
0000
,
0001
0000
0100
0000
0001
0000
1000
0100
1000
0000
0001
0000
1000
0000
0100
0000
,
1000
0000
0010
0000
1000
0000
0001
0010
0001
0000
1000
0000
0020
0000
0000
0000
,
1000
0000
1000
0000
1030
0000
0001
0100
0001
0000
1000
0000
0001
0000
0010
0000
,
0100
0000
1000
0000
0010
0000
0100
0010
0100
0000
0001
0000
1000
0000
0001
0000
,
0100
0000
0010
0000
1000
0000
0001
0010
0001
0000
1000
0000
0001
0000
0100
0000
,
0010
0000
0000
0000
0000
0000
1000
0000
0000
0000
0000
0000
0001
0000
0000
0000
0000
0000
0010
0000
0000
0000
0000
0000
0000
0000
0000
0MM0
0000
0000
0000
0000
0000
0000
0000
0000
0400
0000
4000
0000
0000
0000
0000
0000
0000
0000
0000
0000
,
0000
0000
0000
0000
0000
0000
0000
0000
3300
0000
0000
0000
0000
0000
0000
0000
0000
0000
1000
0000
0000
0001
0000
0000
1000
0000
0000
0000
0000
0000
0010
0000
0000
0000
0000
0000
0100
0000
0000
0000
0000
0000
0001
0000
0000
0000
0000
0000
,
1000
0000
0100
0000
1000
0000
0010
1000
0010
0000
0100
0000
0001
0000
1000
0000
,
0100
0000
0010
0000
0100
0000
1000
0100
1000
0000
0001
0000
0100
0000
0010
0000
,
0100
0000
0001
0000
1000
0000
0010
1000
0010
0000
0100
0000
0002
0000
0000
0000
,
0100
0000
0100
0000
0103
0000
0010
1000
0010
0000
0100
0000
0001
0000
0100
0000
,
1000
0000
0100
0000
0001
0000
1000
0100
1000
0000
0010
0000
0001
0000
0010
0000
,
1000
0000
0001
0000
1000
0000
0100
0010
0100
0000
1000
0000
0100
0000
0001
0000
,
0100
0000
1000
0000
0010
0000
0100
0001
0100
0000
0010
0000
1000
0000
0100
0000
,
0001
0000
0100
0000
1000
0000
0001
0000
0100
0010
0100
0000
0001
0000
1000
0000
,
0001
0000
1000
0100
0000
0000
0010
0000
0100
0000
1000
0001
0000
0000
0200
0300
,
0000
0000
0000
0000
0001
0000
1000
0001
1000
0000
0100
0000
1000
0000
0001
0000
,
0010
0100
0000
0000
1000
0000
0001
0000
1000
0010
0000
0000
0200
0300
0000
0000
,
0000
0000
0001
0000
1000
0100
1000
0000
0001
0000
0100
0000
0010
0000
1000
0001
,
0000
0000
1000
0000
0001
0000
0010
0100
0000
0000
2000
3000
0000
0000
0000
0000
,
0001
0001
0010
0010
0100
0100
1000
1000
,
0001
0000
1000
0100
1000
0100
1000
0000
0010
0000
0100
0000
0202
0000
0000
0000
,
0303
0000
0000
0000
;

//---------------dance-single - Medium----------------
#NOTES:
     dance-single:
     Ace Of Hearts (2010):
     Medium:
     6:
     0.354,0.101,0.045,0.250,0.011:
0000
0000
2002
0000
,
3003
0000
0000
0000
,
0001
1000
0001
0000
2002
0000
0000
0000
,
3003
0000
0000
0000
,
0002
0000
0000
0000
,
0000
0000
0000
0000
0000
0000
0000
0003
,
1000
0001
1000
0000
2002
3003
0000
0000
,
0000
0000
1000
0010
,
1000
1000
0001
0001
,
1000
0000
1000
0000
0001
0100
0001
0000
,
1000
0100
1000
0000
0000
0010
0000
0010
,
0000
0010
0100
0000
0001
1000
0001
0000
,
1000
0100
1000
0000
0000
0001
0000
0001
,
0000
0001
0100
0000
0001
1000
0001
0000
,
1000
0010
1000
0000
0000
0100
0000
0100
,
0000
0100
1000
0000
0001
0010
0001
0000
,
1000
0001
1000
0000
0000
0010
0000
0010
,
0000
0010
0100
0000
0010
1000
0010
0000
,
0100
0001
0100
0000
0000
0001
0000
0001
,
0000
0001
0010
0000
0001
0100
0001
0000
,
1000
0010
1000
0000
0000
0010
0000
0010
,
0000
0010
1000
0000
0001
0010
0001
0000
,
1000
0010
1000
0000
0100
0000
0000
0000
,
0000
0000
4000
0004
0000
0000
0000
0000
3003
0000
0000
0000
1000
0000
0001
0000
,
1000
0000
0001
0100
0001
0000
1000
0000
,
2000
0000
0100
0000
3100
0000
0010
0001
,
0010
0000
0001
1000
0001
0000
0100
0000
,
0200
0000
0001
0000
0301
0000
1000
0100
,
1000
0000
0001
0010
0001
0000
0010
0000
,
0020
0000
0100
0000
0130
0000
1000
0100
,
1000
0000
0001
0010
0001
0000
0010
0100
,
0010
0000
0001
0000
1001
0000
0000
0200
,
0000
0000
0000
0000
,
0000
0000
0000
0000
,
0000
0000
0000
0000
,
0000
0300
0000
0001
,
0001
0000
1000
0100
1000
0000
0001
0100
,
0001
0000
0000
0000
2000
3000
0000
0000
0000
0000
0010
0000
0000
0000
0010
0000
,
0000
1000
0001
1000
0000
0001
0100
0001
,
0000
0000
0020
0030
0000
0000
0000
0000
0001
0000
0000
0000
0001
0000
0000
0000
,
1000
0010
1000
0000
0001
0010
0001
0000
,
0200
0300
0000
0000
0000
0000
0010
0000
1000
0000
0010
0000
0000
0000
1000
0000
,
0001
1000
0000
0001
0100
0001
0000
1000
,
0001
1000
0000
0001
0100
0001
0100
0002
,
0000
0003
0000
1000
0010
1000
0010
2000
,
0000
3000
0000
0001
0010
0001
0010
0002
,
0000
0003
0000
1000
0100
1000
0001
0000
,
1000
0001
0000
0100
0001
0100
0001
0200
,
0000
0300
0000
0010
1000
0010
1000
0020
,
0000
0030
0000
1000
0100
1000
0100
2000
,
0000
0000
3000
0000
0000
0000
0010
0000
0000
00M0
0000
0000
0220
0000
0000
0000
,
0000
0330
0000
0010
1000
0010
1000
0002
,
0000
0003
0000
1000
0100
1000
0100
0020
,
0000
0030
0000
0001
1000
0001
1000
0200
,
0000
0300
0000
1000
0001
1000
0001
0000
,
1000
0100
0000
1000
0001
1000
0001
0020
,
0000
0030
0000
0001
1000
0001
1000
0200
,
0000
0300
0000
1000
0010
1000
0010
0200
,
0000
0300
0000
0001
1000
0001
1000
0000
,
0010
0100
0000
0001
0000
0001
0000
1000
,
0010
0000
1000
0000
0000
0000
0001
0000
0100
0000
0001
0000
0000
0000
0200
0300
,
0000
0000
0010
0000
0010
0000
1000
0001
,
1000
0000
0000
0000
0100
0000
0010
0000
0100
0000
0000
0000
2000
3000
0000
0000
,
0000
0010
0000
0010
0000
0100
0001
0100
,
0000
0000
0001
0000
1000
0000
0001
0000
0000
0000
0020
0030
0000
0000
0000
0000
,
0001
1000
0001
1000
0010
1000
0010
0000
,
1000
0000
0001
0000
1000
0001
1000
0000
0001
0000
0000
0000
2002
0000
3003
0000
;

//---------------dance-single - Easy----------------
#NOTES:
     dance-single:
     Ace Of Hearts (2010):
     Easy:
     3:
     0.192,0.101,0.030,0.106,0.000:
0000
0000
2002
0000
,
3003
0000
0000
0000
,
0001
0000
2002
0000
,
3003
0000
0000
0000
,
2000
0000
0000
0000
,
0000
0000
0000
3000
,
0000
0000
1001
0000
,
0000
0000
1000
0000
,
1000
0000
1000
0000
,
1000
0000
0001
0001
,
0001
0000
0000
0000
0000
0010
0000
0000
,
0000
0000
0100
0100
,
0100
0000
0000
0000
0000
0010
0000
0000
,
0000
0000
0001
0001
,
0001
0000
0000
0000
0000
1000
0000
0000
,
0000
0000
0010
0010
,
0010
0000
0000
0000
0000
0100
0000
0000
,
0000
0000
0001
0001
,
0001
0000
0000
0000
0000
1000
0000
0000
,
0000
0000
0100
0100
,
0100
0000
0000
0000
0000
1000
0000
0000
,
0000
0000
0010
0010
,
0010
0000
0100
0000
,
0000
0002
0000
0000
1003
0000
1000
0000
,
1000
1000
0000
0010
,
0010
0100
0100
0001
,
0001
0001
0000
1000
,
1000
0100
0100
1000
,
1000
1000
0000
0010
,
0010
0100
0100
0001
,
0001
0001
0000
1000
,
0001
0000
0100
0000
0000
0000
0000
0002
,
0000
0000
0000
0000
,
0000
0000
0000
0000
,
0000
0000
0000
0000
,
0000
0003
0000
0010
,
0000
0001
0001
1000
,
1000
0000
0000
0000
0000
0010
0000
0000
,
0000
0100
0000
0100
0000
0001
0000
0001
,
0000
0000
1000
0000
,
0001
0001
0010
0010
,
0000
0000
0000
0001
0000
0001
0000
0001
,
0000
0000
0000
1000
0000
1000
0000
0100
,
0000
0000
0000
1000
0000
1000
0000
1000
,
0000
0000
0000
0001
0000
0001
0000
0001
,
0000
0000
0000
0010
0000
0010
0000
0010
,
0000
0000
0000
0100
0000
0100
0000
0200
,
0000
0000
0300
1000
0000
1000
0000
1000
,
0000
0000
0000
0001
0000
0001
0000
0001
,
0000
0000
0000
0010
0000
0010
0000
0010
,
0000
0000
0000
0001
0000
0000
2000
0000
,
0000
3000
0000
0001
0000
0001
0000
0001
,
0000
0000
0000
1000
0000
1000
0000
1000
,
0000
0000
0000
0010
0000
0010
0000
0010
,
0000
0000
0000
0100
0000
0100
0000
0200
,
0000
0000
0300
0001
0000
0001
0000
0001
,
0000
0000
0000
0100
0000
0100
0000
0100
,
0000
0000
0000
0010
0000
0010
0000
0010
,
0000
0000
0000
1000
0000
1000
0000
2000
,
0000
0000
3000
0001
0000
0000
0000
0100
,
0000
0100
0000
0001
0000
0001
0000
0002
,
0003
0100
0000
0001
,
0001
0000
1000
0000
1000
0000
2000
3000
,
0000
0010
0000
0000
0000
1000
0000
1000
,
0000
0100
0000
0100
0000
0200
0300
0000
,
1000
1000
1000
0000
,
0010
0010
1000
1001
;

//---------------dance-single - Novice----------------
#NOTES:
     dance-single:
     Ace Of Hearts (2010):
     Beginner:
     1:
     0.130,0.050,0.023,0.204,0.000:
0000
0000
1001
0000
,
0000
0000
0000
0000
,
0000
0000
1001
0000
,
0000
0000
0000
0000
,
0020
0000
0000
0000
,
0000
0000
0000
0000
,
0000
0000
0030
0000
,
0000
0000
0000
0000
,
1000
0000
0000
0000
,
0000
0000
0001
0000
,
0001
0000
0001
0000
,
0000
0000
1000
0000
,
1000
0000
1000
0000
,
0000
0000
0010
0000
,
0010
0000
0010
0000
,
0000
0000
0100
0000
,
0100
0000
0100
0000
,
0000
0000
0001
0000
,
0001
0000
0001
0000
,
0000
0000
1000
0000
,
1000
0000
1000
0000
,
0000
0000
0100
0000
,
0100
0000
0100
0000
,
0000
0000
0000
1000
,
0000
1000
0000
1000
,
0000
2000
3000
0001
,
0000
0001
0000
0001
,
0000
0002
0003
0100
,
0000
0100
0000
0100
,
0000
0200
0300
0001
,
0000
0001
0000
0020
,
0000
0030
0000
0200
,
0000
0000
0000
0000
,
0000
0000
0000
0000
,
0000
0000
0000
0000
,
0000
0300
0000
1000
,
0000
2000
3000
2000
,
3000
0000
0000
0000
0000
0001
0000
0000
,
0000
0002
0000
0003
0000
0002
0000
0003
,
0000
0000
0100
0000
,
0200
0300
0200
0300
,
0000
0000
0000
0001
0000
0000
0000
0001
,
0000
0000
0000
0200
0000
0000
0000
0300
,
0000
0000
0000
0002
0000
0000
0000
0003
,
0000
0000
0000
2000
0000
0000
0000
3000
,
0000
0000
0000
0020
0000
0000
0000
0030
,
0000
0000
0000
0200
0000
0000
0000
0300
,
0000
0000
0000
0002
0000
0000
0000
0003
,
0000
0000
0000
2000
0000
0000
0000
3000
,
0000
0000
0000
0020
0000
0000
0000
0030
,
0000
0000
0000
0100
0000
0000
0000
0000
,
0000
0000
0000
0001
0000
0000
0000
0001
,
0000
0000
0000
1000
0000
0000
0000
1000
,
0000
0000
0000
0010
0000
0000
0000
0010
,
0000
0000
0000
0100
0000
0000
0000
0100
,
0000
0000
0000
0001
0000
0000
0000
0001
,
0000
0000
0000
1000
0000
0000
0000
1000
,
0000
0000
0000
0010
0000
0000
0000
0010
,
0000
0000
0000
0100
0000
0000
0000
0000
,
0000
0000
0000
0001
0000
0000
0000
2000
,
0000
3000
0000
2000
0000
3000
0000
0000
,
0000
1000
0000
0002
,
0003
0002
0003
0000
,
0000
1000
0000
0000
0000
0020
0000
0030
,
0000
0020
0000
0030
0000
0000
0000
0000
,
1000
1000
1000
0000
,
0002
0003
1001
0000
;
