#TITLE:World's End Dancehall;
#SUBTITLE:;
#ARTIST:Miku Hatsune & Luka Megurine;
#TITLETRANSLIT:;
#SUBTITLETRANSLIT:;
#ARTISTTRANSLIT:;
#GENRE:;
#CREDIT:Ace Of Hearts;
#BANNER:World's End Dancehall - bn (Legacy).png;
#BACKGROUND:World's End Dancehall - Bg (Diva).jpg;
#LYRICSPATH:World's End Dancehall Lyrics.lrc;
#CDTITLE:Ace Of Hearts.png;
#MUSIC:World's End Dancehall.ogg;
#OFFSET:0.640;
#SAMPLESTART:83.440;
#SAMPLELENGTH:14.000;
#SELECTABLE:YES;
#BPMS:0.000=171.000,555.000=85.000,556.000=171.000;
#STOPS:360.000=1.060
;
#BGCHANGES:2.000=World's End Dancehall Music Video (Legacy).avi=1.000=0=0=1=====,
99999=-nosongbg-=1.000=0=0=0 // don't automatically add -songbackground-
;
#KEYSOUNDS:;

//---------------dance-single - Ace Of Hearts (2010)----------------
#NOTES:
     dance-single:
     Ace Of Hearts (2010):
     Challenge:
     11:
     0.974,0.000,0.844,1.000,0.479: // measure 1
0000
0000
0000
0000
,  // measure 2
0000
0000
0000
0000
,  // measure 3
0000
0000
0000
0000
,  // measure 4
0000
0000
0000
0000
,  // measure 5
0000
0000
0000
0000
,  // measure 6
0000
0000
0000
0000
,  // measure 7
0000
0000
0000
0000
,  // measure 8
0000
0000
0000
0000
,  // measure 9
0000
0000
0000
0000
,  // measure 10
0000
0000
0000
0000
,  // measure 11
0000
0000
0000
0000
,  // measure 12
0000
0000
0000
0000
0000
0000
0000
0000
0000
0000
0000
0000
0001
0100
0010
1000
,  // measure 13
0002
0000
0000
1003
0100
0000
0020
0000
0000
0000
0130
1000
0001
1000
0010
0000
,  // measure 14
0210
0000
0000
0301
1000
0000
0200
0000
0000
0000
1300
0000
0001
1000
0010
0000
,  // measure 15
0120
0000
0000
1030
0001
0000
0020
0000
0000
0000
0031
1000
0010
1000
0001
0000
,  // measure 16
0021
0000
0000
0130
1000
0000
0002
0000
0000
0000
1003
0010
0100
0001
1000
0000
,  // measure 17
1200
0000
0000
0310
0001
0000
2000
0000
0000
0000
3010
0100
0001
1000
0001
0010
,  // measure 18
0200
0000
0000
0310
0001
0000
2000
0000
0000
0000
3001
0000
0100
0001
1000
0000
,  // measure 19
1020
0000
0000
0130
0001
0000
2000
0000
0000
0000
3100
0000
0010
0001
1000
0000
,  // measure 20
1200
0000
0000
0310
0001
0000
2000
0000
0000
0000
3010
0000
0100
0001
1000
0000
,  // measure 21
1002
0000
0000
0103
0010
0000
2000
0000
0000
0000
3100
0000
0010
0000
0001
0000
,  // measure 22
0201
0000
0000
0310
1000
0000
1100
0000
0000
0000
1000
0001
0200
0000
0310
0000
,  // measure 23
2010
0000
0000
3001
0010
0000
0210
0000
0000
0000
0310
0000
0001
0000
1000
0000
,  // measure 24
1002
0000
0000
0013
0100
0000
2100
0000
0000
0000
3001
0100
0010
0000
1000
0000
,  // measure 25
1200
0000
0000
0310
0001
0000
2001
0000
0000
0000
3010
0000
1000
0000
0100
0000
,  // measure 26
0120
0000
0000
0130
1000
0000
1002
0000
0000
0000
0103
0000
0010
0000
1000
0000
,  // measure 27
1200
0000
0000
1300
0001
0000
0201
0000
0000
0000
0310
0000
1000
0000
0001
0000
,  // measure 28
M012
0000
0000
0003
020M
0000
0000
0300
2M01
0000
0000
3000
M002
0000
0000
0003
,  // measure 29
0021
0000
0000
0130
1000
0000
1002
0000
0000
0000
0103
0000
0010
0000
1000
0000
,  // measure 30
1200
0000
0000
0310
0001
0000
2001
0000
0000
0000
3010
0000
0100
0000
0001
0000
,  // measure 31
0021
0000
0000
0130
1000
0000
1002
0000
0000
0000
0103
0000
0010
0000
1000
0000
,  // measure 32
11M0
0000
0000
0000
M010
0000
0000
0000
01M2
0000
0000
0003
200M
0000
0000
3000
,  // measure 33
1020
0000
0000
1030
0001
0000
0201
0000
0000
0000
0310
0000
1000
0000
0001
0000
,  // measure 34
0021
0000
0000
0130
0000
0000
2100
0000
0000
0000
3001
0000
0200
0000
0000
0300
,  // measure 35
0120
0000
0000
1030
0001
0000
0021
0000
0000
0000
0130
0000
1000
0000
0001
0000
,  // measure 36
0201
0000
0000
0000
0310
0000
0000
0000
1002
0000
0000
0000
0023
0000
0000
0030
,  // measure 37
0210
0000
0000
1300
0001
0000
0010
0000
0000
0000
0100
1000
0001
0000
0100
0000
,  // measure 38
0120
0000
0000
1030
0001
0000
0010
0000
0000
0000
0001
1000
0010
1000
0001
0010
,  // measure 39
0200
0000
0000
0310
0001
0000
1000
0000
0000
0000
0010
1000
0001
0000
1000
0000
,  // measure 40
1020
0000
0000
1030
0001
0000
0100
0000
0000
0000
0010
1000
0001
1000
0100
0010
,  // measure 41
0002
0000
0000
1003
0010
0000
0110
0000
0000
0000
0100
0001
1000
0000
0010
0000
,  // measure 42
0210
0000
0000
0301
1000
0000
1100
0000
0000
0000
0100
0010
0001
1000
0001
0100
,  // measure 43
0020
0000
0000
1030
0001
0000
0011
0000
0000
0000
0010
0100
1000
0000
0001
0000
,  // measure 44
0201
0000
0000
0310
1000
0000
1001
0000
0000
0000
0001
0010
0001
1000
0010
0100
,  // measure 45
0002
0000
1003
0100
0010
0000
0200
0000
0000
0000
1300
0000
0001
0000
0100
0000
,  // measure 46
0210
0000
0000
0301
0000
0000
0021
0000
0000
0000
0031
0000
0200
0000
0000
0300
,  // measure 47
0120
0000
0000
1030
0001
0000
0020
0000
0000
0000
0031
0000
1000
0000
0010
0000
,  // measure 48
0210
0000
0000
0301
0000
0000
2001
0000
0000
0000
3001
0000
0020
0000
0000
0030
,  // measure 49
0210
0000
0000
1300
0001
0000
0200
0000
0000
0000
0310
0000
1000
0000
0001
0000
,  // measure 50
0021
0000
0000
0230
0000
0300
2100
0000
0000
0000
3000
0000
0002
0000
0000
0003
,  // measure 51
0201
0000
0000
0310
1000
0000
0200
0000
0000
0000
0310
0000
0100
0000
1000
0000
,  // measure 52
1M01
0000
0000
0000
M002
0000
0000
0003
01M1
0000
0000
0000
M200
0000
0000
0000
,  // measure 53
0310
1000
0002
0000
0013
0001
2000
0000
3010
1000
0100
0010
0001
1000
0010
0000
,  // measure 54
1000
0001
0200
0000
0301
1000
0100
0010
1000
0010
0200
0000
0310
0001
2000
0000
,  // measure 55
3001
0010
0100
0010
0001
1000
0010
0100
0010
0001
0010
0100
0001
1000
0100
0010
,  // measure 56
0002
2003
3020
0230
,  // measure 57
0301
1000
0010
0100
M010
0001
0010
1000
0001
0000
0010
0000
0100
0000
0000
0000
,  // measure 58
1000
0100
0010
0100
M001
0100
0010
0001
1000
0000
0010
0000
0100
0000
0000
0000
,  // measure 59
0002
0000
1003
0100
0010
0100
1000
0001
,  // measure 60
0101
0110
1010
1001
2200
0000
0010
3300
,  // measure 61
0110
0000
000M
0000
0010
0000
0200
0300
1100
0000
00M0
0000
1000
0000
0002
0003
,  // measure 62
0101
0000
02M0
0000
0310
0000
1000
0000
1001
0000
M000
0000
0020
0000
0000
0030
,  // measure 63
0110
0000
M000
0000
0000
0000
0020
0030
0011
0000
0M00
0000
0000
0000
0002
0003
,  // measure 64
1001
0000
001M
0000
0100
0000
0002
0003
1001
0000
0000
0000
200M
0000
0000
3000
,  // measure 65
1010
0M00
2000
3001
0011
0M00
0020
0130
,  // measure 66
1100
0000
20M0
0000
3001
0000
0200
0300
0110
0000
0M00
0000
2000
0000
0000
3000
,  // measure 67
1001
0000
00M0
0000
0000
0000
0002
0003
0101
0000
000M
0000
0000
0000
0020
0030
,  // measure 68
1010
0000
2M00
0000
3001
0000
0200
0300
0110
0000
000M
0000
0020
0000
0000
0030
,  // measure 69
0110
M000
0200
0301
1001
00M0
2000
3100
,  // measure 70
0110
0000
02M0
0000
1300
0000
0002
0000
0103
0000
00M0
0000
0020
0000
0000
0030
,  // measure 71
1010
0000
0M00
0000
0000
0000
2000
3000
1200
0000
M310
0000
0002
0000
1003
0000
,  // measure 72
0020
0000
103M
0000
0002
0000
0103
0000
0120
0000
0M00
0000
2030
0000
0000
3000
,  // measure 73
1001
M001
1001
100M
,  // measure 74
0020
0000
0130
0000
0020
0000
0130
0000
0001
0000
0000
0000
2000
0000
0000
3000
,  // measure 75
1010
0000
M000
0000
0000
0000
0200
0300
0101
0000
0M00
0000
0000
0000
2000
3000
,  // measure 76
1001
0000
00M2
0000
0103
0000
0020
0030
1010
0000
M000
0000
0400
0000
0000
0300
,  // measure 77
0102
0000
0000
1003
0100
0000
0020
0000
0000
0000
0130
1000
0001
0010
0100
0010
,  // measure 78
0002
0000
0000
1003
0010
0000
2000
0000
0000
0000
3001
0000
0200
0000
0000
0300
,  // measure 79
0120
0000
0000
1030
0001
0000
0020
0000
0000
0000
0031
1000
0010
1000
0001
0010
,  // measure 80
0200
0000
0000
0310
0001
0000
2000
0000
0000
0000
3010
1000
0001
1000
0010
0000
,  // measure 81
0210
0000
0000
0301
1000
0000
0200
0000
0000
0000
1300
0001
0100
0010
1000
0001
,  // measure 82
0020
0000
0000
0031
1000
0000
0020
0000
0000
0000
1030
0001
0100
0010
1000
0000
,  // measure 83
1200
0000
0000
0310
0001
0000
2000
0000
0000
0000
3010
1000
0001
1000
0100
0010
,  // measure 84
0002
0000
0000
0013
0100
0000
1000
0001
0100
0010
1000
0001
1000
0100
0010
0001
,  // measure 85
2M00
0000
0000
3010
000M
0000
0200
0000
M000
0000
0301
0000
10M0
0000
0001
0000
,  // measure 86
M200
0000
0000
0310
000M
0000
0100
0000
00M1
0000
0000
0000
2M00
0000
0000
0000
,  // measure 87
302M
0000
0000
1030
0M00
0000
0002
0000
00M0
0000
0013
0000
M100
0000
2000
0000
,  // measure 88
3M02
0000
0000
0103
00M0
0000
0020
0000
M000
0000
0000
0000
000M
0000
0030
0000
,  // measure 89
20M0
0000
0000
3001
0M00
0000
0020
0000
M000
0000
0031
0000
10M0
0000
0010
0000
,  // measure 90
020M
0000
0000
0301
00M0
0000
1000
0000
000M
0000
0000
0000
M002
0000
0000
0003
,  // measure 91
1MM1
0000
M00M
0000
1000
0010
0000
0010
0100
0000
0001
1000
0100
0010
0001
0000
,  // measure 92
1000
0010
0100
0000
0101
0000
0001
1000
0100
0000
0020
0000
0000
0000
0031
0000
,  // measure 93
1000
0000
0010
0000
0210
0000
0000
0301
0000
0000
2000
0000
0000
0000
3001
0000
,  // measure 94
0020
0000
0000
0030
0210
0000
0000
1300
0001
0000
2000
0000
0000
0000
3001
0000
,  // measure 95
0100
0000
0020
0030
2010
0000
0000
3010
0000
0000
0210
0000
0000
0000
0000
0000
,  // measure 96
0302
0000
0000
0003
2001
0000
0000
3010
0100
0000
0020
0000
0000
0000
1030
0000
,  // measure 97
0001
0000
1000
0000
1020
0000
0000
0130
0000
0000
0001
0000
0000
0000
0000
0000
,  // measure 98
2000
0000
0000
3000
1200
0000
0000
0310
0000
0000
0012
0000
0000
0000
1003
0000
,  // measure 99
0010
1000
1M02
0000
01M3
0000
M110
0000
,  // measure 100
020M
0000
0000
0000
0301
1000
0020
0000
1030
0001
0100
M010
0100
100M
0100
0010
,  // measure 101
1000
0001
0020
0000
0031
1000
0100
0010
M100
0001
0100
0010
M001
1000
0010
0100
,  // measure 102
0001
1000
0200
0000
0310
0001
1000
0010
010M
1000
0100
0010
100M
0001
0010
0001
,  // measure 103
1000
0010
1000
0001
0200
0000
0000
0000
0302
0000
0000
0000
2003
0000
0000
0000
,  // measure 104
3020
0000
0000
0000
1030
0001
10M0
0100
001M
1000
0010
0100
100M
0000
00M1
0000
,  // measure 105
0100
0000
0000
0000
0M01
1000
0010
0100
M010
0001
0010
0100
M001
0000
1M00
0000
,  // measure 106
0010
0000
2000
0000
3001
0010
0001
1000
,  // measure 107
0010
0000
0100
0000
0101
0000
0110
0000
1010
0000
1001
0000
0001
0100
0010
1000
,  // measure 108
0001
0010
0100
1000
0001
0000
00M0
0000
0010
0000
0002
0003
1001
0000
M000
0000
,  // measure 109
1000
0000
0020
0030
0110
0000
02M0
0000
0301
0000
2000
3000
1100
0000
M000
0000
,  // measure 110
0020
0000
0000
0030
1001
0000
00M0
0000
0000
0000
2000
3000
1010
0000
0M00
0000
,  // measure 111
0000
0000
0020
0030
0110
0000
02M0
0000
0301
0000
2000
3000
1100
0000
000M
0000
,  // measure 112
0200
0000
0000
0300
0110
0000
M000
0000
0020
0000
0031
0000
1001
0000
0M00
0000
,  // measure 113
2000
0000
3001
0000
0101
0000
020M
0000
0310
0000
2000
3000
1100
0000
M000
0000
,  // measure 114
0020
0000
0000
0030
0011
0000
0M00
0000
0000
0000
0002
0003
0101
0000
0M00
0000
,  // measure 115
0000
0000
2000
3000
1010
0000
0M20
0000
0130
0000
0002
0003
0011
0000
M000
0000
,  // measure 116
0020
0000
0000
0030
0110
0000
000M
0000
0100
0000
2000
3000
1001
0000
M002
0000
,  // measure 117
0103
0000
0020
0030
0110
0000
020M
0300
0001
0000
2000
3000
1001
0000
0M00
0000
,  // measure 118
0002
0000
0000
0003
0011
0000
000M
0000
0000
0000
0200
0300
1100
0000
00M0
0000
,  // measure 119
0000
1000
1001
0M02
0013
0001
0101
00M0
,  // measure 120
0200
0000
0000
0300
0110
0000
M000
0000
0020
0000
1030
0000
1100
0000
M200
0000
,  // measure 121
0310
0000
0002
0003
0101
0000
020M
0000
0310
0000
2000
3000
1001
0000
M000
0000
,  // measure 122
0002
0000
0000
0003
0101
0000
00M0
0000
0000
0000
0200
0300
0110
0000
M000
0000
,  // measure 123
0000
0000
0010
0000
1010
0000
20M0
0000
3001
0000
0020
0030
0110
0000
000M
0000
,  // measure 124
0200
0000
0000
0300
1100
0000
00M0
0000
1000
0000
0002
0003
0101
0000
00M0
0000
,  // measure 125
0200
0000
0310
0000
1010
0000
2M00
3000
1001
0000
0002
0003
0101
0000
0M00
0000
,  // measure 126
2000
0000
0000
3000
1010
0000
M000
0000
0000
0000
0200
0300
0101
0000
00M0
0000
,  // measure 127
0000
0000
0002
0003
1001
0000
200M
0000
3100
0000
0010
0000
0011
0000
00M0
0000
,  // measure 128
0002
0000
0000
0003
0101
0000
00M0
0000
0200
0000
0310
0000
1010
0000
M000
0000
,  // measure 129
0200
0000
0301
0000
1001
0000
20M0
0000
3010
0000
0200
0300
0101
0000
M000
0000
,  // measure 130
0002
0000
0000
0003
0011
0000
000M
0000
0000
0000
0200
0300
1100
0000
00M0
0000
,  // measure 131
0000
0000
2000
3000
1001
0000
M002
0000
0103
0000
0020
0030
1010
0000
0M00
0000
,  // measure 132
2000
0000
0000
3000
1100
0000
M000
0000
0020
0000
0031
0000
1001
0000
00M0
0000
,  // measure 133
2000
0000
3001
0000
0101
0000
020M
0000
0310
0000
2000
3000
1100
0000
00M0
0000
,  // measure 134
2000
0000
0000
3000
1001
0000
0M00
0000
0000
0000
0002
0003
0101
0000
02M0
0000
,  // measure 135
0310
0000
2000
3000
1001
0000
0M02
0000
0013
0000
0200
0300
2100
0000
0M00
0000
,  // measure 136
3002
0000
0000
0003
0011
0000
000M
0000
0200
0000
0000
0300
1100
0000
0M00
0000
,  // measure 137
0002
0000
1003
0002
1003
0002
0103
0000
,  // measure 138
0020
0000
0000
0030
0110
0000
M000
0000
0000
0000
0200
0300
0101
0000
00M0
0000
,  // measure 139
0000
0000
0002
0003
1001
0000
2M00
0000
3010
0000
0100
0000
0004
0000
0000
0003
,  // measure 140
2001
0000
0000
3001
0100
0000
0020
0000
0000
0000
1030
0001
0010
0001
1000
0000
,  // measure 141
1020
0000
0000
1030
0001
0000
0020
0000
0000
0000
0031
1000
0010
0000
0100
0000
,  // measure 142
0102
0000
0000
0103
0010
0000
2000
0000
0000
0000
3001
0010
0001
1000
0010
1000
,  // measure 143
0200
0000
0000
0310
0001
0000
2000
0000
0000
0000
3001
0000
0100
0010
1000
0000
,  // measure 144
1002
0000
0000
0103
0010
0000
2000
0000
0000
0000
3010
0100
0001
1000
0100
0010
,  // measure 145
0002
0000
0000
1003
0010
0000
0200
0000
0000
0000
0301
1000
0100
0010
0100
0000
,  // measure 146
2100
0000
0000
3001
0100
0000
0020
0000
0000
0000
0130
0001
1000
0100
0010
0100
,  // measure 147
2000
0000
0000
3001
0100
0000
0020
0000
0000
0000
0130
0000
0001
1000
0001
0100
;

//---------------dance-single - Ace Of Hearts (2010)----------------
#NOTES:
     dance-single:
     Ace Of Hearts (2010):
     Hard:
     9:
     0.718,0.000,0.024,1.000,0.223:
0000
0000
0000
0000
,
0000
0000
0000
0000
,
0000
0000
0000
0000
,
0000
0000
0000
0000
,
0000
0000
0000
0000
,
0000
0000
0000
0000
,
0000
0000
0000
0000
,
0000
0000
0000
0000
,
0000
0000
0000
0000
,
0000
0000
0000
0000
,
0000
0000
0000
0000
,
0000
0000
0000
0000
0000
0000
1000
0001
,
0200
0000
0000
0301
1000
0000
0002
0000
0000
0000
1003
0000
0010
0000
0100
0000
,
0002
0000
0000
1003
0010
0000
0200
0000
0000
0000
0310
0000
1000
0000
0001
0000
,
0020
0000
0000
0031
1000
0000
0200
0000
0000
0000
1300
0000
0001
0000
0100
0000
,
0020
0000
0000
0130
0001
0000
2000
0000
0000
0000
3100
0000
0010
0000
0001
0000
,
2000
0000
0000
3001
0100
0000
0020
0000
0000
0000
1030
0000
0001
0000
0010
0000
,
0200
0000
0000
0310
0001
0000
2000
0000
0000
0000
3001
0000
0100
0000
0001
0000
,
2000
0000
0000
3010
0100
0000
0002
0000
0000
0000
1003
0000
0010
0000
1000
0000
,
0002
0000
0000
1003
0100
0000
2000
0000
0000
0000
3001
0000
0100
0000
0010
0000
,
2000
0000
0000
3001
0000
0000
0010
0000
0000
0000
0001
0000
1000
0000
0010
0000
,
0200
0000
0000
0301
0000
0000
2000
0000
0000
0000
0000
0000
3200
0000
0000
0000
,
0320
0000
0000
0031
0000
0000
2000
0000
0000
0000
3001
0000
0100
0000
0010
0000
,
0100
0000
0000
0001
0000
0000
2000
0000
0000
0000
3001
0000
0100
0000
0000
0000
,
0020
0000
0000
1030
0000
0000
0002
0000
0000
0000
0000
0000
0013
0000
0100
0000
,
2000
0000
0000
3001
0000
0000
0100
0000
0000
0000
0000
0000
0002
0000
0000
0000
,
2003
0000
0000
3100
0000
0000
0020
0000
0000
0000
0130
0000
1000
0000
0001
0000
,
0020
0032
2003
3020
,
2030
0000
0000
3001
0000
0000
0020
0000
0000
0000
0031
0000
1000
0000
0010
0000
,
0200
0000
0000
0301
0000
0000
1000
0000
0000
0000
0000
0000
0200
0000
0000
0000
,
0320
0000
0000
0031
0000
0000
2000
0000
0000
0000
3001
0000
0100
0000
0001
0000
,
1M00
01M0
002M
M032
,
2003
0000
0000
3010
0000
0000
0200
0000
0000
0000
0301
0000
1000
0000
0100
0000
,
0020
0000
0000
0130
0000
0000
2000
0000
0000
0000
0000
0000
3002
0000
0000
0000
,
0023
0000
0000
0031
0000
0000
2000
0000
0000
0000
3010
0000
0100
0000
0001
0000
,
2000
3100
0020
0130
,
2000
0000
0000
3001
0100
0000
0010
0000
0000
0000
1000
0000
0001
0000
0010
0000
,
0002
0000
0000
1003
0010
0000
0100
0000
0000
0000
0001
0100
0001
0000
1000
0000
,
0200
0000
0000
0310
0001
0000
1000
0000
0000
0000
0010
0000
1000
0000
0001
0000
,
0020
0000
0000
0130
1000
0000
0100
0000
0000
0000
0010
0001
0010
0000
0100
0000
,
2000
0000
0000
3001
0100
0000
0010
0000
0000
0000
0100
0000
0001
0000
1000
0000
,
0200
0000
0000
0310
0001
0000
1000
0000
0000
0000
0001
0100
0001
0000
1000
0000
,
0020
0000
0000
1030
0001
0000
0100
0000
0000
0000
0010
0000
0100
0000
0001
0000
,
2000
0000
0000
3001
0010
0000
0100
0000
0000
0000
0010
0001
0010
0000
0100
0000
,
1000
0000
0001
0100
0001
0000
2000
0000
0000
0000
3010
0000
1000
0000
0001
0000
,
0010
0000
0000
0001
0000
0000
2000
0000
0000
0000
3001
0000
0200
0000
0000
0000
,
0320
0000
0000
1030
0000
0000
0002
0000
0000
0000
0013
0000
0001
0000
1000
0000
,
0020
0000
0000
0130
0000
0000
0020
0000
0000
0000
1030
0000
0002
0000
0000
0000
,
0023
0000
0000
0130
0000
0000
2000
0000
0000
0000
3001
0000
0100
0000
0010
0000
,
2000
0000
0000
3001
0000
0000
0020
0000
0000
0000
0000
0000
0130
0000
0000
0000
,
0020
0000
0000
0031
0000
0000
2000
0000
0000
0000
3001
0000
0100
0000
0001
0000
,
2000
3000
0000
0000
0002
0003
0000
0000
0200
0300
0000
0000
0002
0003
0000
0000
,
1000
0010
1000
0000
0001
0000
1000
0000
0010
0000
1000
0000
0001
0100
0001
0000
,
1000
0000
0100
0000
0010
0001
0010
0000
0100
0000
1000
0000
0001
0000
1000
0000
,
0001
0100
0001
0000
1000
0000
0001
0000
0010
0001
0010
0000
0001
0000
1000
0000
,
0020
2030
3002
0203
,
0310
1000
0010
1000
0010
0000
1000
0001
1000
0000
0001
0000
0010
0000
0000
0000
,
0001
1000
0001
1000
0001
0000
1000
0010
1000
0000
0001
0000
0010
0000
0000
0000
,
0001
0000
2000
3010
0100
0001
1000
0100
,
0010
0001
1000
0001
1000
0000
1MM1
0000
,
0011
0000
0020
0130
1000
0000
0020
1030
,
0001
0100
1000
0100
0001
0000
2000
0000
,
3100
0000
0000
2000
3001
0000
0000
0020
,
0130
1000
0001
0100
0010
0000
2000
0000
,
3100
0000
0020
0130
1000
0000
0002
0103
,
0010
0001
0010
1000
0001
0000
2000
0000
,
3010
0000
0000
0200
0301
0000
0000
0200
,
0310
1000
0001
0010
0100
0000
2000
0000
,
3001
0000
0200
0310
1000
0000
0002
0013
,
0100
0010
1000
0010
0001
0000
2000
0000
,
3010
0000
0000
0200
0301
0100
0010
0100
,
1000
0100
0001
0100
0020
0000
2030
0000
,
3010
0100
0010
0100
,
0002
1003
0002
1003
0100
0000
0020
0000
,
0130
0000
0000
0020
0031
0000
0000
2000
,
3001
0010
1000
0010
0001
0000
4000
0000
,
3020
0000
0000
1030
0001
0000
0200
0000
0000
0000
0301
0000
1000
0000
0010
0000
,
2000
0000
0000
3001
0010
0000
0002
0000
0000
0000
1003
0000
0010
0000
0100
0000
,
0002
0000
0000
1003
0100
0000
0020
0000
0000
0000
0130
0000
1000
0000
0001
0000
,
2000
0000
0000
3001
0100
0000
0020
0000
0000
0000
1030
0000
0001
0000
0010
0000
,
0200
0000
0000
0310
0001
0000
2000
0000
0000
0000
3001
0000
0100
0000
0010
0000
,
2000
0000
0000
3001
0010
0000
0200
0000
0000
0000
0310
0000
0001
0000
1000
0000
,
0002
0000
0000
1003
0010
0000
0200
0000
0000
0000
0310
0000
1000
0000
0001
0000
,
0200
0000
0000
0310
1000
0000
0002
0000
0000
0000
0013
0000
0100
0000
1000
0000
,
00M1
0000
0000
1000
0000
0000
0020
0000
M000
0000
1030
0000
0001
0000
0100
0000
,
00M2
0000
0000
1003
0000
0000
0010
0000
1M00
0000
0000
0000
0002
0000
0000
0000
,
M023
0000
0000
0130
0000
0000
2000
0000
000M
0000
3001
0000
1000
0000
0010
0000
,
M200
0000
0000
0301
0000
0000
2000
0000
000M
0000
0000
0000
0000
0000
3000
0000
,
0M20
0000
0000
1030
0000
0000
0002
0000
00M0
0000
0013
0000
0100
0000
1000
0000
,
0M02
0000
0000
0103
0000
0000
0020
0000
0M00
0000
0000
0000
1030
0000
0000
0000
,
1MM1
0000
0000
0000
4000
0004
0000
0000
0000
0000
0000
0000
0000
0000
0000
0000
,
3003
0000
0000
0000
1000
0000
0010
1000
0010
0000
2000
0000
0000
0000
3001
0000
,
0010
0000
0001
0000
2000
0000
0000
3010
0000
0000
0200
0000
0000
0000
0000
0000
,
0302
0000
0000
0000
2003
0000
0000
3100
0000
0000
0020
0000
0000
0000
0130
0000
,
1000
0000
0001
0000
0200
0000
0000
0310
0000
0000
2000
0000
0000
0000
0000
0000
,
3002
0000
0000
0000
0203
0000
0000
0310
0000
0000
2000
0000
0000
0000
3001
0000
,
0010
0000
0100
0000
2000
0000
0000
3001
0000
0000
0100
0000
0000
0000
0000
0000
,
0020
0000
0000
0000
2030
0000
0000
3001
0000
0000
0020
0000
0000
0000
0031
0000
,
1000
0010
0200
0000
0301
0000
2000
0000
,
3200
0000
0000
0000
0310
0001
0010
0000
0001
0000
1000
0000
0001
0000
1000
0010
,
1000
0000
0001
0000
0100
0001
0100
0000
0010
0000
0100
0000
0001
0000
1000
0100
,
1000
0000
0001
0000
1000
0010
1000
0000
0001
0000
0010
0000
0001
1000
0001
0000
,
0100
0001
2000
0000
3200
0000
0320
0000
,
0032
0000
0000
0000
1003
0100
1000
0100
1000
0000
0001
1000
0001
0000
1000
0000
,
0010
0000
0000
0000
0100
0001
0100
0001
0100
0000
0010
1000
0010
0000
0100
0000
,
0001
0000
1000
0000
0020
1030
0001
0010
,
0001
1000
0010
0100
0001
1000
0100
0000
,
0020
0000
0000
0030
0110
0000
0000
0000
0200
0000
1300
0000
0001
0000
0000
0000
,
0200
0310
1000
0001
0010
0001
1000
0000
,
0020
0000
0130
0000
0000
0002
0103
0000
,
0000
0020
0130
0001
1000
0100
0010
0000
,
0200
0000
1300
0000
0001
0200
0310
0000
,
2000
3001
0100
1000
0100
0001
0100
0000
,
0020
0000
1030
0000
0000
0002
0013
0000
,
0000
0200
1300
0001
1000
0010
0100
0000
,
0002
0000
1003
0000
0200
0310
1000
0010
,
0001
0010
0100
1000
0001
1000
0001
0000
,
0020
0000
0130
0000
0000
0020
0031
0000
,
0000
2000
3010
0100
0010
0001
0010
0000
,
2000
0000
3001
0000
2000
3010
0001
0010
,
0100
0001
1000
0100
0010
0100
1000
0000
,
0002
0000
0103
0000
0000
0020
0130
0000
,
0000
0002
1003
0100
0010
1000
0010
0000
,
0002
0000
0000
0003
1001
0000
0000
0000
2000
0000
3010
0000
0100
0000
0000
0000
,
0002
1003
0100
0001
0100
1000
0001
0000
,
0200
0000
0310
0000
0000
0200
0301
0000
,
0000
2000
3001
0010
1000
0010
0001
0000
,
2000
0000
3010
0000
0200
0301
1000
0000
,
0200
0310
0001
1000
0001
0100
0010
0000
,
2000
0000
3001
0000
0000
0020
0031
0000
,
0000
2000
3100
0010
0100
0001
0100
0000
,
0020
0000
0031
0000
2000
3001
0100
0000
,
0020
0130
0001
0100
1000
0100
0001
0000
,
2000
0000
3100
0000
0000
0020
0130
1000
,
0001
0010
1000
0010
0001
1000
0020
0000
,
0230
0301
1000
0001
,
1000
0000
0002
0103
0002
0103
0010
0000
,
2000
0000
3100
0000
0000
0020
0130
0000
,
0000
2000
3001
0100
0010
1000
0002
0003
,
2000
0000
0000
3001
0010
0000
0002
0000
0000
0000
1003
0000
0010
0000
0100
0000
,
0002
0000
0000
1003
0100
0000
0020
0000
0000
0000
0130
0000
1000
0000
0001
0000
,
0200
0000
0000
0310
1000
0000
0002
0000
0000
0000
0013
0000
0100
0000
1000
0000
,
0002
0000
0000
1003
0010
0000
0200
0000
0000
0000
0301
0000
1000
0000
0100
0000
,
0020
0000
0000
0130
1000
0000
0002
0000
0000
0000
1003
0000
0010
0000
0100
0000
,
0020
0000
0000
1030
0001
0000
0200
0000
0000
0000
0301
0000
1000
0000
0100
0000
,
0020
0000
0000
0130
1000
0000
0002
0000
0000
0000
0103
0000
0010
0000
1000
0000
,
0200
0000
0000
1300
0001
0000
0200
0000
0000
0000
0310
0000
1000
0000
0001
0000
;

//---------------dance-single - Ace Of Hearts (2010)----------------
#NOTES:
     dance-single:
     Ace Of Hearts (2010):
     Medium:
     7:
     0.510,0.000,0.024,0.580,0.098:
0000
0000
0000
0000
,
0000
0000
0000
0000
,
0000
0000
0000
0000
,
0000
0000
0000
0000
,
0000
0000
0000
0000
,
0000
0000
0000
0000
,
0000
0000
0000
0000
,
0000
0000
0000
0000
,
0000
0000
0000
0000
,
0000
0000
0000
0000
,
0000
0000
0000
0000
,
0000
0000
0000
0000
,
2000
0000
0000
3001
0000
0000
0020
0000
0000
0000
0000
0000
0030
0000
0000
0000
,
0002
0000
0000
1003
0000
0000
0020
0000
0000
0000
0000
0000
0030
0000
0000
0000
,
2000
0000
0000
3001
0000
0000
0200
0000
0000
0000
0000
0000
0300
0000
0000
0000
,
0002
0000
0000
1003
0000
0000
0200
0000
0000
0000
0000
0000
0300
0000
0000
0000
,
0020
0000
0000
0031
0000
0000
2000
0000
0000
0000
0000
0000
3000
0000
0000
0000
,
0002
0000
0000
0103
0000
0000
0020
0000
0000
0000
0000
0000
0030
0000
0000
0000
,
2000
0000
0000
3001
0000
0000
0020
0000
0000
0000
0000
0000
0030
0000
0000
0000
,
0002
0000
0000
1003
0000
0000
0020
0000
0000
0000
0000
0000
0030
0000
0000
0000
,
1000
0010
1000
0001
,
0010
0001
1000
0010
,
1000
0100
0010
0100
,
1000
0001
2000
3000
,
0010
0100
0001
1000
,
0100
0010
0100
1000
,
0001
0100
0010
1000
,
0002
2003
3020
2030
,
3001
1000
0100
0010
,
0100
1000
0001
0100
,
0010
0100
0001
1000
,
0200
0320
0032
2003
,
3010
0100
0001
1000
,
0100
0010
0100
1000
,
0001
0100
0010
1000
,
0001
1000
0100
0010
,
0002
0000
0000
1003
0000
0000
0010
0000
0000
0000
0100
0000
0100
0000
0000
0000
,
0020
0000
0000
1030
0000
0000
0001
0000
0000
0000
1000
0000
1000
0000
0000
0000
,
0200
0000
0000
0310
0000
0000
0001
0000
0000
0000
0010
0000
0010
0000
0000
0000
,
0200
0000
0000
1300
0000
0000
0001
0000
0000
0000
1000
0000
1000
0000
0000
0000
,
0020
0000
0000
1030
0000
0000
0001
0000
0000
0000
0100
0000
0100
0000
0000
0000
,
0020
0000
0000
0130
0000
0000
0001
0000
0000
0000
1000
0000
1000
0000
0000
0000
,
0200
0000
0000
1300
0000
0000
0001
0000
0000
0000
0010
0000
0010
0000
0000
0000
,
0002
0000
0000
1003
0000
0000
0010
0000
0000
0000
0100
0000
0100
0000
0000
0000
,
0001
1000
0001
0200
0000
0310
1000
0000
,
0001
0010
0001
1000
,
0010
1000
0010
0200
0000
0301
1000
0000
,
0001
0100
0010
1000
,
0001
1000
0001
0200
0000
0310
1000
0000
,
0001
0010
0100
1000
,
0001
0100
0001
2000
0000
3010
1000
0001
,
0010
0100
1000
0001
,
1000
0010
1000
0001
1000
0100
0010
0000
,
0100
1000
0001
1000
0001
0100
0010
0000
,
1000
0001
0010
0001
1000
0010
0100
0001
,
2000
3002
0023
0230
,
4300
0400
0000
0000
0000
0000
0000
0000
3300
0000
0000
0000
0000
0000
0000
0000
,
0040
0004
0000
0000
0000
0000
0000
0000
0033
0000
0000
0000
0000
0000
0000
0000
,
0002
1003
0010
1000
,
0001
0010
0001
1000
0010
0000
0000
0000
,
1001
0000
2000
0000
3010
0000
0100
0001
,
1000
0001
1000
0010
1000
0000
0002
0000
,
0013
0000
0000
0100
1000
0000
0000
0001
,
1000
0010
1000
0001
0010
0000
0002
0000
,
1003
0000
0010
1000
0001
0000
0010
0001
,
1000
0010
0100
0010
1000
0000
0002
0000
,
0013
0000
0000
0001
1000
0000
0000
0010
,
1000
0001
0010
0100
1000
0000
0002
0000
,
0103
0000
0010
1000
0001
0000
1000
0100
,
0010
0001
0010
0100
1000
0000
0002
0000
,
0103
0000
0000
0010
0200
0000
0301
1000
,
0010
0100
0001
1000
0020
0000
0230
0000
,
0301
1000
0001
1000
,
0020
1030
0020
1030
0001
0000
0020
0000
,
0130
0000
0000
0010
0001
0000
0000
1000
,
0010
1000
0001
0100
0010
0000
2000
0000
,
3002
0000
0000
1003
0000
0000
0020
0000
0000
0000
0000
0000
0030
0000
0000
0000
,
2000
0000
0000
3001
0000
0000
0020
0000
0000
0000
0000
0000
0030
0000
0000
0000
,
0200
0000
0000
1300
0000
0000
0002
0000
0000
0000
0000
0000
0003
0000
0000
0000
,
2000
0000
0000
3010
0000
0000
0200
0000
0000
0000
0000
0000
0300
0000
0000
0000
,
0002
0000
0000
1003
0000
0000
0020
0000
0000
0000
0000
0000
0030
0000
0000
0000
,
0200
0000
0000
0301
0000
0000
2000
0000
0000
0000
0000
0000
3000
0000
0000
0000
,
0002
0000
0000
0013
0000
0000
0200
0000
0000
0000
0000
0000
0300
0000
0000
0000
,
0020
0000
0000
0031
0000
0000
2000
0000
0000
0000
0000
0000
3000
0000
0000
0000
,
0M20
0000
0000
1030
0000
0000
0001
0000
0000
0000
0000
0000
2000
0000
0000
0000
,
320M
0000
0000
0310
0000
0000
0100
0000
0000
0000
0000
0000
2000
0000
0000
0000
,
30M2
0000
0000
1003
0000
0000
0002
0000
0000
0000
0000
0000
1003
0000
0000
0000
,
M020
0000
0000
1030
0000
0000
0002
0000
0000
0000
0000
0000
0003
0000
0000
0000
,
0M40
0000
0000
0000
,
M030
0000
00M0
0000
,
M11M
2002
0000
3003
,
0000
0000
1000
0001
0010
0002
0000
1003
,
0010
1000
0001
0010
,
0100
0000
1000
0100
0010
0002
0000
1003
,
0010
1000
0001
0010
,
0001
0000
1000
0001
0100
0020
0000
0130
,
0001
1000
0010
1000
,
0001
0000
0010
0100
1000
0002
0000
1003
,
0010
1000
0001
0010
,
0100
0000
1000
0001
0100
0010
1000
0001
,
0010
0000
0100
0010
0001
1000
0010
0100
,
0001
0000
0000
0000
4000
0004
0000
0000
0000
0000
0000
0000
0000
0000
0000
0000
,
0000
3003
0000
0000
,
0000
0000
0000
0000
4000
0040
0000
0000
3030
0000
0000
0000
0001
0000
1000
0000
,
0001
0000
0000
0000
0400
0004
0000
0000
0303
0000
0000
0000
1000
0000
0001
0000
,
1000
0000
0010
0000
1000
0001
0010
0000
,
0001
1000
0010
1000
0001
0010
0100
0000
,
0000
0000
1100
0000
1000
0001
0100
0000
,
0010
1000
0001
0010
0001
1000
0010
0000
,
2000
0000
3001
0000
0000
0010
0100
0000
,
0000
0010
0001
1000
0001
0100
0010
0000
,
2000
0000
3001
0000
0010
0100
1000
0000
,
0001
1000
0010
1000
0001
0010
0100
0000
,
0020
0000
0031
0000
0000
2000
3010
0000
,
0000
1000
0001
0010
0100
1000
0100
0000
,
0020
0000
0130
0000
0010
0001
1000
0000
,
0001
1000
0010
0100
0001
1000
0100
0000
,
0020
0000
0031
0000
0000
1000
0010
0000
,
0000
1000
0001
0010
0100
1000
0100
0000
,
0020
0000
0031
0000
1000
0100
0010
0000
,
0100
1000
0001
1000
0010
1000
0001
0000
,
0020
0000
0130
0000
0000
0010
0001
0000
,
0000
1000
0010
0100
0001
1000
0100
0000
,
0020
0030
0011
0000
0001
1000
0010
0000
,
0100
0001
0100
0010
1000
0001
0010
0000
,
0200
0000
1300
0000
0000
0001
0100
0000
,
0000
0010
0100
0001
1000
0001
0010
0000
,
0200
0000
0310
0000
0001
1000
0010
0000
,
1000
0100
0010
0001
0010
0100
1000
0000
,
0002
0000
0103
0000
0000
0010
0100
0000
,
0000
0010
1000
0001
0010
0100
0010
0000
,
0002
0000
1003
0000
0010
1000
0001
0000
,
0010
0001
1000
0010
0100
0001
0100
0000
,
0020
0000
1030
0000
0000
0001
0010
0000
,
0001
1000
0010
0100
0001
0100
0010
0000
,
2000
3010
0100
0010
,
0100
0000
0002
0103
0002
0103
0020
0000
,
2030
0000
3001
0000
0000
0010
0001
0000
,
0000
1000
0010
1000
0001
0010
0002
0000
,
2003
0000
0000
3010
0000
0000
0200
0000
0000
0000
0000
0000
0301
0000
0000
0000
,
2000
0000
0000
3100
0000
0000
0020
0000
0000
0000
0000
0000
0130
0000
0000
0000
,
2000
0000
0000
3001
0000
0000
0200
0000
0000
0000
0000
0000
0310
0000
0000
0000
,
2000
0000
0000
3010
0000
0000
0200
0000
0000
0000
0000
0000
0301
0000
0000
0000
,
2000
0000
0000
3100
0000
0000
0020
0000
0000
0000
0000
0000
0031
0000
0000
0000
,
2000
0000
0000
3001
0000
0000
0200
0000
0000
0000
0000
0000
0310
0000
0000
0000
,
2000
0000
0000
3001
0000
0000
0200
0000
0000
0000
0000
0000
0310
0000
0000
0000
,
2000
0000
0000
3001
0000
0000
0020
0000
0000
0000
0000
0000
0130
0000
1000
0000
;

//---------------dance-single - Ace Of Hearts (2010)----------------
#NOTES:
     dance-single:
     Ace Of Hearts (2010):
     Easy:
     4:
     0.236,0.000,0.014,0.144,0.002:
0000
0000
0000
0000
,
0000
0000
0000
0000
,
0000
0000
0000
0000
,
0000
0000
0000
0000
,
0000
0000
0000
0000
,
0000
0000
0000
0000
,
0000
0000
0000
0000
,
0000
0000
0000
0000
,
0000
0000
0000
0000
,
0000
0000
0000
0000
,
0000
0000
0000
0000
,
0000
0000
0000
0000
,
0001
0000
0000
0002
0000
0000
0003
0000
,
0100
0000
0000
0200
0000
0000
0300
0000
,
0010
0000
0000
0020
0000
0000
0030
0000
,
1000
0000
0000
2000
0000
0000
3000
0000
,
0001
0000
0000
0002
0000
0000
0003
0000
,
1000
0000
0000
2000
0000
0000
3000
0000
,
0100
0000
0000
0200
0000
0000
0300
0000
,
0010
0000
0000
0020
0000
0000
0030
0000
,
0001
0000
0001
0000
,
1000
1000
1000
0000
,
0010
0000
0010
0000
,
0100
0100
0100
0000
,
0010
0000
0010
0000
,
1000
1000
1000
0000
,
0001
0000
0001
0000
,
0100
0100
0100
0000
,
0010
0010
0010
0000
,
1000
0000
1000
0000
,
0001
0001
0001
0000
,
0010
0000
0010
0000
,
0100
0100
0100
0000
,
1000
0000
1000
0000
,
0001
0001
0001
0000
,
0100
0000
0100
0000
,
0010
0000
0000
0010
0000
0000
0010
0000
,
1000
0000
0000
1000
0000
0000
1000
0000
,
0001
0000
0000
0001
0000
0000
0001
0000
,
0100
0000
0000
0100
0000
0000
0100
0000
,
0010
0000
0000
0010
0000
0000
0010
0000
,
1000
0000
0000
1000
0000
0000
1000
0000
,
0001
0000
0000
0001
0000
0000
0001
0000
,
0010
0000
0000
0010
0000
0000
0010
0000
,
0001
0001
0001
0000
,
1000
0000
1000
0000
,
0100
0100
0100
0000
,
0010
0000
0010
0000
,
0001
0001
0001
0000
,
1000
0000
1000
0000
,
0010
0010
0010
0000
,
1000
0000
1000
0000
,
0004
0000
0003
0000
,
4000
0000
3000
0000
,
0004
0000
0003
0000
,
0200
0000
0300
0000
,
0040
0000
0030
0000
,
0400
0000
0300
0000
,
0010
0000
0010
0000
,
1000
1000
1000
0000
,
1001
0000
0001
0000
,
0100
0100
0100
0000
,
0010
0000
1000
0000
,
0001
0001
0001
0000
,
0010
0000
0001
0000
,
1000
1000
1000
0000
,
0010
0000
0100
0000
,
0001
0001
0001
0000
,
1000
0000
0100
0000
,
0010
0010
0010
0000
,
0100
0000
1000
0000
,
0001
0001
0001
0000
,
0010
0000
0010
0000
,
0100
0100
0100
0000
,
1000
0000
0001
0000
,
0100
0100
0100
0000
,
0001
0000
0000
0002
0000
0000
0003
0000
,
1000
0000
0000
2000
0000
0000
3000
0000
,
0010
0000
0000
0020
0000
0000
0030
0000
,
0100
0000
0000
0200
0000
0000
0300
0000
,
0001
0000
0000
0002
0000
0000
0003
0000
,
1000
0000
0000
2000
0000
0000
3000
0000
,
0100
0000
0000
0200
0000
0000
0300
0000
,
0010
0000
0000
0020
0000
0000
0030
0000
,
0001
0000
0001
0000
,
1000
1000
1000
0000
,
0010
0000
0010
0000
,
0020
0000
0030
0000
,
2000
0000
0000
0000
,
3000
0000
0000
0000
,
2002
3003
0000
0000
,
0000
1000
1000
1000
,
0000
0010
0000
0010
,
0000
0100
0100
0100
,
0000
0001
0000
0001
,
0000
0100
0100
0100
,
0000
0010
0000
0010
,
0000
1000
1000
1000
,
0000
0001
0000
0001
,
0000
0000
0000
0000
4000
0004
0000
0000
0000
0000
0000
0000
0000
0000
0000
0000
,
0000
0000
0000
0000
,
0000
0000
0000
3003
,
0000
0002
0000
0003
,
0000
0400
0000
0300
,
0000
0040
0000
0030
,
0000
1000
0000
0001
,
0000
0010
0010
0010
,
0000
0100
0000
1000
,
0000
0001
0001
0001
,
0000
0100
0000
0010
,
0000
1000
1000
1000
,
0000
0001
0000
0010
,
0000
0001
0001
0001
,
0000
1000
0000
0010
,
0000
0100
0100
0100
,
0000
0010
0000
1000
,
0000
0001
0001
0001
,
0000
0010
0000
0001
,
0000
1000
1000
1000
,
0000
0010
0000
0100
,
0000
0001
0001
0001
,
0000
1000
0000
0010
,
0000
0100
0100
0100
,
0000
0110
0000
0010
,
0000
1000
1000
1000
,
0000
0001
0000
0100
,
0000
0010
0010
0010
,
0000
1000
0000
0001
,
0000
0010
0010
0010
,
0000
0001
0000
1000
,
0000
0100
0100
0100
,
0000
0010
0000
0100
,
0000
1000
1000
1000
,
0000
0001
0000
0100
,
0000
0010
0010
0010
,
0000
0100
0000
0001
,
0000
1000
1000
1000
,
0000
0001
0000
0010
,
0000
0001
0001
0001
,
1000
0000
0000
2000
0000
3000
1000
0000
,
0010
0000
0000
0020
0000
0030
0010
0000
,
0100
0000
0000
0200
0000
0300
0100
0000
,
0001
0000
0000
0002
0000
0003
0001
0000
,
0100
0000
0000
0200
0000
0300
0100
0000
,
0001
0000
0000
0002
0000
0003
0001
0000
,
1000
0000
0000
2000
0000
3000
1000
0000
,
0010
0000
0000
0020
0000
0030
0010
0000
;

//---------------dance-single - Ace Of Hearts (2010)----------------
#NOTES:
     dance-single:
     Ace Of Hearts (2010):
     Beginner:
     2:
     0.169,0.000,0.005,0.340,0.000:
0000
0000
0000
0000
,
0000
0000
0000
0000
,
0000
0000
0000
0000
,
0000
0000
0000
0000
,
0000
0000
0000
0000
,
0000
0000
0000
0000
,
0000
0000
0000
0000
,
0000
0000
0000
0000
,
0000
0000
0000
0000
,
0000
0000
0000
0000
,
0000
0000
0000
0000
,
0000
0000
0000
0000
,
0002
0000
0000
0003
0000
0000
0000
0000
,
2000
0000
0000
3000
0000
0000
0000
0000
,
0020
0000
0000
0030
0000
0000
0000
0000
,
2000
0000
0000
3000
0000
0000
0000
0000
,
0002
0000
0000
0003
0000
0000
0000
0000
,
0020
0000
0000
0030
0000
0000
0000
0000
,
0002
0000
0000
0003
0000
0000
0000
0000
,
0200
0000
0000
0300
0000
0000
0000
0000
,
0001
0000
0000
0000
,
0001
0000
0000
0000
,
1000
0000
0000
0000
,
1000
0000
0000
0000
,
0010
0000
0000
0000
,
0010
0000
0000
0000
,
0100
0000
0000
0000
,
0100
0000
0000
0000
,
0001
0000
0000
0000
,
0001
0000
0000
0000
,
1000
0000
0000
0000
,
1000
0000
0000
0000
,
0100
0000
0000
0000
,
0100
0000
0000
0000
,
0010
0000
0000
0000
,
0010
0000
0000
0000
,
0002
0000
0000
0003
0000
0000
0000
0000
,
2000
0000
0000
3000
0000
0000
0000
0000
,
0020
0000
0000
0030
0000
0000
0000
0000
,
2000
0000
0000
3000
0000
0000
0000
0000
,
0002
0000
0000
0003
0000
0000
0000
0000
,
0020
0000
0000
0030
0000
0000
0000
0000
,
0002
0000
0000
0003
0000
0000
0000
0000
,
2000
0000
0000
3000
0000
0000
0000
0000
,
0010
0000
0010
0000
,
0020
0000
0030
0000
,
1000
0000
1000
0000
,
2000
0000
3000
0000
,
0001
0000
0001
0000
,
0002
0000
0003
0000
,
0010
0000
0010
0000
,
0020
0000
0030
0000
,
0001
0001
0001
0000
,
1000
1000
1000
0000
,
0010
0010
0010
0000
,
2000
0000
3000
0000
,
0004
0000
0003
0000
,
0004
0000
0003
0000
,
1000
0000
1000
0000
,
2000
0000
3000
0000
,
0010
0000
0010
0000
,
0020
0000
0030
0000
,
1000
0000
1000
0000
,
2000
0000
3000
0000
,
0001
0000
0001
0000
,
0002
0000
0003
0000
,
0010
0000
0010
0000
,
0020
0000
0030
0000
,
0001
0000
0001
0000
,
0002
0000
0003
0000
,
1000
0000
1000
0000
,
2000
0000
3000
0000
,
0010
0000
0010
0000
,
0010
0010
0010
0000
,
1000
0000
1000
0000
,
2000
0000
3000
0000
,
0002
0000
0000
0003
0000
0000
0000
0000
,
2000
0000
0000
3000
0000
0000
0000
0000
,
0200
0000
0000
0300
0000
0000
0000
0000
,
2000
0000
0000
3000
0000
0000
0000
0000
,
0002
0000
0000
0003
0000
0000
0000
0000
,
0200
0000
0000
0300
0000
0000
0000
0000
,
0002
0000
0000
0003
0000
0000
0000
0000
,
2000
0000
0000
3000
0000
0000
0000
0000
,
0001
0000
0000
0000
,
0001
0000
0000
0000
,
0010
0000
0000
0000
,
0020
0000
0030
0000
,
0002
0000
0000
0000
,
0003
0000
0000
0000
,
2002
3003
0000
0000
,
0000
1000
0000
1000
,
0000
2000
0000
3000
,
0000
0010
0000
0010
,
0000
0020
0000
0030
,
0000
1000
0000
1000
,
0000
2000
0000
3000
,
0000
0001
0000
0001
,
0000
0002
0000
0003
,
0000
0040
0000
0000
,
0000
0000
0000
0000
,
0000
0000
0000
0030
,
0000
0200
0000
0300
,
0000
4000
0000
3000
,
0000
4000
0000
3000
,
0000
0001
0000
0001
,
0000
0002
0000
0003
,
0000
1000
0000
1000
,
0000
2000
0000
3000
,
0000
0010
0000
0010
,
0000
0020
0000
0030
,
0000
1000
0000
1000
,
0000
2000
0000
3000
,
0000
0001
0000
0001
,
0000
0002
0000
0003
,
0000
0010
0000
0010
,
0000
0020
0000
0030
,
0000
0001
0000
0001
,
0000
0002
0000
0003
,
0000
1000
0000
1000
,
0000
2000
0000
3000
,
0000
0100
0000
0100
,
0000
0200
0000
0300
,
0000
0010
0000
0010
,
0000
0020
0000
0030
,
0000
0001
0000
0001
,
0000
0002
0000
0003
,
0000
1000
0000
1000
,
0000
2000
0000
3000
,
0000
0010
0000
0010
,
0000
0020
0000
0030
,
0000
0100
0000
0100
,
0000
0200
0000
0300
,
0000
0001
0000
0001
,
0000
0002
0000
0003
,
0000
1000
0000
1000
,
0000
2000
0000
3000
,
0000
0010
0000
0010
,
0000
0020
0000
0030
,
2000
0000
0000
3000
0000
0000
0000
0000
,
0002
0000
0000
0003
0000
0000
0000
0000
,
0020
0000
0000
0030
0000
0000
0000
0000
,
0002
0000
0000
0003
0000
0000
0000
0000
,
2000
0000
0000
3000
0000
0000
0000
0000
,
0002
0000
0000
0003
0000
0000
0000
0000
,
2000
0000
0000
3000
0000
0000
0000
0000
,
0020
0000
0000
0030
0000
0000
0100
0000
;
