#TITLE:That Chap;
#SUBTITLE:-Long Version-;
#ARTIST:Dicot;
#TITLETRANSLIT:;
#SUBTITLETRANSLIT:;
#ARTISTTRANSLIT:;
#GENRE:Silly J-Pop;
#CREDIT:Ace Of Hearts;
#BANNER:That Chap - bn.png;
#BACKGROUND:That Chap - bg.jpg;
#LYRICSPATH:;
#CDTITLE:Ace Of Hearts.png;
#MUSIC:That Chap.ogg;
#OFFSET:-0.670;
#SAMPLESTART:19.000;
#SAMPLELENGTH:11.000;
#SELECTABLE:YES;
#BPMS:0.000=172.100,280.000=86.050,312.000=172.100;
#STOPS:;
#BGCHANGES:;
#KEYSOUNDS:;

//---------------dance-single - Hard----------------
#NOTES:
     dance-single:
     Ace Of Hearts (2010 Rewrite):
     Hard:
     9:
     0.607,0.000,0.039,0.931,0.083:
0000
0000
0000
0000
,
0000
0000
0000
0000
,
0000
0000
0000
0000
,
0000
0000
0000
0000
,
0000
0000
0000
0000
,
0000
0000
0000
0000
,
0000
0000
0000
0000
,
0000
0000
0000
0000
,
0000
0000
0000
0000
,
1002
1003
0001
1000
0010
1000
0001
0010
,
0210
0310
0001
1000
0010
0100
0001
1000
,
1020
0000
0000
0230
0000
0000
0302
0000
,
0000
0023
0000
0000
0031
1000
0010
1000
,
1001
0000
0001
0100
0020
0000
0000
1030
,
0002
0103
0000
0020
0000
0230
0000
0301
,
1000
0100
0010
0200
0000
2300
0000
3002
,
0000
0003
0000
0000
0020
0000
0230
0000
,
2300
0000
3002
0000
,
2003
0000
3020
0000
1030
0002
0000
0013
,
0100
1000
0001
0100
0010
0100
0001
1000
,
0000
1100
0000
0100
0010
0001
1000
0010
,
0000
0000
1000
0002
0000
0013
0001
1000
,
0010
0100
0000
0002
0000
2003
0000
3100
,
0010
0001
0000
2000
0000
3010
0000
0200
,
0000
0300
0000
0000
0020
0000
2030
0000
,
3002
0000
0023
0000
,
0032
0000
2003
0000
3010
0200
0000
0310
,
2000
0000
0000
3002
0000
0003
0000
0000
,
0000
1000
0010
0100
0001
1000
0100
0010
,
0002
0000
2003
0000
,
3020
0230
0302
2003
,
3200
2300
3020
0230
,
0302
0000
1003
0010
0000
1000
0001
0100
,
0020
0000
2030
0000
,
3002
0203
0320
0230
,
0302
0000
1003
0100
0010
0100
0000
2000
,
0000
0000
0000
0000
3000
0001
0100
0000
,
0020
0000
0000
0000
2030
0000
0000
3001
,
0100
0010
0100
0001
1000
0100
0010
0001
,
2000
0000
3002
0000
0203
0000
0310
2000
,
0000
0000
3001
0100
0000
0100
0010
1000
,
0002
0000
0203
0000
,
0320
0000
2030
0000
3002
0000
0013
0100
,
2000
0000
3001
0100
0001
1000
0000
0020
,
0000
0000
0000
0000
0030
0000
0000
0000
0000
0000
1000
0001
0100
0000
0001
0000
,
1000
0100
0010
0100
1000
0001
0010
0100
,
0010
0001
0000
2000
0000
3002
0000
1003
,
0010
0100
0010
1000
0001
0010
0100
1000
,
0001
0100
0000
0020
0000
2030
0000
3001
,
0020
0000
0032
0000
,
2003
0000
3020
0230
,
0301
1000
0000
0200
0000
0310
0001
1000
,
0002
0000
1003
0020
0000
0130
0010
1000
,
0001
0010
0001
0100
0010
0000
0010
0100
,
0001
1000
0000
0020
0000
0230
0000
0301
,
1000
0100
1000
0001
0100
0010
1000
0001
,
0100
0010
0000
0200
0000
0302
0000
0003
,
1000
0100
0010
0200
0000
1300
0002
0000
,
1003
0001
0020
0000
0000
0000
0000
0000
,
0001
0000
0000
0000
,
0130
1000
0001
0100
0010
0100
0001
1000
,
0100
1000
0001
0100
0010
0000
1000
0000
,
0002
0000
0013
0100
1000
0001
1000
0200
,
0000
1300
0001
0010
0001
0100
0010
1000
,
0002
0000
0103
0010
1000
0001
0010
0200
,
0000
1300
0001
0100
0010
1000
0001
0010
,
0200
0000
0310
0001
1000
0001
0100
0020
,
0000
1030
0100
0010
0001
1000
0010
1000
,
0200
0000
0310
0100
1000
0001
0100
0020
,
0000
1030
0001
0010
0001
1000
0001
0100
,
0020
0000
1030
0001
0100
0010
0100
0001
1000
0100
0000
0020
0000
0130
1000
0001
,
1000
0100
0000
0020
0000
0031
1000
0200
0000
0300
0000
0000
0020
0000
0032
0000
,
2003
0000
0000
0000
3020
0000
0030
0000
2000
0000
3001
0010
0100
0010
0002
0000
,
1003
0010
0000
0200
0000
0000
0300
0000
0000
0000
0000
0000
0000
0000
0000
0000
,
0000
0000
0010
1000
0001
0200
0000
0301
1000
0100
0000
0020
0000
0230
0000
1300
,
0001
0100
0001
2000
0000
3001
0010
0200
0000
0300
0000
0000
0020
0000
0032
0000
,
2003
0000
0000
0000
3020
0000
0000
0000
2030
0000
3002
0000
0103
0010
1000
0001
,
0010
0001
1000
0020
0000
0000
0000
0000
0030
0000
0000
0000
0000
0000
0000
0000
,
0102
0000
2003
0000
,
3200
0000
0000
0301
0100
1000
0001
0100
,
0010
1000
0001
0010
0100
2000
0000
3002
,
0000
0003
0000
0000
0000
1000
0010
0100
,
0020
0000
2030
3002
,
0023
0230
2300
3002
,
0203
0000
0310
1000
0001
1000
0100
0020
,
0000
0000
0030
0000
0000
0100
1000
0000
,
1002
0000
0203
0320
,
2030
0000
3002
0000
2003
0000
3100
0010
,
0000
0001
0000
0010
0100
2000
0000
3002
,
0000
0003
0000
0000
0000
0100
0010
1000
,
0002
0000
0023
0230
,
2300
0000
3002
0000
0203
0000
0310
1000
,
0001
0010
0100
0000
1000
0001
0000
0200
,
0000
0300
0000
0000
,
0010
0100
0001
1000
0200
0000
0310
0100
,
1000
0000
0001
0200
0000
0310
1000
0001
,
1000
0100
0010
0001
1000
0010
1000
0100
,
0010
0001
1000
0020
0000
0230
0000
0301
,
2000
0000
3200
0000
,
0320
0000
0000
0000
0032
0000
1003
0010
,
1000
0002
0000
0023
0000
0031
1000
0100
,
0020
0000
0130
2000
0000
3001
0100
0010
,
1000
0001
0010
0100
0000
0010
0001
1000
,
0010
0100
0000
0002
0000
1003
0100
1000
,
0001
0001
0100
0100
0010
1000
0001
0010
,
0100
1000
0010
0100
0001
1000
0000
0000
,
0100
0010
0100
2000
0000
3002
0000
0103
,
0020
0000
2030
0000
,
3001
0100
0010
1000
0001
0010
0100
0010
,
0001
1000
0000
0020
0000
0230
0000
0301
,
1000
0100
1000
0010
0100
0001
1000
0100
,
0010
0001
0000
0200
0000
0320
0000
1030
,
0002
0000
0023
0000
,
0230
0000
2300
3001
,
0100
0010
0000
0200
0000
0301
1000
0100
,
2000
0000
3001
0200
0000
0310
1000
0001
,
0010
0100
0010
0001
1000
0000
0010
1000
,
0001
0010
0000
0200
0000
2300
0000
3001
,
0100
0010
1000
0100
0010
0002
0000
1003
,
0010
0100
0000
0002
0000
2003
0000
3000
,
0100
0010
0001
2000
0000
3010
0200
0000
,
0301
1000
0200
0000
0000
0000
0000
0000
,
0010
0000
0000
0000
,
1300
0001
0100
0010
1000
0001
0010
0100
,
0010
0001
1000
0010
0100
0000
0101
0000
,
0002
0000
1003
0100
0010
0100
1000
0002
,
0000
0103
0010
1000
0001
0100
0010
1000
,
0002
0000
0013
0100
1000
0001
0100
0020
,
0000
1030
0100
0010
0100
1000
0001
0100
,
0020
0000
1030
0001
0010
0100
1000
0002
,
0000
0103
0010
1000
0001
0010
0100
1000
,
0020
0000
1030
0001
0010
0001
1000
0200
,
0000
0000
1300
0000
0001
0000
0100
0000
0010
0000
1000
0001
0100
0001
1000
0100
,
0020
0000
0000
0000
0000
0000
0031
0010
,
0200
0000
0000
0000
,
0000
0310
0000
0000
;

//---------------dance-single - Expert----------------
#NOTES:
     dance-single:
     Ace Of Hearts (2010 Rewrite):
     Challenge:
     11:
     0.835,0.000,0.215,1.000,0.176:
0000
0000
0000
0000
,
0000
0000
0000
0000
,
0000
0000
0000
0000
,
0000
0000
0000
0000
,
0000
0000
0000
0000
,
0000
0000
0000
0000
,
0000
0000
0000
0000
,
0000
0000
0000
0000
,
0000
0000
0000
0000
,
0101
0100
0010
1000
0002
0013
0100
1100
,
1100
0000
1000
0000
0001
0000
0100
0000
0020
0030
1010
0000
1010
0000
1000
0000
,
1002
0013
0100
2100
3001
0100
0120
1030
,
0001
0021
0130
1000
1002
0103
0010
1000
,
0200
0310
0100
1000
0002
0103
0010
1000
,
0002
0013
0100
0020
0031
1000
0010
0100
,
0002
1003
0100
0020
0130
2000
3001
0200
,
0310
1000
0001
0010
0002
0103
0020
1030
,
0200
0010
2300
0010
,
3002
0000
0203
0000
0310
2000
3001
0010
,
0120
0130
2000
3001
0201
0310
2000
3100
,
0020
0130
0000
0100
0120
0031
2000
3001
,
0100
0000
0001
2000
3100
0010
0100
1000
,
0002
0103
0010
2000
3001
0020
0031
0100
,
0020
1030
0001
2000
3100
0020
0031
0200
,
0301
1000
0100
0010
0002
0000
2003
0000
,
3020
0100
2030
0100
,
3002
0000
0203
0310
1000
0002
0013
0100
,
2000
3002
0103
0010
0000
0100
0001
1000
,
0200
1300
0001
0100
0010
1000
0001
0010
,
0210
0300
2100
0000
3001
0100
0010
2010
,
3002
0103
0020
1030
0002
0013
0200
1300
,
1002
0103
0020
1030
0200
0310
0002
1003
,
0020
0130
0001
1000
0100
0010
0100
1000
,
1002
0103
0020
1030
0002
0013
0100
2100
,
3002
1003
0020
0130
0002
1003
0200
0310
,
0200
1300
0001
0100
0020
1030
0001
0200
,
0310
1000
0100
0010
0001
1000
1010
0010
,
0110
0000
0000
0000
0100
0000
0000
0000
0001
1000
0010
1000
0001
0000
0010
0000
,
0200
0310
0200
1300
0200
0310
0200
1300
,
0002
0103
0010
1000
0200
0310
0001
2000
,
3002
0103
0010
2000
3001
0010
0200
1300
,
0001
0100
0120
1030
0001
0010
0001
2001
,
3001
1000
0100
0010
0002
0103
0020
0130
,
0002
1003
0100
0010
0200
1300
0001
0020
,
0000
0000
0031
0000
0010
0000
0100
0000
1000
0000
0001
0100
0010
1000
0001
0010
,
0200
1300
0001
0100
0010
0001
0010
1000
,
0002
2003
3100
0020
0000
0230
1300
0001
,
0010
1000
0010
0001
1000
0010
0001
0010
,
1000
0001
0010
0100
0000
2000
0000
3001
,
0002
0000
0010
0000
0010
0000
1000
0000
0020
0003
0100
0000
0100
0000
0001
0000
,
0200
0030
1000
0000
0010
0000
0010
0000
2000
0300
0000
0000
3002
0000
0000
0000
,
0103
0020
0000
0230
0000
0301
1000
0100
,
0020
0130
1000
0002
0000
0103
0010
1000
,
0002
0013
1000
0010
0001
1000
0001
0200
,
1300
0100
0001
2000
0000
3002
0000
0103
,
0010
1000
0100
0010
0001
0100
0010
1000
,
0001
0010
0000
0002
0000
0203
0000
0300
,
0020
1030
0001
0200
0310
1000
0002
0013
,
0200
0320
0002
0000
0000
0000
0000
0000
,
1000
0000
0000
0030
,
0013
0100
1000
0001
0100
1000
0100
0001
,
1000
0100
0010
0001
0100
0000
0110
0000
,
0010
0000
1000
0001
0010
0000
0001
0000
1000
0000
0010
0000
0100
0000
0002
0000
,
0000
1003
0100
0010
0001
0100
0010
1000
,
0100
0000
0010
0001
1000
0000
0001
0000
0010
0000
0100
0000
1000
0000
0020
0000
,
0000
0130
0001
1000
0100
0010
0100
1000
,
0001
0000
0100
0010
1000
0000
0001
0000
1000
0000
0100
0000
0010
0000
0200
0000
,
0000
1300
0001
0100
0010
1000
0100
0010
,
0001
0000
1000
0001
0010
0000
0001
0000
0100
0000
0010
0000
1000
0000
0200
0000
,
0000
0310
0001
0100
0010
1000
0001
0010
,
0002
0000
1003
0010
0100
0001
0010
0100
1000
0001
0100
0020
0000
1030
0001
0010
,
0001
1000
0010
0200
0000
0301
1000
0010
0200
0301
1000
0100
0010
0100
1000
0000
,
0002
0000
0103
0000
0020
0000
0130
0000
0001
1000
0100
0010
0100
1000
0001
0100
,
0010
2000
0000
3002
0000
0103
0010
1000
0001
0010
0100
1000
0000
1000
0100
0010
,
0002
0000
1003
0010
1000
0100
0010
0001
1000
0010
1000
0002
0000
0013
0100
0010
,
0001
1000
0010
0200
0000
0310
1000
0001
0200
0000
0310
0000
2000
0000
3002
0000
,
0023
0000
0031
1000
0200
0000
0310
0000
0002
0000
1003
0000
0010
1000
0001
0010
,
0100
1000
0001
0100
0020
0000
1030
0000
0001
0000
0010
0000
0100
1000
0001
0000
,
0011
0000
0010
0100
1000
0000
0000
0000
1002
0000
0000
0000
1003
0000
0100
0000
,
0010
0000
0000
0010
0100
1000
0001
0100
,
0010
0001
0010
1000
0001
0010
0001
1000
,
0200
0310
0001
1000
0000
0010
1000
0001
,
0021
0000
0000
0000
0031
0000
1000
0010
0100
0001
1000
0100
0010
0000
0210
0000
,
2300
3001
0200
0000
0320
0000
2030
3001
,
0020
0031
1000
0010
0100
0001
1000
0020
,
0000
1030
0100
0010
0000
0001
0010
0001
,
2001
0000
3010
0000
0200
0000
0000
0000
0301
0000
1000
0010
0100
0000
0102
0000
,
2003
0000
3200
0000
0310
0001
1000
0010
,
0000
1000
0000
0010
0100
0001
1000
0200
,
0310
0000
0001
0000
0010
0000
0100
0000
0000
0000
0010
0100
1000
0000
0001
0000
,
0100
0000
0120
0000
2030
3001
0100
0210
,
0301
1000
0001
0010
0100
0010
0002
1003
,
0010
1000
0100
0000
1000
0001
0000
0022
,
0000
0000
0000
0000
0000
0000
0000
0000
0033
0000
0001
1000
0010
1000
0001
1000
,
0100
0010
0001
1000
0020
1030
0001
0010
,
0200
1300
0001
0200
0310
1000
0001
0010
,
0002
1003
0010
0100
0020
1030
0001
0010
,
0200
1300
0001
0200
0310
2000
3001
0010
,
0200
1000
1000
0010
0320
0100
0100
0001
,
0032
1000
1000
0100
0203
0010
0310
1000
,
0002
0013
0100
2100
0000
3001
0010
0100
,
0020
0031
1000
0020
0000
1030
0100
0010
,
1002
1003
0010
0100
0010
1000
0001
0010
,
0100
1000
0001
0200
0000
0310
1000
0001
,
0011
0010
0110
0100
1000
0001
0010
0001
,
1000
0010
0100
0001
1000
0100
0000
0000
,
0210
0310
0001
1000
0010
0100
0001
1000
,
0020
0000
0000
0000
0000
0000
0000
0000
0230
0000
0301
1000
0010
1000
0001
0010
,
0100
0010
0001
1000
0010
0100
0010
0001
,
0010
0100
0001
2000
0000
3200
0000
0310
,
0100
1000
0100
0010
0001
1000
0010
0100
,
0001
1000
0100
0020
0000
0230
0000
1300
,
0002
0100
0100
1000
2003
0001
0001
0010
,
3020
1000
1000
0100
0130
0001
2000
0000
,
3100
0020
0031
1000
0000
0010
0100
0001
,
2000
3010
0100
0002
0000
1003
0100
0010
,
0210
1300
0001
0100
0010
1000
0001
0010
,
0001
1000
0010
0200
0000
0301
0100
0010
,
2010
3001
0010
0100
0010
0001
1000
0001
,
0201
0310
1000
0200
0310
0001
0000
0000
,
0201
0310
1000
0002
0000
1003
0020
0000
,
1030
0200
2000
0000
0000
0000
0000
0000
,
0001
0000
0000
3000
,
1300
0001
1000
0001
0100
0010
0100
0010
,
1000
0001
1000
0001
1000
0000
1100
0000
,
0200
0000
0310
0001
1000
0000
0010
0000
1000
0000
0001
0000
0100
0000
0020
0000
,
0000
1030
0001
0010
0100
1000
0001
0100
,
0001
0000
1000
0010
0100
0000
0010
0000
1000
0000
0001
0000
0010
0000
0200
0000
,
0000
0310
0001
0100
0010
1000
0001
0010
,
0002
0000
1003
0100
0010
0000
0100
0000
1000
0000
0001
0000
0100
0000
0020
0000
,
0000
1030
0001
0010
0100
1000
0001
0100
,
0020
0000
1030
0001
0010
0000
0001
0000
1000
0000
0010
0000
0100
0000
0002
0000
,
0000
0000
1003
0100
0010
0000
0100
0000
1000
0000
0001
0100
0010
0100
0001
1000
,
1002
0000
0000
0000
0000
0000
0013
0100
,
2000
0000
0000
0000
,
0000
3010
0000
0000
;

//---------------dance-single - Medium----------------
#NOTES:
     dance-single:
     Ace Of Hearts (2010 Rewrite):
     Medium:
     7:
     0.398,0.000,0.015,0.673,0.000: // measure 1
0000
0000
0000
0000
,  // measure 2
0000
0000
0000
0000
,  // measure 3
0000
0000
0000
0000
,  // measure 4
0000
0000
0000
0000
,  // measure 5
0000
0000
0000
0000
,  // measure 6
0000
0000
0000
0000
,  // measure 7
0000
0000
0000
0000
,  // measure 8
0000
0000
0000
0000
,  // measure 9
0000
0000
0000
0000
,  // measure 10
1001
0000
0001
0100
0001
0000
1000
0000
,  // measure 11
1100
0000
0100
0010
0100
0000
1000
0000
,  // measure 12
0002
0000
0000
0203
0000
0000
0320
0000
,  // measure 13
0000
2030
0000
0000
3001
0000
1000
0000
,  // measure 14
0010
0000
1000
0001
2000
0000
3000
0000
,  // measure 15
0001
0010
0000
0002
0000
2003
0000
3000
,  // measure 16
0010
0000
1000
0002
0000
2003
0000
3200
,  // measure 17
0000
0300
0000
0000
0020
0000
0130
0000
,  // measure 18
2000
0000
3002
0000
,  // measure 19
1003
0000
0020
0000
0130
0002
0000
0003
,  // measure 20
1000
0010
1000
0000
0001
1000
0001
0000
,  // measure 21
0000
0010
0000
0001
1000
0000
1000
0100
,  // measure 22
0000
0000
0010
0002
0000
1003
0001
0000
,  // measure 23
1000
0010
0000
0200
0000
0302
0000
1003
,  // measure 24
0020
0000
0000
2030
0000
3002
0000
0203
,  // measure 25
0000
0300
0000
0000
0020
0000
0130
0000
,  // measure 26
0002
0000
2003
0000
,  // measure 27
3002
0000
0023
0000
0130
2000
0000
3001
,  // measure 28
0200
0000
0000
0310
0000
0000
0000
0000
,  // measure 29
0000
2000
0000
0000
3000
0000
0000
0000
,  // measure 30
0002
0000
0203
0000
,  // measure 31
0320
1030
0001
0010
,  // measure 32
0002
1003
0010
0100
,  // measure 33
0002
0000
0003
0000
0000
1000
0100
0000
,  // measure 34
0020
0000
0230
0000
,  // measure 35
2300
3001
0100
0010
,  // measure 36
1000
0000
0001
0100
0001
0000
0000
2000
,  // measure 37
0000
0000
0000
3000
,  // measure 38
0002
0000
0000
0000
0203
0000
0000
0310
,  // measure 39
2000
0001
0010
0001
,  // measure 40
3200
0000
0320
0000
0032
0000
1003
0020
,  // measure 41
0000
0000
0030
0000
0000
1000
0001
0000
,  // measure 42
0020
0000
0032
0000
,  // measure 43
2003
0000
3200
0000
0320
0000
0031
1000
,  // measure 44
0001
0000
1000
0010
1000
0000
0000
0002
,  // measure 45
0000
0003
0000
0000
,  // measure 46
1000
0010
1000
0000
0001
1000
0001
0000
,  // measure 47
0020
0000
0000
0230
0000
1300
0000
0000
,  // measure 48
0001
0100
0001
0000
1000
0010
1000
0000
,  // measure 49
0002
0000
0000
2003
0000
3010
0000
1000
,  // measure 50
0002
0000
0023
0000
,  // measure 51
0230
0000
2300
3001
,  // measure 52
1000
0020
0000
0130
0000
0000
0000
0000
,  // measure 53
0002
0000
0000
0003
0000
0000
0000
0000
,  // measure 54
1000
0010
1000
0000
0001
0000
0000
0000
,  // measure 55
2000
0000
0000
3020
0000
0130
0000
0000
,  // measure 56
0001
1000
0001
0000
1000
0000
0000
0000
,  // measure 57
0002
0000
0000
0203
0000
0310
0000
0000
,  // measure 58
0100
0000
0001
0100
0000
0010
1000
0000
,  // measure 59
0001
0010
0002
0000
0000
0000
0000
0000
,  // measure 60
0003
0000
0000
0000
,  // measure 61
1000
0100
1000
0100
1000
0000
0001
0000
,  // measure 62
0100
0001
0100
0001
0100
0000
0000
0000
,  // measure 63
0020
0000
1030
0000
0001
0000
1000
0200
,  // measure 64
0000
0000
0300
0000
,  // measure 65
2000
0000
3001
0000
0100
0000
0001
2000
,  // measure 66
0000
0000
3000
0000
,  // measure 67
0020
0000
1030
0000
0001
0000
0010
0002
,  // measure 68
0000
0000
0003
0000
,  // measure 69
2000
0000
3010
0000
1000
0000
0001
0200
,  // measure 70
0000
0000
0300
0000
,  // measure 71
0020
0030
1000
0010
,  // measure 72
2000
3000
0001
0010
,  // measure 73
0002
0003
0000
0000
,  // measure 74
0200
0300
0000
0000
,  // measure 75
0002
0003
1000
0010
,  // measure 76
0200
0300
0001
1000
,  // measure 77
0020
0030
2000
3000
,  // measure 78
0002
0000
0003
0000
,  // measure 79
2000
0000
3002
0000
,  // measure 80
2003
3000
0000
0010
1000
0000
0001
0010
,  // measure 81
0100
0000
0010
0001
0010
0000
0000
0200
,  // measure 82
0000
0000
0300
0000
0000
0010
0001
0000
,  // measure 83
2000
0000
3002
1003
,  // measure 84
0020
1030
0001
0010
,  // measure 85
0100
0000
1000
0001
1000
0000
0001
0020
,  // measure 86
0000
0000
0030
0000
0000
0001
1000
0000
,  // measure 87
0020
0030
2000
3001
,  // measure 88
0020
0000
0031
0000
2000
0000
3001
0100
,  // measure 89
0000
0010
0000
0100
0001
0000
0000
2000
,  // measure 90
0000
0000
3000
0000
0000
0001
0010
0000
,  // measure 91
0002
0000
2003
3010
,  // measure 92
1000
0000
0001
0000
0100
0000
0010
1000
,  // measure 93
0010
0000
1000
0000
0001
0100
0000
0020
,  // measure 94
0000
0000
0030
0000
,  // measure 95
1000
0010
1000
0000
0001
0000
0010
0000
,  // measure 96
0001
0000
1000
0020
0000
1030
0001
0000
,  // measure 97
1000
0100
1000
0000
0001
0000
0100
0000
,  // measure 98
0001
0000
1000
0200
0000
0310
0000
0100
,  // measure 99
2000
0000
3002
0000
,  // measure 100
0203
0000
0000
0000
0310
0000
1000
0010
,  // measure 101
0100
0000
0000
0002
0000
0000
0003
0000
,  // measure 102
0200
0000
0000
0300
0000
0001
1000
0000
,  // measure 103
0010
0000
1000
0001
0000
0000
0100
0000
,  // measure 104
0020
0000
0000
2030
0000
3001
0010
0000
,  // measure 105
0002
0010
1000
0203
,  // measure 106
0310
0000
1000
0001
0000
0100
0000
0000
,  // measure 107
0010
0000
1000
0001
0000
0100
0000
0001
,  // measure 108
2000
0000
3200
0000
,  // measure 109
0310
0001
1000
0000
0001
0100
0010
0000
,  // measure 110
0200
0000
0000
0302
0000
1003
0000
0000
,  // measure 111
0010
1000
0001
0000
0010
0100
1000
0000
,  // measure 112
0002
0000
0000
0203
0000
0310
0000
0100
,  // measure 113
0002
0000
2003
0000
,  // measure 114
3020
0000
1030
0001
,  // measure 115
1000
0020
0000
0130
0000
0000
0000
0000
,  // measure 116
0002
0000
0000
0003
0000
0000
1000
0010
,  // measure 117
1000
0000
0001
0010
0001
0000
1000
0000
,  // measure 118
0001
0100
0000
0020
0000
1030
0000
0001
,  // measure 119
0020
0100
0001
0100
,  // measure 120
0031
1000
0000
0020
0000
1030
0000
0000
,  // measure 121
0001
1000
0001
0020
0000
0031
1000
0000
,  // measure 122
0001
1000
0200
0000
0000
0000
0000
0000
,  // measure 123
0300
0000
0000
0000
,  // measure 124
0010
0001
0010
0001
0010
0000
0100
0000
,  // measure 125
1000
0100
1000
0100
1000
0000
0000
0000
,  // measure 126
0002
0000
1003
0000
0010
0000
1000
0002
,  // measure 127
0000
0000
1003
0100
,  // measure 128
0020
0000
0130
0000
1000
0000
0001
0200
,  // measure 129
0000
0000
0310
0100
,  // measure 130
0002
0000
1003
0000
0100
0000
0010
0002
,  // measure 131
0000
0000
1003
0010
,  // measure 132
2000
0000
3001
0000
0010
0000
0100
2000
,  // measure 133
0000
0000
3002
0103
,  // measure 134
0120
0000
0000
2000
,  // measure 135
0030
0000
0000
0000
,  // measure 136
0000
3001
0000
0000
;

//---------------dance-single - Easy----------------
#NOTES:
     dance-single:
     Ace Of Hearts (2010 Rewrite):
     Easy:
     4:
     0.210,0.000,0.020,0.185,0.000: // measure 1
0000
0000
0000
0000
,  // measure 2
0000
0000
0000
0000
,  // measure 3
0000
0000
0000
0000
,  // measure 4
0000
0000
0000
0000
,  // measure 5
0000
0000
0000
0000
,  // measure 6
0000
0000
0000
0000
,  // measure 7
0000
0000
0000
0000
,  // measure 8
0000
0000
0000
0000
,  // measure 9
0000
0000
0000
0000
,  // measure 10
1001
0000
0000
0000
,  // measure 11
0110
0000
0000
0000
,  // measure 12
1001
0000
0000
0001
0000
0000
0001
0000
,  // measure 13
0000
0001
0000
0000
0001
0000
0000
0000
,  // measure 14
0000
0000
1000
0000
,  // measure 15
1000
0000
1000
0000
,  // measure 16
0010
0010
0010
0000
,  // measure 17
0010
0000
0100
0100
,  // measure 18
0200
0000
0302
0000
,  // measure 19
1003
1000
1000
0000
,  // measure 20
0010
0010
0010
0010
,  // measure 21
0000
1000
1000
1000
,  // measure 22
0000
0000
0001
0000
,  // measure 23
0100
0000
0100
0000
,  // measure 24
0010
0000
0010
0010
,  // measure 25
0010
0000
1000
1000
,  // measure 26
2000
0000
3002
0000
,  // measure 27
0013
0010
0010
0000
,  // measure 28
0010
0000
0010
0000
,  // measure 29
0000
0000
0000
0000
,  // measure 30
0002
0000
2003
0000
,  // measure 31
3001
0001
0001
0000
,  // measure 32
0100
0100
0100
0000
,  // measure 33
0100
0000
0000
0000
,  // measure 34
0020
0000
2030
0000
,  // measure 35
3001
0001
0001
0000
,  // measure 36
0010
0010
0010
0000
,  // measure 37
0020
0000
0030
0000
,  // measure 38
0002
0000
0003
0000
,  // measure 39
1000
1000
1000
0000
,  // measure 40
0010
0000
0010
0000
,  // measure 41
0010
0000
0000
0000
,  // measure 42
2000
0000
3002
0000
,  // measure 43
0013
0010
0010
0000
,  // measure 44
0001
0001
0001
0000
,  // measure 45
2000
0000
3000
0000
,  // measure 46
0001
0001
0001
0000
,  // measure 47
0100
0000
0100
0000
,  // measure 48
0010
0010
0010
0000
,  // measure 49
1000
0000
1000
0000
,  // measure 50
0002
0000
2003
0000
,  // measure 51
3002
0000
1003
0000
,  // measure 52
0010
0000
0010
0000
,  // measure 53
0000
0000
0000
0000
,  // measure 54
1000
1000
1000
0000
,  // measure 55
0100
0000
0100
0000
,  // measure 56
0010
0010
0010
0000
,  // measure 57
0001
0000
0001
0000
,  // measure 58
1000
1000
1000
0000
,  // measure 59
0020
0000
0000
0000
,  // measure 60
0030
0000
0000
0000
,  // measure 61
1000
1000
1000
0000
,  // measure 62
0001
0001
0001
0000
,  // measure 63
0010
0000
0010
0000
,  // measure 64
0020
0000
0030
0000
,  // measure 65
0001
0000
0001
0000
,  // measure 66
0002
0000
0003
0000
,  // measure 67
1000
0000
1000
0000
,  // measure 68
2000
0000
3000
0000
,  // measure 69
0010
0000
0010
0000
,  // measure 70
0020
0000
0030
0000
,  // measure 71
1000
0000
0001
0001
,  // measure 72
0001
0000
1000
1000
,  // measure 73
1000
0000
0000
0000
,  // measure 74
0100
0000
0000
0000
,  // measure 75
0010
0000
0001
0001
,  // measure 76
0001
0000
1000
1000
,  // measure 77
1000
0000
0100
0000
,  // measure 78
0010
0000
0000
0000
,  // measure 79
0001
0000
0001
0000
,  // measure 80
0010
0000
0001
0001
,  // measure 81
0001
0000
1000
0000
,  // measure 82
1000
0000
0000
0000
,  // measure 83
0010
0000
0010
0000
,  // measure 84
1000
1000
1000
0000
,  // measure 85
0001
0001
0001
0000
,  // measure 86
0020
0000
0030
0000
,  // measure 87
0100
0000
0100
0000
,  // measure 88
1000
1000
1000
0000
,  // measure 89
0001
0000
0001
0000
,  // measure 90
0001
0000
0000
0000
,  // measure 91
0010
0000
0010
0010
,  // measure 92
0010
0000
0001
0000
,  // measure 93
1000
1000
1000
0000
,  // measure 94
2000
0000
3000
0000
,  // measure 95
0001
0001
0001
0000
,  // measure 96
0100
0000
0100
0000
,  // measure 97
0010
0010
0010
0000
,  // measure 98
1000
0000
1000
0000
,  // measure 99
0020
0000
0230
0000
,  // measure 100
0320
0000
0130
0100
,  // measure 101
0100
0000
0001
0000
,  // measure 102
0000
0000
0000
0000
,  // measure 103
1000
1000
1000
0000
,  // measure 104
0100
0000
0100
0000
,  // measure 105
0010
0010
0010
0000
,  // measure 106
0001
0000
0001
0000
,  // measure 107
1000
1000
1000
0000
,  // measure 108
0002
0000
2003
0000
,  // measure 109
3001
0001
0001
0000
,  // measure 110
0010
0000
0010
0000
,  // measure 111
0100
0100
0100
0000
,  // measure 112
1000
0000
1000
0000
,  // measure 113
0002
0000
2003
0000
,  // measure 114
3002
0000
0013
0000
,  // measure 115
0010
0000
0010
0000
,  // measure 116
0000
0000
0000
0000
,  // measure 117
0001
0001
0001
0000
,  // measure 118
1000
0000
1000
0000
,  // measure 119
0010
0010
0010
0000
,  // measure 120
1000
0000
1000
0000
,  // measure 121
0001
0001
0001
0000
,  // measure 122
0020
0000
0000
0000
,  // measure 123
0030
0000
0000
0000
,  // measure 124
0001
0001
0001
0000
,  // measure 125
0100
0100
0100
0000
,  // measure 126
0010
0000
0010
0000
,  // measure 127
0020
0000
0030
0000
,  // measure 128
1000
0000
1000
0000
,  // measure 129
2000
0000
3000
0000
,  // measure 130
0100
0000
0100
0000
,  // measure 131
0200
0000
0300
0000
,  // measure 132
0010
0000
0010
0000
,  // measure 133
0020
0000
0030
0000
,  // measure 134
2002
0000
0000
0000
,  // measure 135
3000
0000
0000
0000
,  // measure 136
0000
0013
0000
0000
;

//---------------dance-single - Novice----------------
#NOTES:
     dance-single:
     Ace Of Hearts (2010 Rewrite):
     Beginner:
     2:
     0.141,0.000,0.020,0.166,0.000: // measure 1
0000
0000
0000
0000
,  // measure 2
0000
0000
0000
0000
,  // measure 3
0000
0000
0000
0000
,  // measure 4
0000
0000
0000
0000
,  // measure 5
0000
0000
0000
0000
,  // measure 6
0000
0000
0000
0000
,  // measure 7
0000
0000
0000
0000
,  // measure 8
0000
0000
0000
0000
,  // measure 9
0000
0000
0000
0000
,  // measure 10
1001
0000
0000
0000
,  // measure 11
1001
0000
0000
0000
,  // measure 12
2002
0000
0000
0000
,  // measure 13
0000
0000
3003
0000
,  // measure 14
0000
0000
1000
0000
,  // measure 15
1000
0000
0000
0000
,  // measure 16
0001
0000
0001
0000
,  // measure 17
0001
0000
2000
0000
,  // measure 18
3000
0000
0010
0000
,  // measure 19
1000
0000
1000
0000
,  // measure 20
2000
0000
0000
0000
,  // measure 21
0000
3000
0000
0000
,  // measure 22
0000
0000
0001
0000
,  // measure 23
0001
0000
0000
0000
,  // measure 24
0100
0000
0100
0000
,  // measure 25
0100
0000
0002
0000
,  // measure 26
0003
0000
1000
0000
,  // measure 27
0100
0000
0100
0000
,  // measure 28
0200
0000
0300
0000
,  // measure 29
0000
0000
0000
0000
,  // measure 30
0010
0000
0010
0000
,  // measure 31
0001
0000
0001
0000
,  // measure 32
1000
0000
1000
0000
,  // measure 33
1000
0000
0000
0000
,  // measure 34
0010
0000
0010
0000
,  // measure 35
1000
0000
1000
0000
,  // measure 36
0001
0000
0001
0000
,  // measure 37
0001
0000
0000
0000
,  // measure 38
1000
0000
1000
0000
,  // measure 39
0010
0000
0010
0000
,  // measure 40
0020
0000
0000
0000
,  // measure 41
0030
0000
0000
0000
,  // measure 42
1000
0000
1000
0000
,  // measure 43
0001
0000
0001
0000
,  // measure 44
0100
0000
0100
0000
,  // measure 45
0200
0000
0300
0000
,  // measure 46
0010
0000
0010
0000
,  // measure 47
0020
0000
0030
0000
,  // measure 48
1000
0000
1000
0000
,  // measure 49
2000
0000
3000
0000
,  // measure 50
0001
0000
0001
0000
,  // measure 51
1000
0000
1000
0000
,  // measure 52
0010
0000
0010
0000
,  // measure 53
0000
0000
0000
0000
,  // measure 54
1000
0000
1000
0000
,  // measure 55
1000
0000
0000
0000
,  // measure 56
0001
0000
0001
0000
,  // measure 57
0001
0000
0000
0000
,  // measure 58
0010
0000
0010
0000
,  // measure 59
0020
0000
0000
0000
,  // measure 60
0030
0000
0000
0000
,  // measure 61
0001
0000
0001
0000
,  // measure 62
0001
0000
0000
0000
,  // measure 63
2000
0000
0000
0000
,  // measure 64
3000
0000
0000
0000
,  // measure 65
0020
0000
0000
0000
,  // measure 66
0030
0000
0000
0000
,  // measure 67
0200
0000
0000
0000
,  // measure 68
0300
0000
0000
0000
,  // measure 69
0002
0000
0000
0000
,  // measure 70
0003
0000
0000
0000
,  // measure 71
1000
0000
0002
0000
,  // measure 72
0003
0000
2000
0000
,  // measure 73
3000
0000
0000
0000
,  // measure 74
0100
0000
0000
0000
,  // measure 75
0010
0000
0002
0000
,  // measure 76
0003
0000
2000
0000
,  // measure 77
3000
0000
0001
0000
,  // measure 78
0010
0000
0000
0000
,  // measure 79
0001
0000
0001
0000
,  // measure 80
1000
0000
1000
0000
,  // measure 81
0100
0000
0100
0000
,  // measure 82
0100
0000
0000
0000
,  // measure 83
0010
0000
0010
0000
,  // measure 84
0001
0000
0001
0000
,  // measure 85
1000
0000
1000
0000
,  // measure 86
1000
0000
0000
0000
,  // measure 87
0100
0000
0100
0000
,  // measure 88
0010
0000
0010
0000
,  // measure 89
0001
0000
0001
0000
,  // measure 90
0001
0000
0000
0000
,  // measure 91
0100
0000
0100
0000
,  // measure 92
0001
0000
0001
0000
,  // measure 93
1000
0000
1000
0000
,  // measure 94
2000
0000
3000
0000
,  // measure 95
0001
0000
0001
0000
,  // measure 96
0002
0000
0003
0000
,  // measure 97
0010
0000
0010
0000
,  // measure 98
0020
0000
0030
0000
,  // measure 99
0001
0000
0001
0000
,  // measure 100
0001
0000
1000
0000
,  // measure 101
1000
0000
0000
0000
,  // measure 102
0000
0000
0000
0000
,  // measure 103
0010
0000
0010
0000
,  // measure 104
0010
0000
0000
0000
,  // measure 105
0100
0000
0100
0000
,  // measure 106
0100
0000
0000
0000
,  // measure 107
0001
0000
0001
0000
,  // measure 108
0002
0000
0003
0000
,  // measure 109
1000
0000
1000
0000
,  // measure 110
2000
0000
3000
0000
,  // measure 111
0010
0000
0010
0000
,  // measure 112
0020
0000
0030
0000
,  // measure 113
1000
0000
1000
0000
,  // measure 114
0001
0000
0001
0000
,  // measure 115
0010
0000
0010
0000
,  // measure 116
0000
0000
0000
0000
,  // measure 117
0001
0000
0001
0000
,  // measure 118
0002
0000
0003
0000
,  // measure 119
1000
0000
1000
0000
,  // measure 120
2000
0000
3000
0000
,  // measure 121
0010
0000
0010
0000
,  // measure 122
0020
0000
0000
0000
,  // measure 123
0030
0000
0000
0000
,  // measure 124
1000
0000
1000
0000
,  // measure 125
1000
0000
0000
0000
,  // measure 126
0002
0000
0000
0000
,  // measure 127
0003
0000
0000
0000
,  // measure 128
0200
0000
0000
0000
,  // measure 129
0300
0000
0000
0000
,  // measure 130
0020
0000
0000
0000
,  // measure 131
0030
0000
0000
0000
,  // measure 132
2000
0000
0000
0000
,  // measure 133
3000
0000
0000
0000
,  // measure 134
2002
0000
0000
0000
,  // measure 135
0003
0000
0000
0000
,  // measure 136
3010
0000
0000
0000
;
