#TITLE:Suppuration;
#SUBTITLE:-Core-;
#ARTIST:Kotoko;
#TITLETRANSLIT:;
#SUBTITLETRANSLIT:;
#ARTISTTRANSLIT:;
#GENRE:J-Pop;
#CREDIT:Ace Of Hearts;
#BANNER:Suppuration - bn.png;
#BACKGROUND:Suppuration - bg.jpg;
#LYRICSPATH:;
#CDTITLE:Ace Of Hearts.png;
#MUSIC:Suppuration -Core-.ogg;
#OFFSET:1.260;
#SAMPLESTART:60.740;
#SAMPLELENGTH:13.000;
#SELECTABLE:YES;
#BPMS:0.000=135.000,73.750=270.000,74.500=135.000,105.750=270.000,106.500=135.000,137.750=270.000,138.500=135.000;
#DISPLAYBPM:135.000;
#STOPS:73.750=0.160
,105.750=0.160
,137.750=0.160
;
#BGCHANGES:;
#KEYSOUNDS:;

//---------------dance-single - Expert----------------
#NOTES:
     dance-single:
     Ace Of Hearts (2010):
     Challenge:
     11:
     0.907,0.000,0.013,0.589,1.000:
0000
0000
0000
0000
,
0000
0000
0000
0000
,
0000
0000
0000
0000
,
0000
0000
0000
0000
,
0000
0000
0000
0000
0000
0001
0000
1000
0000
0010
0000
0000
1000
0001
0010
0100
,
1000
0100
1000
0100
1000
0000
0001
0000
0100
0000
0010
0000
1000
0000
0001
0000
0100
0000
0010
0000
1000
0000
0000
0000
1000
0000
0001
0000
0100
0000
0001
0000
,
1000
0010
1000
0010
1000
0000
0001
0000
0100
0000
0010
0000
1000
0000
0001
0000
0100
0000
0010
0000
1000
0000
0000
0000
0001
0000
0010
0000
0100
0000
1000
0000
,
0001
0100
0001
0100
0001
0000
1000
0000
0010
0000
1000
0000
0001
0000
1000
0000
0100
0000
0010
0000
0001
0000
1000
0000
0010
0000
0100
0000
0001
0000
1000
0000
,
0001
0100
0001
0100
0001
0000
1000
0000
0010
0000
1000
0000
0001
0000
0010
0000
0100
0000
1000
0000
0001
0000
0100
0000
0010
0000
1000
0000
0100
0000
0010
0000
,
0001
1000
0001
0200
0000
0310
1000
0001
0100
0010
2000
0000
3001
0100
0010
0200
,
0000
0000
0000
0301
0000
0000
1000
0000
0000
0010
0000
0000
1000
0000
0000
0001
0000
0000
0000
0000
0000
0100
0000
0000
0010
0000
0000
1000
0000
0000
0001
0000
1000
0000
0001
0000
1000
0000
0000
0000
0000
0000
1000
0000
0000
0000
0000
0000
,
0010
0000
1000
0000
0100
0000
0010
0001
0000
0010
0200
0000
0000
0000
0000
0000
,
1300
0000
0000
0000
0001
0100
0020
0000
1030
0010
2000
0000
3001
0100
0010
0100
,
0001
1000
0100
0020
0000
0031
1000
0010
1000
0001
2000
0000
3001
0100
0001
0020
,
0000
0031
1000
0100
0010
0001
0200
0000
0301
1000
0020
0000
1030
0001
0010
0100
,
1000
0001
1000
0100
0010
0001
1000
0010
0100
0001
2000
0000
3100
0010
0001
1000
,
0001
0010
0100
1000
0100
0010
0002
0000
0013
0100
2000
0000
3001
0100
0001
0020
,
0000
0000
0130
0000
0010
0000
0002
0000
0000
0000
1003
0000
0010
0000
0100
0000
0001
0000
1000
0000
0100
0000
0010
0000
0001
1000
0001
1000
0001
1000
0001
1000
,
0001
0000
0100
0001
1000
0100
0010
0100
0000
0000
1000
0000
0001
0100
0010
1000
,
0001
0010
0100
1000
0100
0010
0001
1000
0010
1000
0001
0100
0020
0000
1030
0001
,
1000
0010
0100
0001
1000
0100
0010
0001
2000
0000
3010
0100
0001
0100
0010
1000
,
0001
0010
0100
1000
0001
0100
0010
0100
0001
1000
0100
0010
0001
0010
0100
1000
,
0002
0000
1003
0010
1000
0001
0010
0100
1000
0100
0010
0001
1000
0010
0100
0010
,
1000
0001
0010
0100
1000
0001
0100
0010
2000
0000
3002
0000
0023
0000
0031
1000
,
0010
0100
0001
0100
0010
1000
0001
0100
0020
0000
2030
0000
3002
0000
1003
0100
,
0010
0000
0100
0000
1000
0000
0001
0000
0100
0000
0010
0000
0100
0000
0001
0000
2000
0000
0000
0000
3001
0000
0010
0000
0001
1000
0001
1000
0001
0000
0010
0000
,
0001
0000
1000
0000
0100
0000
0010
0000
0100
1000
0100
1000
0100
0000
0010
0000
0000
0000
0000
0000
0001
0000
0000
0000
2001
0000
0000
0000
3010
0000
0000
0000
,
1000
0001
0010
0100
0010
0000
0001
1000
0000
1000
0010
1000
0001
0010
0100
0010
,
0001
1000
0010
0100
0001
0000
1000
0100
0000
0100
0010
0100
1000
0001
0100
0001
,
1000
0010
0100
0001
1000
0000
0001
0100
0000
0100
0010
1000
0001
0010
0100
1000
,
0100
0010
0001
1000
0010
0000
1000
0001
0000
0001
0010
0001
1000
0010
0100
0001
,
1000
0100
0010
0100
1000
0000
0001
0100
0000
0100
0010
1000
0001
1000
0100
0010
,
0100
1000
0001
0100
0010
0000
1000
0001
0000
0001
0010
0001
1000
0010
0100
0001
,
1000
0100
1000
0001
0100
0000
0010
1000
0000
1000
0001
0010
0100
0010
0001
1000
,
0010
0100
0001
1000
0010
0100
0001
1000
0000
0000
0001
0100
0020
0000
1030
0001
,
0010
0100
0010
0001
1000
0000
1000
0010
1000
0100
0010
0001
1000
0001
0010
0001
,
1000
0100
0010
0100
1000
0000
1000
0010
0100
0010
1000
0001
0010
0100
1000
0001
,
0100
0001
1000
0100
0010
0000
0010
0100
1000
0001
1000
0010
0100
0010
1000
0001
,
0010
0100
0010
0001
1000
0000
1000
0010
0100
0001
4000
0000
0000
0000
3001
0000
,
0100
0000
0020
0000
1030
0001
0200
0000
0310
0000
2000
0000
0000
0000
3001
0100
,
0010
0200
0301
1000
0100
0020
0000
0230
,
0000
0000
0000
0000
0000
0000
0000
0000
0000
0000
0000
0000
0000
0000
0000
0300
0400
0000
0000
0000
0000
0000
0000
0000
0000
0000
0000
0000
0000
0000
0000
0000
0000
0000
0000
0000
0000
0000
0000
0000
0000
0000
0000
0000
0000
0000
0000
0000
0000
0000
0000
0000
0000
0000
0000
0000
0300
0000
0000
0000
0000
0000
0000
0000
,
0010
0001
0010
0001
0010
0001
0010
0001
1000
0000
0000
0000
0010
0000
0100
0000
0001
0000
1000
0000
0100
0000
0000
0000
0220
0000
0000
0000
0330
0000
0000
0000
,
0010
0000
0001
0000
1000
0010
0100
0001
0000
0001
0040
0000
0000
0000
0130
0000
,
1000
0001
0100
0000
0040
0000
1030
0001
0000
0001
4000
0000
3040
0000
0130
0000
,
0004
0000
4003
0000
3010
0000
0100
0001
0000
0001
0100
0010
4000
0000
3004
0000
,
0403
0000
0340
0000
1030
0000
0001
0010
0000
0010
0400
0000
0000
0000
0300
0000
,
0010
0000
0001
0000
1000
0100
0020
0000
0000
0000
0032
0000
1003
0000
0010
0000
,
1000
0001
0100
0000
0010
0000
2000
0000
0000
0000
3002
0000
0000
0000
1003
0100
,
0010
0000
0100
0000
1000
0000
0001
0000
0100
0000
0010
0000
1000
0001
1000
0001
1000
0001
1000
0001
1000
0000
0010
0000
0100
0000
0001
0000
2000
0000
0000
0000
,
3100
0000
0000
0010
0000
0000
0100
0000
0000
1000
0000
0000
0001
0000
0100
0000
0001
0000
0200
0000
0000
0000
0000
0000
0310
0000
0000
0000
0000
0000
2000
0000
0000
0000
0000
0000
3002
0000
0000
0000
0000
0000
0103
0000
0000
0010
0000
0000
,
0000
0010
2000
0000
0000
0000
3001
0010
0100
0000
2000
0000
0000
0000
3100
0010
,
0200
0000
1300
0000
0001
0000
0100
0010
1000
0000
0002
0000
0013
0000
0001
1000
,
0020
0000
0130
0000
0001
1000
0100
0000
0010
0000
0002
0000
1003
0000
0010
0000
,
0200
0000
0301
1000
0010
0000
1000
0000
0001
1000
0100
0010
0002
0000
1003
0001
,
0000
0001
0200
0000
0000
0000
0310
1000
0001
0000
0020
0000
0000
0000
0130
0000
,
4000
0000
3000
0001
0100
0010
2000
0000
,
3001
0000
0020
0000
0000
0000
0000
0000
0000
0000
0130
2000
0000
0000
0000
0000
,
0000
0000
3001
0100
0001
1000
0010
0100
0001
1000
0100
0010
0001
0000
1000
0001
,
0010
0000
0200
0000
0310
0000
0001
1000
0100
0000
0020
0000
0130
0000
1000
0000
,
0002
0000
0100
0000
1003
0040
0000
0030
,
2000
0000
3001
0000
0010
0001
1000
0000
0010
0000
0200
0000
0301
0000
1000
0100
,
0020
0000
0130
0000
1000
0000
0001
0000
0100
0010
1000
0001
0020
0000
0031
1000
,
0100
0000
0010
0000
0200
0000
1300
0001
0100
0000
0020
0000
1030
0000
0001
0010
,
0200
0000
0310
0000
0001
0000
1000
0000
0010
1000
0001
0010
0002
0000
0000
0000
,
1000
0000
0000
0000
0100
0000
0000
0000
0023
0000
0130
0000
1000
0001
0100
0000
,
0010
0000
1000
0000
0001
0100
0001
0100
0001
0000
1000
0000
0000
0000
0100
0000
0000
0000
0010
0000
0000
0000
0100
0000
1000
0000
0000
0000
0002
0000
0000
0000
,
0000
0000
0000
0000
0000
0000
1003
0000
0010
0000
0100
0002
0000
0000
2003
0000
,
3000
0000
0100
0010
0002
0000
0000
0000
0000
0000
0103
0000
0001
0000
2000
0000
,
0000
0000
3020
0000
1030
0001
0200
0000
0310
0000
1000
0000
0002
0000
0013
0100
,
1000
0000
0001
1000
0002
0000
0013
0000
0100
0000
1000
0000
0020
0000
0000
0000
,
0000
0000
0000
0000
0000
0000
2030
0000
0000
0000
3001
0000
0010
0001
1000
0100
,
2000
0000
3001
0100
0001
1000
0100
0010
0001
0000
2000
0000
0000
0000
0000
0000
,
3000
0000
0001
0000
1000
0000
0010
0000
0100
0000
0001
0000
0000
0000
1000
0000
0010
0000
1000
0000
0001
0100
0001
0100
0001
0000
1000
0000
0100
0000
0010
0000
,
0001
0000
0100
0000
0010
1000
0010
1000
0010
0000
0100
0000
0001
0000
1000
0000
0100
0000
0010
0000
0001
0000
0000
0000
20M0
0000
0000
0000
0M00
0000
3100
0000
,
000M
M020
000M
M130
200M
00M2
0M00
00M0
,
0M10
00M0
3M03
M001
01M0
0M20
000M
M030
,
20M0
0M00
30M2
0M00
M103
002M
0M00
103M
,
M002
0000
0M00
0000
00M3
0000
100M
0000
01M0
0000
M010
0000
0M02
0000
00M0
2003
,
0M00
302M
0M00
103M
0M02
02M0
M000
00M0
,
M010
0000
00M0
0000
M303
0000
00M1
0000
1M00
0000
01M0
0000
002M
0000
0M00
0130
,
M000
0000
002M
0000
0M00
0000
M000
0000
000M
0000
0M31
2000
0000
0000
3001
0010
,
0001
1000
0010
0100
0001
1000
0001
0010
0100
1000
0001
1000
0020
0000
1030
0001
,
0010
0000
0200
0000
0310
0000
0001
1000
0010
0000
2000
0000
3001
0000
0010
0000
,
0200
0000
0000
0000
0310
0000
0001
1000
0010
1000
0002
0000
0000
0000
1003
0000
,
0010
0000
0100
0000
0010
1000
0001
0000
0010
0000
0200
0000
1300
0000
0001
1000
,
0020
0000
1030
0000
0001
0000
0010
0001
1000
0010
0100
0001
1000
0100
0010
0001
,
1000
0000
0010
1000
0001
0010
0100
0010
0001
1000
0020
0000
0000
0000
1030
0001
,
0100
0000
0010
0000
1000
0000
0000
0000
0001
0000
0010
0000
0100
0000
1000
0000
0001
0000
0100
0000
0010
0000
1000
0000
0004
0400
0000
0000
0000
0000
0000
0000
,
0000
0000
0000
0000
0000
0000
0000
0003
0310
0000
1000
0001
0010
0100
1000
0000
,
0001
0100
0000
0010
0000
1000
0001
0000
0010
0100
1000
0001
0100
0010
0100
0000
,
0001
0000
1000
0100
0020
0000
0130
1000
0001
1000
0020
0000
0000
0000
1030
0001
,
0100
0010
1000
0001
0010
0001
1000
0010
0100
0000
0010
1000
0002
0000
0000
0000
,
0203
0000
0310
1000
0001
0000
0010
0100
1000
0000
0002
0000
0000
0000
1003
0010
,
0100
0001
1000
0100
0010
0000
0001
1000
0010
0100
0010
1000
0001
0100
0010
0000
,
1000
0000
0001
0010
0100
0000
1000
0000
0001
0100
0020
0000
0000
0000
1030
0001
,
0010
0100
1000
0001
1000
0010
0100
0001
1000
0000
0100
0010
0002
0000
0000
2003
,
0000
0000
3020
0000
0000
0000
0000
0000
0000
0030
1000
0002
0000
0000
0000
0000
,
0000
0000
1003
0010
1000
0100
0010
0001
1000
0001
0010
0100
1000
0001
0100
0000
,
0010
0000
2000
0000
0000
0000
3001
0010
0100
0000
0020
0000
0000
0000
0031
1000
,
0200
0000
0310
0100
1000
0001
1000
0010
0100
0001
0100
0000
0010
0000
1000
0001
,
0010
0000
0001
1000
0010
0100
0010
0000
1000
0000
0002
0000
0000
0000
0013
0100
,
1000
0000
0001
0100
0010
1000
0010
0100
0001
1000
0100
0010
0001
0000
1000
0010
,
0100
0000
0001
0000
0010
0000
0100
1000
0001
0000
0100
0000
0010
1000
0001
1000
,
0010
0000
0100
0000
0001
0000
1000
0000
0100
0000
1000
0000
0001
0000
0100
0000
0010
0000
1000
0000
0001
0000
1000
0000
0040
4000
0000
0000
0000
0000
0000
0000
,
0000
0000
0000
0000
0000
0000
0000
0030
3001
0000
0100
0010
1000
0001
0010
0000
,
0100
0000
1000
0000
0001
0010
0001
0010
0001
0000
1000
0000
0000
0000
0010
0000
0000
0000
0100
0000
0001
0000
1000
0000
0100
0000
0010
0000
0001
0000
0000
0000
,
1000
0000
0010
0000
0100
0000
0001
1000
0000
1000
0020
0000
0000
0000
0000
0000
,
0130
0000
0000
0000
0002
0000
1003
0100
0000
0100
0020
0000
0000
0000
0000
0000
,
0130
0000
0000
0000
2000
0000
3001
0100
0000
0100
0002
0000
0000
0000
0000
0000
,
1003
0000
0000
0000
0100
0000
0010
0001
0000
0001
2000
0000
3010
1000
0001
0010
,
0100
0010
0001
1000
0010
0000
1000
0001
0000
0001
0020
0000
0031
1000
0010
0100
,
0001
1000
0100
0010
0100
0000
1000
0001
0000
0001
0200
0000
0310
1000
0001
0010
,
0001
0000
1000
0000
0010
0000
0100
0000
0001
0000
0000
0000
1000
0000
0001
0000
0000
0000
0001
0000
0020
0000
0000
0000
0034
4000
0000
0000
0000
0000
0000
0000
,
0000
0000
0000
0000
0000
0000
0000
0000
3003
0000
0001
0100
0010
1000
0001
0010
,
0100
0010
0001
1000
0010
0000
1000
0001
0000
0001
0100
0010
1000
0001
0010
0100
,
1000
0100
0010
0001
1000
0000
0010
0100
0000
0100
0001
1000
0100
0010
0100
1000
,
0001
0100
0010
1000
0001
0000
0010
0100
0000
0100
1000
0001
0100
0010
0100
0001
,
1000
0100
0010
0100
1000
0000
0001
0100
0000
0100
0010
1000
0001
0010
0001
1000
,
0010
0100
0001
1000
0100
0010
0001
1000
0010
0100
0001
0010
0100
1000
0001
0100
,
0010
1000
0001
0100
0010
1000
0001
0100
0001
1000
0010
0100
0001
1000
0100
0010
,
0100
0000
1000
0000
0001
0000
0100
0000
0010
0000
0000
0000
1000
0000
0001
0000
0000
0000
0001
0000
0010
0001
0010
0001
0010
0000
0100
0000
1000
0000
0010
0000
,
1000
0000
0001
0000
1000
0010
1000
0010
1000
0000
0100
0000
0000
0000
0110
0000
0000
0000
0010
0000
0001
0000
1000
0000
0010
0000
0000
0000
2000
0000
0000
0000
,
0000
0000
0000
0000
0000
0000
3001
0200
,
0000
0301
0020
0000
0000
0000
0000
0032
,
0000
0000
1003
0000
0010
0100
0001
0000
1000
0000
0200
0000
0000
0000
0000
0000
,
0000
0000
0000
0000
0000
0000
0000
0010
0000
0000
1300
0000
0002
0000
0000
0000
,
0000
0000
0000
1003
0010
1000
0200
0310
,
0001
0000
0200
0000
0000
0000
0000
0010
0000
0000
0301
0000
2000
0000
0000
0000
,
0000
0000
0000
0000
0000
0000
0000
0000
0000
0000
0000
0000
3001
0000
0000
0000
0100
0000
0000
0000
0010
0000
0000
0000
1000
0100
1000
0000
0001
0000
0100
0000
,
0010
1000
0010
0000
0001
0000
0010
0000
0100
0000
1000
0000
0001
0000
0010
0000
0000
0000
0001
0000
1000
0000
0001
0000
02M0
0000
0000
0000
M000
0000
0000
0000
,
00M0
M000
03M0
0M00
0000
0000
0000
0000
;

//---------------dance-single - Hard----------------
#NOTES:
     dance-single:
     Ace Of Hearts (2010):
     Hard:
     10:
     0.675,0.000,0.000,0.698,0.599:
0000
0000
0000
0000
,
0000
0000
0000
0000
,
0000
0000
0000
0000
,
0000
0000
0000
0000
,
0000
0000
0000
0000
0000
1000
0000
0001
0000
0100
0000
0000
0001
0010
0001
1000
,
0040
0000
0000
1030
0001
1000
0100
1000
0001
1000
0100
0000
1000
0001
0100
0001
,
4000
0000
3001
0010
0001
1000
0001
1000
0010
1000
0001
0000
1000
0010
1000
0001
,
0040
0000
0031
1000
0010
1000
0001
1000
0010
0000
1000
0100
0010
0001
0010
0100
,
4000
0000
3001
0100
0010
1000
0010
0100
0001
1000
0001
0100
0010
1000
0001
0010
,
0001
1000
0001
0020
0000
0031
1000
0010
1000
0001
0020
0000
0031
0010
0100
2000
,
0000
3001
0100
0010
0100
0001
0000
1000
0001
0000
0400
0000
0300
0000
0010
0000
,
1000
0000
0001
0000
0200
0000
0310
1000
0000
1000
0002
0000
0000
0000
0000
0000
,
0013
0000
0000
0000
0001
0010
0001
0000
1000
0010
1000
0010
0100
0000
0001
1000
,
0000
1000
0020
0000
1030
0010
1000
0000
0001
0010
0001
0010
0100
0000
1000
0001
,
0000
0001
0200
0000
0310
0100
0010
0000
0100
0001
0100
0001
1000
0000
0010
0100
,
0000
0100
0002
0000
1003
0010
1000
0000
0100
0010
0100
0010
0001
0000
1000
0010
,
0000
0010
0200
0000
0301
0100
0001
0000
1000
0001
1000
0001
0100
0000
0010
1000
,
0000
1000
0002
0000
1003
0100
1000
0000
0001
0010
0001
0010
0400
0000
0000
0310
,
0000
0001
1000
0001
0010
0001
1000
0010
0000
0000
2000
0000
3010
0000
0100
0000
,
0001
0010
0100
0010
0001
0000
1000
0100
0000
0100
0020
0000
0031
1000
0001
0000
,
1000
0100
0010
0100
1000
0000
0001
1000
0000
1000
0020
0000
0130
0010
0100
0000
,
0001
0100
0010
0100
0001
0000
1000
0001
0000
0001
0020
0000
0130
1000
0100
0000
,
1000
0010
0100
0010
1000
0000
0010
0100
0000
0100
0002
0000
1003
0100
1000
0000
,
0001
1000
0100
1000
0001
0000
0100
0001
0000
0001
2000
0000
3010
0100
0010
0000
,
1000
0001
0010
0001
1000
0000
0010
0100
0020
0000
1030
0000
0001
0100
0001
0000
,
1000
0010
0100
0010
1000
0000
0001
0010
0001
0000
1000
0000
0400
0000
0000
1300
,
0001
0010
0001
1000
0040
0000
0000
0030
0000
0000
1000
0000
0002
0000
0013
0000
,
0100
1000
0100
1000
0001
0000
0000
0100
0000
0000
0020
0000
1030
0000
0001
0000
,
1000
0010
1000
0010
0100
0000
0000
0001
0000
0000
2000
0000
3100
0000
0010
0000
,
0001
1000
0001
1000
0010
0000
0000
0100
0000
0000
0002
0000
1003
0000
0100
0000
,
0010
0100
0010
0100
1000
0000
0000
0001
0000
0000
0200
0000
0310
0000
1000
0000
,
0001
0010
0001
0010
0100
0000
0000
1000
0000
0000
0002
0000
0103
0000
0010
0000
,
1000
0010
1000
0010
0100
0000
0000
0001
0000
0000
2000
0000
3100
0000
0010
0000
,
0001
0010
0001
0010
0100
0000
0000
1000
0000
0000
0001
0000
0400
0000
0000
0000
,
0000
0000
0000
0000
0300
0000
0000
0010
0000
0000
1000
0000
0002
0000
0000
0000
,
1003
0000
0010
0000
0100
0000
0001
1000
0000
1000
0010
0000
0100
0000
0001
0000
,
1000
0000
0100
0000
0010
0000
0100
1000
0000
1000
0001
0000
0100
0000
0010
0000
,
1000
0000
0001
0000
0010
0000
0100
1000
0000
1000
0001
0000
1000
0000
0010
0000
,
0100
0000
0001
0000
1000
0000
0100
0010
0000
0010
0400
0000
0000
0000
0300
0000
,
1000
0001
0100
0010
0000
2000
0000
3002
,
0000
0023
0130
1000
0000
0002
0000
0200
,
0000
0000
0003
0300
,
0040
0000
0000
0000
1030
0000
0001
0100
0001
0000
1000
0000
0200
0000
0000
0000
,
0310
0000
0001
0000
1000
0000
0010
0100
0000
0100
0004
0000
0000
0000
1003
0000
,
0100
0000
0010
0000
0100
0000
1000
0001
0000
0001
0100
0000
0040
0000
0000
0000
,
1030
0000
0001
0000
0010
0000
0001
1000
0000
1000
0010
0000
0100
0000
0001
0000
,
1000
0000
0100
0000
0010
0000
0100
1000
0000
1000
0004
0000
0000
0000
0003
0000
,
1000
0010
0100
0002
0000
2003
0000
3200
,
0000
0000
0310
0000
0001
0000
1000
0000
0000
0000
0020
0000
0000
0000
1030
0001
,
0100
0001
1000
0000
0001
0010
0400
0000
0000
0000
0310
0001
1000
0010
1000
0100
,
0010
0001
1000
0000
0040
0000
1030
0000
0001
0000
0010
0000
0200
0000
0000
0320
,
0000
0032
0000
1003
0100
0020
0000
0130
,
0200
0000
0300
0010
0001
2000
0000
3000
,
0020
0000
2030
0000
3001
0200
0000
0301
,
2000
0000
0000
0000
3000
0000
0001
0000
0100
0000
0010
0000
2000
0000
0000
3002
,
0000
0023
0000
0031
1000
0020
0000
1030
,
0002
0000
0003
1000
0100
0010
0002
0000
,
1003
0000
0020
0000
0000
0000
0000
0000
0000
0000
1030
0002
0000
0000
0000
0000
,
0000
0000
1003
0010
1000
0001
0010
0001
1000
0010
1000
0001
0020
0000
0000
0130
,
0000
2000
0000
3001
0100
0020
0000
1030
,
2000
0000
3000
0001
0100
0020
0000
0030
,
1000
0000
0001
0000
1000
0010
0000
0100
,
0002
0000
0000
0000
0003
0000
1000
0000
0100
0000
0010
0000
0200
0000
0000
2300
,
0000
3002
0000
0103
0001
2000
0000
3010
,
0200
0000
0300
0001
1000
0100
0020
0000
,
0000
0000
0000
0000
0000
0000
0000
0000
0000
0000
0031
0000
1000
0010
1000
0000
,
0001
1000
0400
0000
0300
0010
0000
0100
0000
1000
0000
0001
1000
0000
0200
0000
,
0000
0000
0000
0000
0000
0000
0310
0000
0001
0000
1000
0002
0000
0000
0023
0000
,
0000
0000
0130
1000
0200
0000
0000
0000
0000
0000
0310
0000
0001
0000
2000
0000
,
0000
0000
3001
0000
0010
0100
2000
0000
3001
0000
0100
0000
0020
0000
2030
0000
,
0000
3002
0000
0103
0001
1000
0020
0000
,
0000
0000
0000
0000
0000
0000
1030
0000
0100
0000
0010
0000
0001
1000
0001
0100
,
0020
0000
1030
0001
0010
0001
1000
0100
0010
0000
0200
0000
0000
0000
0000
0000
,
0310
0001
1000
0001
1000
0010
0000
1000
0001
0010
0400
0000
0000
0310
0001
1000
,
0001
1000
0040
0000
0000
1030
0001
0100
0001
1000
0001
0000
02M0
0000
0000
0310
,
000M
2000
0M00
3001
M010
0002
00M0
0000
,
M203
0000
030M
0010
1M00
0002
00M3
0000
,
200M
0000
32M0
0000
M310
0002
00M0
1003
,
0M20
0000
0000
0000
M030
0000
1000
0000
010M
0000
0010
0000
00M2
0000
0000
0203
,
M000
0320
0M00
1030
M001
0020
000M
0130
,
2M00
0000
0000
0000
300M
0000
0001
0000
02M0
0000
0310
0000
2M00
0000
0000
3001
,
00M0
0000
0020
0000
000M
0000
0000
0000
0M00
0000
0130
2000
00M0
0000
0000
3001
,
0100
0010
0100
0001
1000
0000
0001
0010
0100
1000
0100
0010
0002
0000
0000
2003
,
0000
3020
0000
1030
0001
0020
0000
0130
,
0200
0000
0300
0010
0001
2000
0000
3000
,
0020
0000
2030
0000
3001
0020
0000
0031
,
2000
0000
0000
0000
3000
0000
0001
0000
0100
0000
0010
0000
2000
0000
0000
3001
,
0000
0020
0000
0130
1000
0002
0000
1003
,
0200
0000
0300
0010
0001
1000
0004
0000
,
0000
0000
0000
0000
0000
0000
0000
0000
1003
0000
0100
0010
0001
0010
0100
0000
,
1000
0001
0000
0100
0000
0001
1000
0000
0010
1000
0001
0010
0002
0000
0000
2003
,
0000
3020
0000
1030
0001
0020
0000
0031
,
2000
0000
3000
0010
0100
0002
0000
0003
,
2000
0000
3020
0000
0130
0002
0000
1003
,
0200
0000
0000
0000
0300
0000
1000
0000
0001
0000
0100
0000
0020
0000
0000
2030
,
0000
3002
0000
0013
0100
2000
0000
3001
,
0200
0000
0000
0000
0300
0000
0010
0000
1000
0000
0001
0000
0020
0000
0000
0230
,
0000
0000
2300
0000
0000
0000
0000
0000
0000
0000
3001
0200
0000
0000
0000
0000
,
0000
0000
0301
1000
0100
1000
0001
0000
1000
0010
0100
0010
2000
0000
0000
3002
,
0000
0023
0000
0031
1000
0020
0000
0130
,
0200
0000
0300
0001
1000
0020
0000
0030
,
2000
0000
3002
0000
0013
0200
0000
1300
,
0002
0000
0000
0000
0003
0000
0100
0000
0010
0000
1000
0000
0002
0000
0000
0203
,
0000
0320
0000
1030
0100
0020
0000
0130
,
2000
0000
3000
0001
0010
0100
4000
0000
,
0000
0000
0000
0000
0000
0000
0000
0000
3001
0000
0010
0001
0010
0000
0100
0000
,
1000
0001
0400
0000
0000
0301
0000
1000
0000
0001
0010
0100
1000
0000
0001
0000
,
0200
0000
0310
0000
1000
0000
0001
0100
0000
0100
0020
0000
0000
0000
0000
0000
,
1030
0000
0000
0000
0002
0000
1003
0100
0000
0100
0020
0000
0000
0000
0000
0000
,
0031
0000
0000
0000
2000
0000
3001
0100
0000
0100
0020
0000
0000
0000
0000
0000
,
0130
0000
0001
0000
1000
0000
0100
0010
0000
0010
0200
0000
1300
0000
0001
0000
,
1000
0010
1000
0010
0100
0000
0001
1000
0000
1000
0200
0000
0310
0001
0010
0000
,
0001
1000
0001
1000
0010
0000
0100
0001
0000
0001
2000
0000
3100
0010
0100
0000
,
1000
0100
1000
0100
0010
0000
0001
1000
0000
1000
0020
0000
0430
0000
0000
0000
,
0000
0000
0000
0000
0000
0000
0000
0000
0300
0000
0010
0000
1000
0001
1000
0000
,
0100
0000
0010
0000
0001
0000
1000
0010
0000
0010
0200
0000
0000
0000
0000
0000
,
0301
0000
0000
0000
1000
0000
0001
0100
0000
0100
0020
0000
0000
0000
0000
0000
,
1030
0000
0001
0000
0010
0000
0100
1000
0000
1000
0002
0000
0000
0000
0000
0000
,
0103
0000
0010
0000
1000
0000
0001
0010
0000
0010
0200
0000
0000
0000
0000
0000
,
1300
0000
0001
0000
0100
0000
0010
0000
1000
0000
0001
0000
1000
0100
0010
0001
,
0010
0100
1000
0001
1000
0010
0100
0010
1000
0001
0010
0100
0010
0001
1000
0001
,
0100
0001
1000
0100
0010
0000
0001
1000
0000
0010
4000
0000
0000
3010
0100
0001
,
0100
0010
0400
0000
0310
1000
0000
0001
0000
0010
0001
1000
0010
0000
0200
0000
,
0000
0000
0000
0000
0000
0000
0301
2000
,
0000
3001
0020
0000
0000
0000
0000
0230
,
0000
0000
1300
0000
0100
0010
0001
0000
1000
0000
0002
0000
0000
0000
0000
0000
,
0000
0000
0000
0000
0000
0000
0000
1000
0000
0000
1003
0000
0020
0000
0000
0000
,
0000
0000
0000
1030
0001
0010
0100
1000
,
0001
0000
0200
0000
0000
0000
0000
0001
0000
0000
0310
0000
2000
0000
0000
0000
,
0000
0000
0000
3001
0010
0001
0400
0000
,
0000
0000
0000
0000
0000
0000
0000
0310
0000
1000
0001
0100
0020
0000
0000
0000
,
0000
0030
0000
0000
;

//---------------dance-single - Medium----------------
#NOTES:
     dance-single:
     Ace Of Hearts (2010):
     Medium:
     8:
     0.487,0.000,0.000,0.606,0.114: // measure 1
0000
0000
0000
0000
,  // measure 2
0000
0000
0000
0000
,  // measure 3
0000
0000
0000
0000
,  // measure 4
0000
0000
0000
0000
,  // measure 5
0000
0000
0000
0000
,  // measure 6
4000
0000
3001
0010
0001
1000
0010
1000
,  // measure 7
0004
0000
0013
0100
1000
0001
0100
0010
,  // measure 8
0400
0000
0301
1000
0100
0010
0100
1000
,  // measure 9
0004
0000
1003
0010
0100
0001
1000
0100
,  // measure 10
0010
0100
1000
0001
0100
0020
1030
0001
,  // measure 11
0010
0100
1000
0001
0100
0010
1000
0001
,  // measure 12
0010
0100
1000
0010
1000
0002
0000
0000
,  // measure 13
0103
0000
0010
0100
0001
1000
0100
0010
,  // measure 14
0100
0000
1000
0000
0001
0000
0000
1000
0000
0000
0010
0000
1000
0000
0001
0000
,  // measure 15
0010
0000
0100
0000
1000
0000
0000
0001
0000
0000
1000
0000
0010
0000
0100
0000
,  // measure 16
0001
0000
1000
0000
0100
0000
0000
0010
0000
0000
0100
0000
1000
0000
0001
0000
,  // measure 17
0100
0000
0010
0000
1000
0000
0000
0001
0000
0000
0010
0000
0001
0000
1000
0000
,  // measure 18
0010
0000
0100
0000
0001
0000
0000
1000
0000
0000
0100
0000
0040
0000
0000
0000
,  // measure 19
0030
0001
1000
0010
0000
1000
0001
0010
,  // measure 20
0001
0000
0000
0000
1000
0000
0000
0010
0000
0000
0100
0000
0010
0000
1000
0000
,  // measure 21
0001
0000
0000
0000
1000
0000
0000
0010
0000
0000
0100
0000
0001
0000
1000
0000
,  // measure 22
0100
0000
0000
0000
0010
0000
0000
0001
0000
0000
1000
0000
0010
0000
1000
0000
,  // measure 23
0001
0000
0000
0000
0010
0000
0000
0001
0000
0000
1000
0000
0010
0000
0100
0000
,  // measure 24
0001
0000
0000
0000
0010
0000
0000
0100
0000
0000
1000
0000
0100
0000
0010
0000
,  // measure 25
0001
0000
0000
0000
1000
0000
0000
0010
0000
0000
1000
0000
0001
0000
0010
0000
,  // measure 26
0100
0000
0000
0000
1000
0000
0000
0001
0000
0000
1000
0000
0400
0000
0000
0000
,  // measure 27
0310
0000
0001
0000
4000
0000
0000
3000
0000
0000
0001
0000
0100
0000
0010
0000
,  // measure 28
1000
0000
0001
0000
0010
0000
0000
0001
0000
0000
1000
0000
0010
0000
0100
0000
,  // measure 29
0001
0000
1000
0000
0100
0000
0000
0010
0000
0000
0001
0000
1000
0000
0010
0000
,  // measure 30
0100
0000
0001
0000
1000
0000
0000
0100
0000
0000
0010
0000
0100
0000
1000
0000
,  // measure 31
0001
0000
0100
0000
0010
0000
0000
1000
0000
0000
0001
0000
0010
0000
0001
0000
,  // measure 32
1000
0000
0010
0000
0100
0000
0000
0001
0000
0000
1000
0000
0100
0000
0010
0000
,  // measure 33
0100
0000
1000
0000
0001
0000
0000
1000
0000
0000
0010
0000
0100
0000
0001
0000
,  // measure 34
1000
0000
0100
0000
0010
0000
0000
0001
0000
0000
1000
0000
0040
0000
0000
0000
,  // measure 35
0000
0000
0000
0000
0030
0000
0000
1000
0000
0000
0000
0000
0002
0000
0000
0000
,  // measure 36
1003
0000
0010
0000
1000
0000
0000
1000
0000
0000
0001
0000
0100
0000
0010
0000
,  // measure 37
1000
0000
0001
0000
0010
0000
0000
0010
0000
0000
0100
0000
1000
0000
0001
0000
,  // measure 38
0100
0000
0010
0000
1000
0000
0000
1000
0000
0000
0001
0000
0010
0000
0100
0000
,  // measure 39
1000
0000
0001
0000
0100
0000
0000
0100
0000
0000
0010
0000
0000
0000
0000
0000
,  // measure 40
2000
0000
3001
0100
0000
0020
0000
2030
,  // measure 41
0000
3001
0100
0020
0000
2030
0000
0002
,  // measure 42
0000
0000
0000
3003
,  // measure 43
4000
0000
0000
0000
3010
0000
0000
0100
0000
0000
0001
0000
0000
0000
0000
0000
,  // measure 44
1000
0000
0010
0000
0100
0000
0000
0100
0000
0000
0100
0000
0000
0000
0000
0000
,  // measure 45
0001
0000
1000
0000
0100
0000
0000
0100
0000
0000
0010
0000
0001
0000
0000
0000
,  // measure 46
1000
0000
0010
0000
0100
0000
0000
0100
0000
0000
0001
0000
1000
0000
0100
0000
,  // measure 47
0010
0000
0100
0000
1000
0000
0000
1000
0000
0000
0001
0000
0000
0000
0000
0000
,  // measure 48
1000
0010
1000
0002
0000
0023
0000
0230
,  // measure 49
0000
1300
0001
0200
0000
0320
0000
1030
,  // measure 50
0002
0000
0000
0403
0000
0300
0000
0000
,  // measure 51
0010
0000
1000
0000
0001
0000
1000
0000
0010
0000
0100
0000
0002
0000
0000
2003
,  // measure 52
0000
3020
0000
1030
0001
0020
0000
0130
,  // measure 53
2000
0000
3000
0001
0100
0020
0000
0030
,  // measure 54
2000
0000
3002
0000
1003
0020
0000
1030
,  // measure 55
0002
0000
0000
0000
0003
0000
0010
0000
0100
0000
1000
0000
0002
0000
0000
2003
,  // measure 56
0000
3020
0000
1030
0001
2000
0000
3001
,  // measure 57
0020
0000
0000
0000
0030
0000
0001
0000
1000
0000
0100
0000
0020
0000
0000
0230
,  // measure 58
0000
2300
0000
0000
0000
3001
0200
0000
,  // measure 59
0000
0000
0000
0000
0300
0000
0010
0000
1000
0000
0001
0000
2000
0000
0000
3020
,  // measure 60
0000
0230
0000
0301
1000
0020
0000
0000
,  // measure 61
0230
0000
0300
0001
1000
0020
0000
0030
,  // measure 62
2000
0000
3002
0000
0013
0200
0000
1300
,  // measure 63
0002
0000
0000
0000
0003
0000
1000
0000
0010
0000
1000
0000
0002
0000
0000
2003
,  // measure 64
0000
3020
0000
1030
0100
0020
0000
0031
,  // measure 65
2000
0000
3000
0010
1000
0001
0020
0000
,  // measure 66
0000
0000
0000
0000
0000
0032
0000
0000
,  // measure 67
0000
4003
0000
3000
0000
0000
0001
0200
,  // measure 68
0000
0000
0000
0301
1000
0020
0000
1030
,  // measure 69
0000
0001
0200
0000
0000
0301
1000
0020
,  // measure 70
0000
1030
0001
0200
0301
1000
0100
2000
,  // measure 71
0000
3002
0000
1003
0100
0010
0002
0000
,  // measure 72
0000
0000
0000
1003
0010
0100
0001
1000
,  // measure 73
0200
0000
0310
0001
1000
0020
0000
0000
,  // measure 74
1030
0002
0000
0000
0000
4003
0000
3010
,  // measure 75
0100
0000
0004
0000
0000
0000
1003
0000
0100
0000
1000
0000
00M2
0000
0000
2003
,  // measure 76
0000
3020
0M00
0130
0001
2000
000M
0000
,  // measure 77
3200
0000
M300
1000
0001
0020
003M
0000
,  // measure 78
0002
0000
2M03
0000
3010
0200
00M0
0301
,  // measure 79
2000
0000
0000
0000
3M00
0000
0001
0000
0010
0000
0100
0000
20M0
0000
0000
3200
,  // measure 80
0000
0320
M000
0031
1000
0020
000M
1030
,  // measure 81
0002
0000
0000
0000
0M03
0000
1000
0000
0100
0000
0010
0000
M002
0000
0000
0203
,  // measure 82
0000
0320
000M
0000
0000
1030
0M02
0000
,  // measure 83
0000
0000
0000
0000
0003
0000
1000
0000
0010
0000
0100
0000
0002
0000
0000
0023
,  // measure 84
0000
0230
0000
1300
0001
2000
0000
3010
,  // measure 85
0200
0000
0300
0001
1000
0020
0030
0000
,  // measure 86
2000
0000
3002
0000
1003
0200
0000
0310
,  // measure 87
0002
0000
0000
0000
0003
0000
1000
0000
0010
0000
0100
0000
0002
0000
0000
2003
,  // measure 88
0000
3200
0000
0310
0001
2000
0000
3010
,  // measure 89
0200
0000
0300
0001
1000
0100
0040
0000
,  // measure 90
0000
0000
0000
0000
0031
2000
0000
0000
,  // measure 91
0000
0000
0000
0000
3000
0000
0001
0000
0100
0000
0001
0000
2000
0000
0000
3200
,  // measure 92
0000
0320
0000
0031
1000
0020
0000
1030
,  // measure 93
0002
0000
0003
0010
0100
2000
0000
3000
,  // measure 94
0002
0000
0203
0000
0310
2000
0000
3001
,  // measure 95
0020
0000
0000
0000
0030
0000
0001
0000
0100
0000
0010
0000
2000
0000
0000
3002
,  // measure 96
0000
0023
0000
0031
1000
0020
0000
0130
,  // measure 97
0002
0000
0000
0000
0003
0000
1000
0000
0100
0000
0010
0000
0002
0000
0000
0203
,  // measure 98
0000
0320
0000
0000
0000
1030
0002
0000
,  // measure 99
0000
0000
0000
0000
0003
0000
1000
0000
0010
0000
0100
0000
0002
0000
0000
2003
,  // measure 100
0000
3020
0000
0130
0001
2000
0000
0000
,  // measure 101
3200
0000
0300
0010
0001
2000
0000
3000
,  // measure 102
0020
0000
0230
0000
0301
2000
0000
3001
,  // measure 103
0020
0000
0000
0000
0030
0000
0001
0000
1000
0000
0010
0000
0200
0000
0000
0302
,  // measure 104
0000
2003
0000
3100
0010
0200
0000
1300
,  // measure 105
0002
0000
0003
1000
0010
0100
0004
0000
,  // measure 106
0000
0000
0000
0000
1003
0020
0000
0000
,  // measure 107
0000
0430
0000
0300
0000
0000
0001
1000
,  // measure 108
0100
0010
0001
1000
0000
0020
0000
0000
,  // measure 109
0130
0000
0001
1000
0100
0020
0000
0000
,  // measure 110
0130
0000
1000
0001
0100
0020
0000
0000
,  // measure 111
1030
0000
0000
0000
0001
0000
0010
0000
0001
0000
1000
0000
0010
0000
0000
0100
,  // measure 112
0000
0000
0001
0000
1000
0000
0100
0000
0010
0000
0100
0000
1000
0000
0000
0001
,  // measure 113
0000
0000
0100
0000
0010
0000
1000
0000
0001
0000
0010
0000
0100
0000
0000
1000
,  // measure 114
0000
0001
0100
0010
1000
0001
0400
0000
,  // measure 115
0000
0000
0000
0000
0300
0000
0010
1000
,  // measure 116
0001
0000
0000
0000
1000
0000
0000
0100
0000
0000
0010
0000
0100
0000
1000
0000
,  // measure 117
0001
0000
0000
0000
0100
0000
0000
0010
0000
0000
1000
0000
0001
0000
0010
0000
,  // measure 118
0100
0000
0000
0000
0010
0000
0000
0001
0000
0000
1000
0000
0010
0000
0100
0000
,  // measure 119
0001
0000
0000
0000
1000
0000
0000
0100
0000
0000
0010
0000
0100
0000
1000
0000
,  // measure 120
0001
0000
0000
0000
0100
0000
0000
0010
0000
0000
1000
0000
0001
0000
0010
0000
,  // measure 121
0001
1000
0010
0100
0001
1000
0100
0010
,  // measure 122
0001
0010
0100
1000
0001
0400
0000
0310
,  // measure 123
1000
0004
0000
1003
0100
0010
0100
2000
,  // measure 124
0000
0000
0000
0000
0000
0000
3001
0200
,  // measure 125
0000
0301
2000
0000
0000
0000
0000
3002
,  // measure 126
0000
1003
0010
0100
0001
0200
0000
0000
,  // measure 127
0000
0000
0000
0000
0000
0000
0000
0310
0000
0000
1000
0000
0002
0000
0000
0000
,  // measure 128
0000
0000
0000
1003
0100
0010
0100
1000
,  // measure 129
0001
0000
0200
0000
0000
0000
0000
0310
0000
0000
1000
0000
0002
0000
0000
0000
,  // measure 130
0000
0000
0000
0013
0100
1000
0004
0000
,  // measure 131
0000
0000
0000
1003
0010
1000
0200
0000
,  // measure 132
0000
0300
0000
0000
;

//---------------dance-single - Easy----------------
#NOTES:
     dance-single:
     Ace Of Hearts (2010):
     Easy:
     5:
     0.263,0.000,0.000,0.269,0.000: // measure 1
0000
0000
0000
0000
,  // measure 2
0000
0000
0000
0000
,  // measure 3
0000
0000
0000
0000
,  // measure 4
0000
0000
0000
0000
,  // measure 5
0000
0000
0000
0000
,  // measure 6
0004
0003
1000
1000
,  // measure 7
4000
3000
0010
0010
,  // measure 8
0040
0030
0100
0100
,  // measure 9
0400
0300
0100
0001
,  // measure 10
1000
0001
0000
1000
,  // measure 11
0010
1000
0000
0001
,  // measure 12
0100
0001
0000
1000
,  // measure 13
0100
1000
0000
0001
,  // measure 14
0010
0001
0000
1000
,  // measure 15
0001
1000
0000
0010
,  // measure 16
1000
0010
0000
1000
,  // measure 17
0001
1000
0000
0001
,  // measure 18
0100
0001
0000
4000
,  // measure 19
3000
0000
0001
0000
0000
0000
1000
0010
,  // measure 20
1000
0000
0010
0000
0000
0000
0100
0001
,  // measure 21
0100
0000
0001
0000
0000
0000
1000
0001
,  // measure 22
1000
0000
0001
0000
0000
0000
1000
0100
,  // measure 23
1000
0000
0100
0000
0000
0000
0010
0001
,  // measure 24
0010
0000
0001
0000
0000
0000
1000
0001
,  // measure 25
1000
0000
0001
0000
0000
0000
1000
0010
,  // measure 26
1000
0010
0000
0400
,  // measure 27
0000
0000
0000
0000
0000
0000
0000
0300
0000
0000
0000
0000
0001
0000
1000
0000
,  // measure 28
0001
0000
0200
0000
0300
0000
0001
0100
,  // measure 29
0001
0000
2000
0000
3000
0000
0100
1000
,  // measure 30
0100
0000
0020
0000
0030
0000
0001
1000
,  // measure 31
0001
0000
0200
0000
0300
0000
0010
1000
,  // measure 32
0010
0000
0200
0000
0300
0000
0001
1000
,  // measure 33
0001
0000
0020
0000
0030
0000
0100
1000
,  // measure 34
0100
0020
0030
0004
,  // measure 35
0000
0000
0000
0000
0000
0000
0000
0003
0000
0000
0000
0000
0000
0000
0000
0000
,  // measure 36
1000
0010
2000
0000
0000
0000
3001
0000
,  // measure 37
0010
0001
0020
0000
0000
0000
0130
0000
,  // measure 38
1000
0001
2000
0000
0000
0000
3010
0000
,  // measure 39
0100
0001
0200
0000
0000
0000
0310
0000
,  // measure 40
1000
0000
1000
0000
0000
0001
0000
0001
,  // measure 41
0000
0000
1000
0000
0000
0010
0000
0020
,  // measure 42
0000
0000
0000
0030
,  // measure 43
4000
0000
0000
3000
,  // measure 44
0001
0100
0002
0000
0000
0000
1003
0000
,  // measure 45
0010
1000
0020
0000
0000
0000
0130
0000
,  // measure 46
0001
1000
0002
0000
0000
0000
0013
0000
,  // measure 47
0100
1000
0200
0000
0000
0000
0310
0000
,  // measure 48
0001
0000
0001
0000
0000
1000
0000
0020
,  // measure 49
0000
0000
1030
0000
0000
0001
0000
0000
,  // measure 50
0002
0000
0000
4003
0000
0000
3000
0000
,  // measure 51
0000
0000
0010
1000
,  // measure 52
1000
1000
0001
0002
,  // measure 53
0000
0003
1000
1000
,  // measure 54
0010
0010
0100
0200
,  // measure 55
0000
0300
0001
1000
,  // measure 56
1000
0100
0100
0020
,  // measure 57
0000
0030
0001
1000
,  // measure 58
1000
1000
0000
2000
,  // measure 59
0000
3000
0001
0100
,  // measure 60
0100
0010
0010
2000
,  // measure 61
0000
3000
0001
0001
,  // measure 62
0010
0010
0000
0020
,  // measure 63
0000
0030
0001
1000
,  // measure 64
1000
0010
0010
0200
,  // measure 65
0000
0300
0001
0002
,  // measure 66
0000
0000
0000
0203
,  // measure 67
0000
0000
0000
0300
0000
0000
0002
0000
,  // measure 68
0000
0000
0000
1003
0000
0020
0000
0000
,  // measure 69
0000
0030
0000
0000
0000
0000
0200
0000
,  // measure 70
0000
0302
0000
0000
0000
0000
2003
0000
,  // measure 71
0000
3000
0000
0020
,  // measure 72
0000
0030
1000
0002
,  // measure 73
0000
0003
0200
0000
,  // measure 74
0302
0000
0000
0000
0000
4003
0000
3000
,  // measure 75
0000
0000
0100
100M
,  // measure 76
1000
1000
0000
M020
,  // measure 77
0000
0030
1000
1000
,  // measure 78
0001
0001
0100
0200
,  // measure 79
000M
0300
0010
1000
,  // measure 80
1000
0001
0001
2000
,  // measure 81
000M
3000
0010
0100
,  // measure 82
0100
02M0
0000
M302
,  // measure 83
0000
0003
1000
0100
,  // measure 84
0100
0010
0010
0002
,  // measure 85
0000
0003
1000
1000
,  // measure 86
0010
0010
0100
0200
,  // measure 87
0000
0300
0001
1000
,  // measure 88
1000
0100
0100
0020
,  // measure 89
0000
0030
0100
4000
,  // measure 90
0000
0000
3000
0002
,  // measure 91
0000
0003
0100
0010
,  // measure 92
0010
1000
1000
0002
,  // measure 93
0000
0003
1000
1000
,  // measure 94
0010
0010
0100
0200
,  // measure 95
0000
0300
0001
0100
,  // measure 96
0100
0010
0010
2000
,  // measure 97
0000
3000
0001
0010
,  // measure 98
0010
0100
0000
0200
,  // measure 99
0000
0300
0010
0001
,  // measure 100
0001
1000
1000
0020
,  // measure 101
0000
0030
1000
1000
,  // measure 102
0001
0001
0100
0200
,  // measure 103
0000
0300
0010
1000
,  // measure 104
1000
0001
0001
0020
,  // measure 105
0000
0030
0100
0400
,  // measure 106
0000
0000
0300
2000
,  // measure 107
0000
0000
3000
0000
,  // measure 108
0001
0000
1000
0010
1000
0000
0020
0000
,  // measure 109
1030
0000
0001
0010
0001
0000
2000
0000
,  // measure 110
3010
0000
1000
0001
1000
0000
0200
0000
,  // measure 111
0310
0000
0001
1000
0001
0000
0100
0000
,  // measure 112
0001
0000
1000
0010
1000
0000
0001
0000
,  // measure 113
0010
0000
0100
1000
0100
0000
0010
0000
,  // measure 114
0001
0000
1000
0100
1000
0000
0004
0000
,  // measure 115
0000
0000
0000
0000
0003
0000
1000
0010
,  // measure 116
1000
0000
0001
0000
0010
0000
0100
1000
,  // measure 117
0100
0000
0010
0000
0001
0000
1000
0001
,  // measure 118
1000
0000
0010
0000
1000
0000
0001
0100
,  // measure 119
0001
0000
1000
0000
0100
0000
0010
0001
,  // measure 120
0010
0000
0100
0000
1000
0000
0001
1000
,  // measure 121
0001
0000
0100
0000
0001
0000
1000
0010
,  // measure 122
1000
0000
0001
0000
0010
0004
0000
0003
,  // measure 123
0000
4000
0000
3000
0000
0000
0020
0000
,  // measure 124
0000
0000
0030
2000
,  // measure 125
0000
0000
3002
0000
0000
0000
0000
1003
,  // measure 126
0000
0000
0002
0000
0000
0203
0000
0000
,  // measure 127
0000
0000
0000
0300
0000
0000
0002
0000
,  // measure 128
0000
0000
1003
0020
,  // measure 129
0000
0000
0030
2000
,  // measure 130
0000
0000
3000
0400
,  // measure 131
0000
0000
0300
0000
1000
0001
0100
0000
;

//---------------dance-single - Novice----------------
#NOTES:
     dance-single:
     Ace Of Hearts (2010):
     Beginner:
     2:
     0.160,0.000,0.000,0.244,0.000: // measure 1
0000
0000
0000
0000
,  // measure 2
0000
0000
0000
0000
,  // measure 3
0000
0000
0000
0000
,  // measure 4
0000
0000
0000
0000
,  // measure 5
0000
0000
0000
0000
,  // measure 6
4000
3000
0000
0000
,  // measure 7
0004
0003
0000
0000
,  // measure 8
0400
0300
0000
0000
,  // measure 9
0040
0030
0000
2000
,  // measure 10
0000
0000
3000
0002
,  // measure 11
0000
0003
0000
1000
,  // measure 12
0000
1000
0000
1000
,  // measure 13
0000
0001
0000
0001
,  // measure 14
0000
0100
0000
0100
,  // measure 15
0000
0010
0000
0010
,  // measure 16
0000
1000
0000
1000
,  // measure 17
0000
0001
0000
0001
,  // measure 18
0000
0010
0000
0040
,  // measure 19
0030
0000
0000
0001
,  // measure 20
0000
0001
0000
1000
,  // measure 21
0000
1000
0000
0010
,  // measure 22
0000
0010
0000
1000
,  // measure 23
0000
1000
0000
0001
,  // measure 24
0000
0001
0000
0010
,  // measure 25
0000
0010
0000
0001
,  // measure 26
0000
0001
0000
4000
,  // measure 27
0000
3000
0000
0001
,  // measure 28
0001
0001
0000
1000
,  // measure 29
1000
1000
0000
0010
,  // measure 30
0010
0010
0000
0100
,  // measure 31
0100
0100
0000
0001
,  // measure 32
0001
0001
0000
1000
,  // measure 33
1000
1000
0000
0100
,  // measure 34
0100
0100
0000
0040
,  // measure 35
0000
0030
0000
0000
,  // measure 36
0001
0002
0000
0003
,  // measure 37
1000
2000
0000
3000
,  // measure 38
0010
0020
0000
0030
,  // measure 39
1000
2000
0000
3000
,  // measure 40
0000
0001
0000
0001
,  // measure 41
0000
0010
0000
0020
,  // measure 42
0000
0000
0000
0030
,  // measure 43
0004
0000
0003
0000
,  // measure 44
1000
2000
0000
3000
,  // measure 45
0010
0020
0000
0030
,  // measure 46
0100
0200
0000
0300
,  // measure 47
0001
0002
0000
0003
,  // measure 48
0000
1000
0000
1000
,  // measure 49
0000
0100
0000
0200
,  // measure 50
0000
0000
0000
0300
,  // measure 51
0000
0000
0000
0010
,  // measure 52
0000
0010
0000
0020
,  // measure 53
0030
0000
0000
0001
,  // measure 54
0000
0001
0000
0002
,  // measure 55
0003
0000
0000
1000
,  // measure 56
0000
1000
0000
2000
,  // measure 57
3000
0000
0000
0010
,  // measure 58
0000
0010
0000
0020
,  // measure 59
0000
0030
0000
1000
,  // measure 60
0000
1000
0000
2000
,  // measure 61
3000
0000
0000
0001
,  // measure 62
0000
0001
0000
0002
,  // measure 63
0003
0000
0000
0100
,  // measure 64
0000
0100
0000
0200
,  // measure 65
0300
0000
0000
0002
,  // measure 66
0000
0000
0000
2000
,  // measure 67
0000
3003
0000
2000
,  // measure 68
0000
3000
0000
0200
,  // measure 69
0000
0300
0000
0020
,  // measure 70
0000
0030
0000
0002
,  // measure 71
0000
0003
0000
2000
,  // measure 72
0000
3000
0000
0020
,  // measure 73
0000
0030
0000
1000
,  // measure 74
0000
1000
0000
2000
,  // measure 75
0000
3000
0000
0001
,  // measure 76
0000
0001
0000
0002
,  // measure 77
0003
0000
0000
0100
,  // measure 78
0000
0100
0000
0200
,  // measure 79
0300
0000
0000
0010
,  // measure 80
0000
0010
0000
0020
,  // measure 81
0030
0000
0000
1000
,  // measure 82
0000
1000
0000
2000
,  // measure 83
0000
3000
0000
0001
,  // measure 84
0000
0001
0000
0002
,  // measure 85
0003
0000
0000
0100
,  // measure 86
0000
0100
0000
0200
,  // measure 87
0300
0000
0000
0010
,  // measure 88
0000
0010
0000
0020
,  // measure 89
0030
0000
0000
4000
,  // measure 90
0000
3000
0000
0002
,  // measure 91
0000
0003
0000
0100
,  // measure 92
0000
0100
0000
0200
,  // measure 93
0300
0000
0000
0001
,  // measure 94
0000
0001
0000
0002
,  // measure 95
0003
0000
0000
1000
,  // measure 96
0000
1000
0000
2000
,  // measure 97
3000
0000
0000
0010
,  // measure 98
0000
0010
0000
0020
,  // measure 99
0000
0030
0000
1000
,  // measure 100
0000
1000
0000
2000
,  // measure 101
3000
0000
0000
0001
,  // measure 102
0000
0001
0000
0002
,  // measure 103
0003
0000
0000
0010
,  // measure 104
0000
0010
0000
0020
,  // measure 105
0030
0000
0000
0004
,  // measure 106
0000
0003
0000
2000
,  // measure 107
0000
0000
3000
0000
,  // measure 108
0000
0001
0001
0002
,  // measure 109
0003
1000
1000
2000
,  // measure 110
3000
0010
0010
0020
,  // measure 111
0030
1000
1000
2000
,  // measure 112
3000
0001
0001
0001
,  // measure 113
0000
0100
0100
0100
,  // measure 114
0000
0010
0010
0040
,  // measure 115
0000
0030
0000
0000
,  // measure 116
0000
1000
1000
2000
,  // measure 117
3000
0001
0001
0002
,  // measure 118
0003
0010
0010
0020
,  // measure 119
0030
0100
0000
0100
,  // measure 120
0000
1000
0000
1000
,  // measure 121
0000
0002
0000
0003
,  // measure 122
0000
0000
4000
0000
,  // measure 123
0000
3000
0000
0020
,  // measure 124
0000
0000
0030
0000
,  // measure 125
1000
2000
0000
3000
,  // measure 126
0001
0002
0000
0003
,  // measure 127
0000
0000
0000
0200
,  // measure 128
0000
0300
0001
0002
,  // measure 129
0000
0003
0000
2000
,  // measure 130
0000
0000
3000
0004
,  // measure 131
0000
0003
1000
0100
;
