#TITLE:Super Mario;
#SUBTITLE:;
#ARTIST:Hyadain;
#TITLETRANSLIT:;
#SUBTITLETRANSLIT:;
#ARTISTTRANSLIT:;
#GENRE:Silly J-Pop;
#CREDIT:Ace Of Hearts;
#BANNER:Super Mario - bn.png;
#BACKGROUND:Super Mario - bg.png;
#LYRICSPATH:;
#CDTITLE:Ace Of Hearts.png;
#MUSIC:Super Mario.ogg;
#OFFSET:1.040;
#SAMPLESTART:36.600;
#SAMPLELENGTH:12.000;
#SELECTABLE:YES;
#BPMS:0.000=140.000;
#STOPS:245.000=0.860
;
#BGCHANGES:2.333=Super Mario Hyadain Video.avi=1.000=0=0=1=====,
99999=-nosongbg-=1.000=0=0=0 // don't automatically add -songbackground-
;
#KEYSOUNDS:;

//---------------dance-single - Expert----------------
#NOTES:
     dance-single:
     Ace Of Hearts (2010):
     Challenge:
     10:
     0.919,0.435,0.223,1.000,0.873:
0000
0000
0000
0000
,
1000
0001
0100
0020
0000
1030
0002
0000
0103
0000
0120
0000
1030
0000
0002
0000
,
0013
0100
1000
0100
0010
0001
0010
0100
1000
0100
0010
0002
0000
0000
1003
0000
,
0020
0000
1030
0010
0100
0001
0100
0010
1000
0010
0100
0002
0000
0000
1003
0000
,
0200
0000
0310
0100
1000
0001
0100
0010
1000
0001
0100
0020
0000
0000
1030
0000
,
0001
0000
0020
0000
0130
1000
0001
0100
0020
0000
2030
0000
3002
0000
0203
0000
,
0310
1000
0001
0010
0100
1000
0100
0010
0001
1000
0010
0200
0000
0000
0301
0000
,
2000
0000
3100
0010
0001
1000
0010
1000
0100
0010
0001
2000
0000
0000
3001
0000
,
0200
0000
0310
1000
0001
0100
0010
1000
0010
0100
0001
0200
0000
0000
0310
0000
,
1000
0000
0002
0000
0000
1003
0100
0010
0002
0003
2001
0000
3200
0000
0300
0000
,
0020
0000
0000
0000
0032
0000
0000
1003
0010
0100
0000
0020
0000
0000
1030
0000
,
0001
0000
0010
0000
0100
0000
1000
0000
0001
0000
1000
0200
0000
0000
0300
0000
,
0020
0000
0000
0000
0230
0000
0000
1300
0001
0100
0000
0020
0000
0000
1030
0000
,
0002
0000
1003
0000
0001
0010
0100
2000
0000
0000
0000
0000
3000
0000
0100
0000
,
0020
0000
0000
0000
0230
0000
0000
1300
0001
0100
0000
0020
0000
1030
0000
0001
,
0020
0000
0031
0000
1000
0000
0010
0000
2000
0000
3001
0010
0000
0000
0000
0000
,
0002
0000
0000
0000
2003
0000
0000
3010
0100
0001
0000
2000
0000
0000
3100
0010
,
0001
0000
1000
0000
0001
0010
0100
2000
0000
3000
1002
0000
0203
0000
0300
0000
,
2001
0000
0000
0100
0000
0000
3010
0000
1002
0000
0000
0010
0000
0000
0103
0000
,
0010
0100
0010
0100
0020
0000
0030
1010
0000
0000
0000
0000
0000
0000
0000
0000
,
1002
0000
0000
0010
0000
0000
0103
0000
2001
0000
0000
0010
0000
0000
3100
0000
,
0010
0100
0010
0100
1100
0000
0000
0000
1000
0001
0100
0010
1000
0001
1000
0100
,
0020
0000
0000
0000
0032
0000
0000
0013
0100
2000
0000
3002
0000
0000
0103
0000
,
0010
0100
0001
0000
2000
0000
0000
3200
0000
0000
0300
0000
0000
0200
0000
1300
,
0002
0000
1003
0000
0100
0000
0010
0000
0200
0000
0000
1300
0002
0203
0000
0000
,
0310
1000
0001
0010
0001
1000
0010
0100
0001
1000
0100
0020
0000
0000
0130
0000
,
2000
0000
3001
0100
0010
0100
0001
1000
0100
0010
0100
2000
0000
0000
3001
0000
,
0020
0000
0031
1000
0010
1000
0001
0010
0100
0010
0001
2000
0000
0000
3010
0000
,
0200
0000
0301
1000
0010
0100
0010
1000
0001
0010
0100
0020
0000
0000
0031
0000
,
2000
0000
3020
0000
1030
0001
0100
0001
2000
0000
3020
0000
0230
0000
0302
0000
,
1003
0010
0100
0001
0100
0010
1000
0001
0010
0100
0010
0002
0000
0000
1003
0000
,
0020
0000
0130
0010
1000
0001
1000
0010
0100
0001
1000
0002
0000
0000
0013
0000
,
0200
0000
1300
0100
0010
0001
0010
0100
1000
0100
0010
0002
0000
0000
1003
0000
,
0020
0000
0130
0000
0001
0100
0010
0100
0002
0000
0203
0000
0320
0000
1030
0000
,
0M02
0000
0000
0000
M023
0000
0000
0130
200M
0000
3001
0200
00M0
0000
0310
0000
,
2M00
0000
3001
0000
M010
0000
0001
0000
01M0
0000
0001
1000
0M00
0000
0000
0000
,
010M
0000
0000
0000
M020
0000
0000
0031
1M00
0010
0000
0200
M000
0000
0301
1000
,
001M
1000
00M1
0010
010M
2100
3002
0003
,
0020
0000
0000
0000
0032
0000
0000
1003
0010
0100
0000
0002
0000
0000
1003
0000
,
0100
0000
0010
0000
0100
0000
1000
0000
0002
0000
0103
0010
0000
0000
0000
0000
,
2000
0000
0000
0000
3002
0000
0000
0103
0010
1000
0000
0002
0000
0000
0103
0000
,
0020
0000
1030
0000
0001
0010
0100
2000
0000
0000
3000
0000
0000
0000
0000
0000
,
2001
0000
0000
0100
0000
0000
3010
0000
1002
0000
0000
0100
0000
0000
0013
0000
,
0100
1000
0100
1000
0002
0000
0003
0101
0000
0000
0000
0000
0000
0000
0000
0000
,
1002
0000
0000
0100
0000
0000
0013
0000
2001
0000
0000
0100
0000
0000
3010
0000
,
0110
0000
1000
0000
1001
0000
0000
0000
0001
0100
0010
1000
0001
0010
0100
1000
,
0002
0000
0000
0000
0203
0000
0000
0301
1000
0100
0000
0020
0000
0000
0130
0000
,
1000
0100
0010
0000
0002
0000
0000
0203
0000
0000
0300
0000
0000
0000
0200
0000
,
0302
0000
1003
0000
0100
0000
0010
0000
0200
0000
0000
1300
0001
2000
0000
0000
,
3100
0010
0001
1000
0010
0100
0010
1000
,
0001
0010
0100
1000
0100
0010
0001
1000
,
0010
0100
0010
1000
0001
0010
0100
0010
,
0001
1000
0010
0100
0001
1000
0010
0100
,
0001
1000
0100
0010
0100
1000
0001
0100
,
0010
1000
0001
0010
0100
1000
0100
0010
,
0001
1000
0010
0100
0001
0010
0100
1000
,
0001
0100
0010
1000
0100
0010
0001
1000
,
0010
1000
0000
0002
0000
1003
0010
0000
0110
0000
0000
0000
1001
0000
0000
0000
,
0021
0000
0000
0230
0000
0000
1300
0000
0000
0001
0000
0200
0000
0310
1000
0000
,
1000
0000
0000
0000
0100
0000
0000
0000
0010
0000
0000
0000
0001
0000
0000
0000
0000
0000
1000
0000
0000
0010
0000
0000
0000
0000
0000
1000
0000
0000
0000
0000
0000
0001
0000
0000
0010
0000
0000
0100
0000
0000
0000
0000
0000
0000
0000
0000
,
1200
0000
0000
0320
0000
0000
0031
0000
0000
2000
0000
3010
0000
0100
0001
0000
,
1000
0000
0000
0000
0100
0000
0000
0000
0010
0000
0000
0000
0001
0000
0000
0000
0000
0000
M00M
0000
0000
0000
0000
0000
2000
0000
0000
0000
0000
0000
0000
0000
0000
0000
0000
0000
3020
0000
0000
0000
0000
0000
0000
0000
0000
1030
0000
0000
,
0001
0000
1000
0020
0000
0000
1030
0000
0001
0000
0010
0000
0100
0000
0010
0000
,
0001
0100
0010
2000
0000
0000
3000
0000
0020
0000
0000
0000
0230
0000
0000
0301
,
1000
0100
0000
0020
0000
0000
0130
0010
0001
0000
2000
0000
3001
0010
0100
2000
,
0000
3000
1020
0000
0230
0000
0300
0000
0120
0000
0000
1000
0000
0000
0130
0000
,
0210
0000
0000
1000
0000
0000
0301
0000
1000
0001
1000
0001
0020
0000
0030
0110
,
0000
0000
0000
0000
0000
0000
0000
0000
0120
0000
0000
1000
0000
0000
0130
0000
,
0210
0000
0000
0001
0000
0000
1300
0000
0001
0010
0100
0010
0001
0000
0000
0000
,
1000
0010
0100
0001
0100
0010
1000
0001
0010
0000
0000
0000
0200
0000
0000
1300
,
0001
0010
0000
0002
0000
0000
1003
0000
0010
1000
0100
0000
0020
0000
0000
0032
,
0000
0000
0000
0000
0003
0000
2000
3000
1010
0000
0010
0000
0100
0000
0001
0000
,
1000
0000
0000
0100
0010
0002
0000
0003
0101
0000
0100
0000
0010
0000
1000
0000
,
0001
0000
0000
0010
0100
2000
0000
3000
1001
0000
0001
0000
1000
0000
0001
0000
,
1000
0000
0000
0010
0100
0020
0000
0000
1030
0001
0010
0100
0010
0001
1000
0010
,
0100
0010
1000
0002
0000
0000
1003
0000
0200
0000
0310
0100
1000
0001
0100
0010
,
1000
0001
0100
0020
0000
0000
1030
0000
0002
0000
0013
0100
1000
0100
0010
0001
,
1000
0010
0100
0020
0000
0000
1030
0000
0200
0000
0310
0001
1000
0010
0100
0010
,
1000
0001
1000
0200
0000
0000
0310
0000
0001
0000
2000
0000
3010
0100
0010
1000
,
0002
0000
0023
0000
0230
0000
2300
0000
3001
0100
0010
0100
0001
1000
0100
0010
,
0100
1000
0001
0020
0000
0000
0031
0000
2000
0000
3010
0100
0010
1000
0001
1000
,
0100
0010
0001
2000
0000
0000
3001
0000
0200
0000
0310
1000
0001
0010
0100
1000
,
0100
0010
0001
2000
0000
0000
3001
0000
0011
0000
0020
0000
0000
0130
1000
0100
,
0020
0030
0012
0000
0203
0000
0300
0000
0000
0000
0000
0000
0000
0000
0000
0000
;

//---------------dance-single - Hard----------------
#NOTES:
     dance-single:
     Ace Of Hearts (2010):
     Hard:
     8:
     0.625,0.232,0.007,0.800,0.344:
0000
0000
0000
0000
,
0002
0000
0000
1003
0000
0000
0010
0000
1000
0000
0002
0000
0103
0000
0000
0000
,
0010
0000
1000
0000
0001
0000
0010
0000
0001
0000
1000
0020
0000
0000
0000
0000
,
1030
0000
0001
0000
0010
0000
0100
0000
1000
0000
0001
0200
0000
0000
0000
0000
,
0301
0000
1000
0000
0100
0000
1000
0000
0001
0000
0100
0020
0000
0000
0000
0000
,
1030
0002
0000
0013
0001
1000
0010
1000
,
0001
0000
0010
0000
0100
0000
0010
0000
0001
0000
1000
0020
0000
0000
0000
0000
,
1030
0000
0001
0000
0100
0000
0010
0000
1000
0000
0001
0020
0000
0000
0000
0000
,
0031
0000
1000
0000
0010
0000
0100
0000
0001
0000
1000
0020
0000
0000
0000
0000
,
0130
0002
0000
1003
0100
0010
0001
0000
,
2000
0000
0000
0000
3020
0000
0000
1030
0002
0000
0000
0103
0000
0000
0010
0000
,
0100
0000
0001
0000
1000
0000
0100
0000
0020
0000
0000
0130
0000
0000
0000
0000
,
0020
0000
0000
0000
0032
0000
0000
0000
1003
0010
0000
2000
0000
0000
3001
0000
,
0010
0000
0001
0000
1000
0000
0001
0100
0000
0000
0000
0000
0000
0000
0000
0000
,
0020
0000
0000
0000
2030
0000
0000
0000
3001
0010
0000
0002
0000
0000
1003
0000
,
0010
0000
0100
0000
0001
0000
1000
0000
0200
0000
0310
0001
0000
0000
0000
0000
,
2000
0000
0000
0000
3002
0000
0000
0000
1003
0010
0000
2000
0000
0000
3001
0000
,
0010
0000
0001
0000
1000
0000
0001
0100
0000
0000
0020
0000
1030
0000
0000
0000
,
0002
0000
0000
2003
0000
0000
3010
0000
2000
0000
0000
3002
0000
0000
0013
0000
,
0001
0000
1000
0000
0020
0000
0000
0130
0000
0000
0000
0000
0000
0000
0000
0000
,
0002
0000
0000
2003
0000
0000
3100
0000
2000
0000
0000
3002
0000
0000
0103
0000
,
0010
1000
0001
0000
0200
0000
0000
0000
,
0320
0000
0000
0000
2030
0000
0000
0000
3001
0010
0000
0002
0000
0000
1003
0000
,
0010
0000
1000
0000
0002
0000
0000
0203
0000
0000
0300
0000
0000
0000
0010
0000
,
1000
0000
0001
0000
0010
0000
0100
0000
1000
0000
0000
0001
2000
0000
0000
0000
,
3100
0000
0010
0000
0001
0000
1000
0000
0010
0000
0100
0002
0000
0000
0000
0000
,
1003
0000
0100
0000
0010
0000
0100
0000
1000
0000
0001
0200
0000
0000
0000
0000
,
0310
0000
1000
0000
0001
0000
0010
0000
0001
0000
1000
0020
0000
0000
0000
0000
,
1030
0000
0001
0000
0010
0000
0100
0000
1000
0000
0001
0020
0000
0000
0000
0000
,
0031
1000
0000
0010
0100
0001
1000
0100
,
0010
0000
0001
0000
0010
0000
0100
0000
1000
0000
0001
0200
0000
0000
0000
0000
,
0310
0000
0100
0000
0001
0000
1000
0000
0100
0000
0010
0002
0000
0000
0000
0000
,
1003
0000
0010
0000
0100
0000
0001
0000
1000
0000
0010
0200
0000
0000
0000
0000
,
0301
2000
0000
3100
0010
0001
1000
0000
,
0020
0000
0000
0000
0130
0000
0000
0000
0002
0000
1003
0010
0000
0000
1000
0000
,
0001
0000
0010
0000
0100
0000
0010
0000
0002
0000
0000
1003
0000
0000
0000
0000
,
0010
0000
0000
0000
0200
0000
0000
0000
0310
1000
0000
0002
0000
0000
1003
0000
,
0010
0100
0010
1000
0001
0020
0130
0000
,
0020
0000
0000
0000
0032
0000
0000
0000
1003
0010
0000
2000
0000
0000
3001
0000
,
0100
0000
0010
0000
1000
0000
0001
0000
0010
0000
0001
1000
0000
0000
0000
0000
,
0010
0000
0000
0000
2000
0000
0000
0000
3001
0010
0000
0002
0000
0000
0103
0000
,
0010
0000
1000
0000
0001
0000
1000
0100
0000
0000
0000
0000
0000
0000
0000
0000
,
0020
0000
0000
0032
0000
0000
0013
0000
0200
0000
0000
2300
0000
0000
3100
0000
,
0010
0000
0100
0000
0020
0000
0000
0031
0000
0000
0000
0000
0000
0000
0000
0000
,
2000
0000
0000
3020
0000
0000
1030
0000
0002
0000
0000
0203
0000
0000
0301
0000
,
0100
0010
0100
0000
0002
0000
0000
0000
,
2003
0000
0000
0000
3020
0000
0000
0000
1030
0001
0000
2000
0000
0000
3100
0000
,
0010
0000
0001
0000
0020
0000
0000
0230
0000
0000
0300
0000
0000
0000
0010
0000
,
0001
0000
1000
0000
0010
0000
1000
0000
0001
0000
0000
1000
0020
0000
0000
0000
,
0130
0001
1000
0100
,
0010
0001
0010
0100
1000
0000
0001
0000
,
0100
0010
1000
0001
,
1000
0010
0100
0001
1000
0000
0100
0000
,
0010
0100
1000
0001
,
0100
0010
1000
0010
0100
0000
0001
0000
,
1000
0010
1000
0001
,
0010
0100
1000
0100
0010
0000
0001
0000
,
1000
0000
0000
2000
0000
3001
0100
0000
0010
0000
0000
0000
1001
0000
0000
0000
,
0001
0000
0000
0010
0000
0000
0100
0000
0000
1000
0000
0001
0000
1000
0001
0000
,
1000
0000
0000
0000
0100
0000
0000
0000
0010
0000
0000
0000
0001
0000
0000
0000
0000
0000
1000
0000
0000
0010
0000
0000
0000
0000
0000
0100
0000
0000
0000
0000
0000
0001
0000
0000
1000
0000
0000
0000
0000
0000
0000
0000
0000
0000
0000
0000
,
0001
0000
0000
0010
0000
0000
0100
0000
0000
1000
0000
0001
0000
0100
0001
0000
,
1000
0100
0010
0001
0000
0000
2000
0000
0000
3010
0000
0000
,
0200
0000
0000
0301
0000
0000
1000
0000
0010
0000
1000
0000
0001
0000
0010
0000
,
0200
0000
0000
1300
0000
0000
0000
0000
0002
0000
0000
0000
0203
0000
0000
0000
,
0301
2000
0000
3100
0000
0000
0010
0000
0001
0000
1000
0000
0010
0000
1000
0001
,
0000
0000
0020
0000
0031
0000
0000
0000
2000
0000
0000
3002
0000
0000
1003
0000
,
0002
0000
0000
2003
0000
0000
3001
0000
0100
0000
0010
0000
0200
0000
0000
0301
,
0000
0000
0000
0000
0000
0000
0000
0000
0200
0000
0000
0320
0000
0000
0130
0000
,
0020
0000
0000
0230
0000
0000
0310
0000
0200
0000
0301
0000
1000
0000
0000
0000
,
0020
0000
2030
3002
,
1003
0010
0000
0200
0000
0000
0310
0000
1000
0000
0001
0000
0200
0000
0000
0320
,
0000
0030
0000
2000
3001
0010
0001
1000
,
0200
0000
0000
0310
0001
0020
0000
0000
0031
0000
1000
0000
0010
0000
1000
0000
,
0002
0000
0000
1003
0100
2000
0000
0000
3001
0000
1000
0000
0001
0000
1000
0000
,
0001
0000
0000
0010
0001
0020
0000
0000
0130
0000
1000
0000
0100
0000
0010
0000
,
0001
0000
1000
0002
0000
0000
0000
0000
1003
0000
0010
0000
0100
0000
0001
0000
,
1000
0000
0010
2000
0000
0000
0000
0000
3001
0000
0010
0000
0100
0000
0010
0000
,
0001
0000
1000
0200
0000
0000
0000
0000
0310
0000
0100
0000
1000
0000
0001
0000
,
0100
0000
0001
2000
0000
0000
0000
0000
3100
0000
0010
0000
0000
0000
0100
0000
,
1000
0001
0100
0010
1000
0001
0100
0010
,
1000
0000
0001
0020
0000
0000
0000
0000
0031
0000
1000
0000
0010
0000
0100
0000
,
0001
0000
1000
0002
0000
0000
0000
0000
1003
0000
0100
0000
0010
0000
0100
0000
,
1000
0000
0001
0200
0000
0000
0000
0000
0301
0000
2000
0000
0000
3001
0010
0001
,
0010
0002
1003
0000
0000
0000
0000
0000
;

//---------------dance-single - Medium----------------
#NOTES:
     dance-single:
     Ace Of Hearts (2010):
     Medium:
     6:
     0.391,0.174,0.000,0.320,0.087: // measure 1
0000
0000
0000
0000
,  // measure 2
0002
0000
0003
1000
0010
2000
3000
0000
,  // measure 3
0001
0010
0001
0000
1000
0000
1000
0000
,  // measure 4
0001
0100
0001
0000
0100
0000
0100
0000
,  // measure 5
0010
1000
0010
0000
0100
0000
0100
0000
,  // measure 6
0001
1000
0001
0000
0020
0000
0030
0000
,  // measure 7
0001
0010
0001
0000
1000
0000
1000
0000
,  // measure 8
0010
1000
0010
0000
0100
0000
0100
0000
,  // measure 9
0001
0100
0001
0000
1000
0000
1000
0000
,  // measure 10
0000
0002
0000
1003
0010
1000
0010
0000
,  // measure 11
1000
0001
1000
0010
,  // measure 12
1000
0001
1000
0000
0020
0000
0030
0000
,  // measure 13
0100
0010
0100
0001
,  // measure 14
1000
0010
2000
3000
0000
0000
0000
0000
,  // measure 15
0001
0100
0001
1000
,  // measure 16
0001
0010
0001
0000
1000
0000
0000
0000
,  // measure 17
0010
1000
0001
1000
,  // measure 18
0001
0100
0002
0003
0000
0000
0000
0000
,  // measure 19
0010
0000
0000
0010
0000
0000
0000
0000
0100
0000
0000
0100
0000
0000
0000
0000
,  // measure 20
1000
0000
0001
0000
2000
0000
0000
3000
0000
0000
0000
0000
0000
0000
0000
0000
,  // measure 21
0010
0000
0000
0010
0000
0000
0000
0000
0100
0000
0000
0100
0000
0000
0000
0000
,  // measure 22
0001
1000
0001
0000
0000
0000
0000
0000
,  // measure 23
0020
0000
0000
0000
0032
0000
0000
0000
1003
0000
0000
1000
0000
0000
0000
0000
,  // measure 24
0010
0000
1000
0000
0010
0000
0000
0200
0000
0000
0000
0000
0300
0000
0000
0000
,  // measure 25
0001
1000
0001
0000
0010
0000
0002
0000
,  // measure 26
1003
0010
1000
0000
0001
0000
0020
0000
,  // measure 27
0031
1000
0001
0000
1000
0000
0200
0000
,  // measure 28
0310
0001
0010
0000
0001
0000
2000
0000
,  // measure 29
3010
1000
0010
0000
0100
0000
0002
0000
,  // measure 30
1003
0010
0000
0000
1000
0001
1000
0000
,  // measure 31
0001
0010
0001
0000
1000
0000
0020
0000
,  // measure 32
1030
0010
1000
0000
0001
0000
0200
0000
,  // measure 33
0301
1000
0001
0000
0010
0000
0002
0000
,  // measure 34
1003
0200
0000
0310
0001
0010
0001
0000
,  // measure 35
1000
0010
1000
0001
,  // measure 36
0100
0001
0100
0000
0020
0000
0030
0000
,  // measure 37
1000
0001
0010
0001
,  // measure 38
1000
0100
2000
3000
0000
0002
0103
0000
,  // measure 39
0010
0100
0001
1000
,  // measure 40
0001
0010
0001
0000
1000
0000
0010
0000
,  // measure 41
0100
0001
1000
0001
,  // measure 42
0010
0001
0020
0030
0000
0000
0000
0000
,  // measure 43
0001
0000
0000
0001
0000
0000
0000
0000
1000
0000
0000
1000
0000
0000
0000
0000
,  // measure 44
0010
0000
0100
0000
0020
0000
0000
1030
0000
0000
0000
0000
0000
0000
0000
0000
,  // measure 45
0001
0000
0000
0001
0000
0000
0000
0000
1000
0000
0000
1000
0000
0000
0000
0000
,  // measure 46
0010
0100
0010
0000
0000
0000
0000
0000
,  // measure 47
2000
0000
0000
0000
3002
0000
0000
0000
2003
0000
0000
3010
0000
0000
0000
0000
,  // measure 48
1000
0000
0001
0000
2000
0000
0000
3100
0000
0000
0000
0000
0000
0000
0000
0000
,  // measure 49
0010
0001
0010
0000
0001
0000
2000
0000
,  // measure 50
3200
0000
0300
0000
,  // measure 51
0010
0001
1000
0000
,  // measure 52
0020
0000
0030
0000
,  // measure 53
1000
0001
0100
0000
,  // measure 54
0002
0000
0003
0000
,  // measure 55
1000
0100
0010
0000
,  // measure 56
0200
0000
0300
0000
,  // measure 57
1000
0001
0100
0000
,  // measure 58
0010
0000
0000
0010
0000
0000
1000
0000
0001
0000
0000
0000
0010
0000
0000
0000
,  // measure 59
0001
0000
0000
1000
0000
0000
0001
0000
0000
0000
0000
0000
0010
0000
0000
0000
,  // measure 60
0100
0100
1000
1000
,  // measure 61
0001
0000
0000
0010
0000
0000
0100
0000
0000
0000
1000
0000
0001
0000
0000
0000
,  // measure 62
1000
0001
1000
0001
0000
0000
1000
0000
0000
0010
0000
0000
,  // measure 63
0100
0000
0001
0000
1000
0100
1000
0000
,  // measure 64
0001
0100
0010
0100
,  // measure 65
0001
0000
1000
0000
0001
0010
0002
0003
,  // measure 66
0000
0000
2000
0000
3100
0000
0000
0000
0010
0000
0000
0010
0000
0000
0000
0000
,  // measure 67
0100
0000
0000
0100
0000
0000
0000
0000
1000
0000
0001
0000
2000
0000
0000
3001
,  // measure 68
0000
0000
0000
0000
0000
0000
0000
0000
1000
0000
0000
1000
0000
0000
0000
0000
,  // measure 69
0001
0000
0000
0001
0000
0000
0000
0000
0010
0000
0100
0000
0010
0000
0000
0000
,  // measure 70
0000
0000
0002
2003
,  // measure 71
3200
0000
0000
0310
0000
0000
0000
0000
0001
0000
1000
0000
0002
0000
0000
0103
,  // measure 72
0000
0000
0000
0000
0010
1000
0010
0000
,  // measure 73
1000
0000
0002
0000
0013
0001
0010
0000
,  // measure 74
0100
0000
2000
0000
3001
1000
0001
0000
,  // measure 75
1000
0000
0020
0000
0130
0001
0100
0000
,  // measure 76
0010
0000
1000
0000
0001
1000
0001
0000
,  // measure 77
0010
0000
0010
0000
0100
1000
0100
0000
,  // measure 78
0010
0000
0010
0000
0001
0010
0000
0000
,  // measure 79
0100
1000
0100
0000
1000
0001
1000
0000
,  // measure 80
0010
0000
1000
0000
0001
0100
0001
0000
,  // measure 81
1000
0000
0010
0000
1000
0001
1000
0000
,  // measure 82
0010
0000
0100
0000
0010
1000
0010
0000
,  // measure 83
0100
0000
0001
0000
1000
0020
0000
1030
,  // measure 84
0001
2000
3100
0000
0000
0000
0000
0000
;

//---------------dance-single - Easy----------------
#NOTES:
     dance-single:
     Ace Of Hearts (2010):
     Easy:
     4:
     0.244,0.087,0.000,0.174,0.000: // measure 1
0000
0000
0000
0000
,  // measure 2
0002
0003
0001
0000
,  // measure 3
1000
1000
1000
0000
,  // measure 4
0001
0001
0001
0000
,  // measure 5
0100
0100
0100
0000
,  // measure 6
0020
0000
0030
0000
,  // measure 7
1000
1000
1000
0000
,  // measure 8
0001
0001
0001
0000
,  // measure 9
0010
0010
0010
0000
,  // measure 10
0100
0000
0010
0010
,  // measure 11
0001
0001
0001
0000
,  // measure 12
1000
1000
1000
0000
,  // measure 13
0010
0010
0100
0100
,  // measure 14
0001
0001
0001
0000
,  // measure 15
1000
1000
0010
0010
,  // measure 16
0100
0100
0100
0000
,  // measure 17
0001
0001
1000
1000
,  // measure 18
0100
0100
0100
0000
,  // measure 19
2000
3000
0002
0003
,  // measure 20
0200
0000
0300
0000
,  // measure 21
0002
0003
2000
3000
,  // measure 22
0020
0030
0000
0000
,  // measure 23
1000
1000
1000
0000
,  // measure 24
0010
0010
0010
0000
,  // measure 25
0100
0100
0100
0001
,  // measure 26
1000
1000
1000
0000
,  // measure 27
0100
0100
0100
0000
,  // measure 28
0010
0010
0010
0000
,  // measure 29
0001
0001
0001
0000
,  // measure 30
2000
0000
3000
0000
,  // measure 31
0010
0010
0010
0000
,  // measure 32
0100
0100
0100
0000
,  // measure 33
0001
0001
0001
0000
,  // measure 34
1000
0000
0010
0010
,  // measure 35
1000
1000
0001
0001
,  // measure 36
0010
0010
0010
0000
,  // measure 37
0001
0001
1000
1000
,  // measure 38
0010
0010
0010
0000
,  // measure 39
1000
1000
0001
0001
,  // measure 40
0010
0010
0010
0000
,  // measure 41
0001
0001
1000
1000
,  // measure 42
0010
0010
0010
0000
,  // measure 43
2000
3000
0002
0003
,  // measure 44
0200
0000
0300
0000
,  // measure 45
0002
0003
2000
3000
,  // measure 46
0020
0030
0000
0000
,  // measure 47
0100
0100
0100
0000
,  // measure 48
0001
0001
0001
0000
,  // measure 49
1000
1000
1000
0010
,  // measure 50
0010
0000
0000
0000
,  // measure 51
1000
0000
0000
0000
,  // measure 52
0001
0000
1000
0000
,  // measure 53
0001
0000
0000
0000
,  // measure 54
0010
0000
0000
0000
,  // measure 55
0001
0000
0000
0000
,  // measure 56
1000
0000
0010
0000
,  // measure 57
1000
0000
0000
0000
,  // measure 58
0002
0003
0001
0000
,  // measure 59
2000
0000
3000
0010
,  // measure 60
1000
1000
0001
0001
,  // measure 61
2000
0000
3000
0010
,  // measure 62
0010
0010
1000
1000
,  // measure 63
0001
0001
0100
0100
,  // measure 64
0100
0000
0010
0010
,  // measure 65
1000
1000
0001
0001
,  // measure 66
0001
0000
0020
0030
,  // measure 67
0200
0300
0020
0000
,  // measure 68
0030
0000
0200
0300
,  // measure 69
0020
0030
0200
0000
,  // measure 70
0300
0000
1000
1000
,  // measure 71
1000
0000
0001
0001
,  // measure 72
0001
0000
0010
0010
,  // measure 73
0010
0100
1000
1000
,  // measure 74
1000
0001
1000
1000
,  // measure 75
1000
0100
0100
0100
,  // measure 76
0100
0000
0010
0010
,  // measure 77
0010
0000
0001
0001
,  // measure 78
0001
0000
1000
1000
,  // measure 79
1000
0000
0002
0000
,  // measure 80
0003
0000
1000
1000
,  // measure 81
1000
0000
0100
0100
,  // measure 82
0100
0000
0010
0010
,  // measure 83
0010
0000
0001
0000
,  // measure 84
1000
1000
0000
0000
;

//---------------dance-single - Novice----------------
#NOTES:
     dance-single:
     Ace Of Hearts (2010):
     Beginner:
     2:
     0.151,0.058,0.000,0.306,0.000: // measure 1
0000
0000
0000
0000
,  // measure 2
0002
0000
0003
0000
,  // measure 3
2000
0000
3000
0000
,  // measure 4
0020
0000
0030
0000
,  // measure 5
2000
0000
3000
0000
,  // measure 6
0002
0000
0003
0000
,  // measure 7
0020
0000
0030
0000
,  // measure 8
0002
0000
0003
0000
,  // measure 9
2000
0000
3000
0000
,  // measure 10
0020
0000
0030
0000
,  // measure 11
1000
0000
1000
0000
,  // measure 12
2000
0000
3000
0000
,  // measure 13
0100
0000
0100
0000
,  // measure 14
0200
0000
0300
0000
,  // measure 15
1000
0000
1000
0000
,  // measure 16
2000
0000
3000
0000
,  // measure 17
0001
0000
0001
0000
,  // measure 18
0002
0000
0003
0000
,  // measure 19
0010
0000
0010
0000
,  // measure 20
0010
0000
0000
0000
,  // measure 21
0100
0000
0100
0000
,  // measure 22
0100
0000
0000
0000
,  // measure 23
1000
0000
1000
0000
,  // measure 24
2000
0000
3000
0000
,  // measure 25
0001
0000
0001
0000
,  // measure 26
0002
0000
0003
0000
,  // measure 27
0020
0000
0030
0000
,  // measure 28
0002
0000
0003
0000
,  // measure 29
2000
0000
3000
0000
,  // measure 30
0020
0000
0030
0000
,  // measure 31
0200
0000
0300
0000
,  // measure 32
0002
0000
0003
0000
,  // measure 33
2000
0000
3000
0000
,  // measure 34
0200
0000
0300
0000
,  // measure 35
0010
0000
0010
0000
,  // measure 36
0020
0000
0030
0000
,  // measure 37
0001
0000
0001
0000
,  // measure 38
0002
0000
0003
0000
,  // measure 39
1000
0000
1000
0000
,  // measure 40
2000
0000
3000
0000
,  // measure 41
0010
0000
0010
0000
,  // measure 42
0020
0000
0030
0000
,  // measure 43
1000
0000
1000
0000
,  // measure 44
1000
0000
0000
0000
,  // measure 45
0001
0000
0001
0000
,  // measure 46
0001
0000
0000
0000
,  // measure 47
0010
0000
0010
0000
,  // measure 48
0020
0000
0030
0000
,  // measure 49
0100
0000
0100
0000
,  // measure 50
0100
0000
0000
0000
,  // measure 51
0010
0000
0000
0000
,  // measure 52
0001
0000
0000
0000
,  // measure 53
1000
0000
0000
0000
,  // measure 54
0010
0000
0000
0000
,  // measure 55
1000
0000
0000
0000
,  // measure 56
0001
0000
0000
0000
,  // measure 57
1000
0000
0000
0000
,  // measure 58
0002
0000
0003
0000
,  // measure 59
2000
0000
3000
0000
,  // measure 60
0100
0000
0100
0000
,  // measure 61
0200
0000
0300
0000
,  // measure 62
0020
0030
0001
0000
,  // measure 63
0001
0000
0002
0000
,  // measure 64
0003
0000
0100
0000
,  // measure 65
0100
0000
0200
0000
,  // measure 66
0300
0000
0010
0000
,  // measure 67
0010
0000
0010
0000
,  // measure 68
0000
0000
0100
0000
,  // measure 69
0100
0000
0100
0000
,  // measure 70
0000
0000
0001
0000
,  // measure 71
0001
0000
0002
0000
,  // measure 72
0003
0000
1000
0000
,  // measure 73
1000
0000
0001
0000
,  // measure 74
0001
0000
0100
0000
,  // measure 75
0100
0000
0200
0000
,  // measure 76
0300
0000
0020
0000
,  // measure 77
0030
0000
2000
0000
,  // measure 78
3000
0000
0002
0000
,  // measure 79
0003
0000
2000
0000
,  // measure 80
3000
0000
0200
0000
,  // measure 81
0300
0000
0020
0000
,  // measure 82
0030
0000
0002
0000
,  // measure 83
0003
0000
0020
0000
,  // measure 84
0030
0000
0000
0000
;
