#TITLE:My Soul, Your Beats!;
#SUBTITLE:-Rock Mix-;
#ARTIST:Girls Dead Monster;
#TITLETRANSLIT:;
#SUBTITLETRANSLIT:;
#ARTISTTRANSLIT:;
#GENRE:J-Rock;
#CREDIT:Ace Of Hearts;
#BANNER:My Soul, Your Beats -Rock Mix- bn.png;
#BACKGROUND:My Soul, Your Beats -Rock Mix- bg.jpg;
#LYRICSPATH:;
#CDTITLE:Ace Of Hearts.png;
#MUSIC:My Soul, Your Beats! -Rock Mix-.ogg;
#OFFSET:0.280;
#SAMPLESTART:55.900;
#SAMPLELENGTH:12.000;
#SELECTABLE:YES;
#BPMS:0.000=145.000;
#STOPS:;
#BGCHANGES:0.500=My Soul Your Beats -Rock Mix- Video.avi=1.000=0=0=0=StretchNoLoop====,
99999=-nosongbg-=1.000=0=0=0 // don't automatically add -songbackground-
;
#KEYSOUNDS:;

//---------------dance-single - Expert----------------
#NOTES:
     dance-single:
     Ace Of Hearts (2010):
     Challenge:
     9:
     0.757,0.059,0.390,0.564,0.406: // measure 1
0000
0000
0000
0000
,  // measure 2
0000
0000
0000
0000
0000
0000
0000
0000
0000
0000
0000
0000
0000
0000
0001
0010
,  // measure 3
0210
0000
0000
0000
2300
0000
0000
0000
3002
0000
0000
0003
0201
0000
0000
0000
,  // measure 4
0010
0000
0000
0000
0310
0000
0000
0000
0010
0000
0000
0000
0010
0000
1000
0001
,  // measure 5
0021
0000
0000
0000
0230
0000
0000
0000
2300
0000
0000
3000
1002
0000
0000
0000
,  // measure 6
0013
0000
0000
0000
0000
0000
0100
0000
0000
1000
0000
0000
0001
0000
0000
0000
0000
0000
1000
0000
0000
0000
0000
0000
0100
0000
0000
0000
0010
0000
0000
0000
0001
0000
0000
0000
1000
0000
0000
0000
0010
0000
0000
0000
1000
0000
0000
0000
,  // measure 7
1002
2003
3200
0320
,  // measure 8
0032
0000
0000
0000
0000
0000
0000
0000
0103
0000
0010
1000
0001
0010
0100
1000
,  // measure 9
1002
0000
2003
3010
0100
0001
0020
0000
,  // measure 10
0000
0000
0000
0000
,  // measure 11
0000
0000
0000
0000
,  // measure 12
0100
0000
0001
0000
,  // measure 13
1000
0000
0000
0000
0100
0000
0000
0030
,  // measure 14
1001
0000
1000
0010
0100
0000
0001
0000
2000
0000
3110
0000
0011
0000
0001
0000
,  // measure 15
1001
0000
1000
0000
0010
0000
0400
0000
0000
0000
0301
1000
0100
0000
0010
0000
,  // measure 16
0100
0000
1000
0001
0100
0000
0020
0000
1000
0000
1030
0000
0001
0000
0100
0000
,  // measure 17
0010
1000
0001
0000
0010
0000
0200
0000
1300
0000
0001
0000
0040
0000
0100
0000
,  // measure 18
0130
1000
0001
0000
0100
0000
0010
0100
0001
0000
1000
0000
0010
1000
0001
0010
,  // measure 19
0200
0000
1300
0001
0100
0000
0010
0000
1000
0010
0100
0000
0001
0000
1000
0000
,  // measure 20
0002
1000
1003
1020
0000
0130
0201
0310
,  // measure 21
2010
0000
3001
1000
0100
0000
0010
0000
0001
1000
0010
0000
2000
0000
0000
0000
,  // measure 22
0000
0000
0000
3001
0100
0110
1010
1000
,  // measure 23
0001
0010
0100
0000
0010
0000
0002
0000
0000
0000
1003
0000
0010
1000
0100
0000
,  // measure 24
0010
0001
1000
0020
1000
1030
0100
0010
,  // measure 25
0001
1000
0010
0000
0100
0000
0002
0000
1003
0000
0100
0000
0040
0000
0000
0000
,  // measure 26
0001
0000
0031
0000
1000
0000
0001
1000
0010
0000
1000
0000
0001
0010
0100
0000
,  // measure 27
2100
0000
3001
0100
0010
0000
1000
0000
0100
0010
0001
0000
1000
0000
0010
0000
,  // measure 28
0210
0001
0301
1000
0100
0010
0001
1000
,  // measure 29
1020
0000
0130
0001
1000
0000
0100
0000
0010
0000
0001
0000
0010
0000
0100
0000
,  // measure 30
1100
0000
1000
0000
0001
0000
0101
0000
0100
0000
0010
0000
1000
0001
0010
0100
,  // measure 31
1000
0001
0100
0000
0010
1000
0001
0010
0100
1000
0001
0100
0020
0000
0000
0000
,  // measure 32
0430
0000
0000
0000
0000
0000
0000
0000
0300
0000
0000
0000
0002
0000
1003
0100
,  // measure 33
0010
0000
0001
0000
0000
0000
1001
0000
1000
0000
0010
0100
0001
0000
1000
0000
,  // measure 34
1100
0100
0010
0011
0001
1000
1010
0010
,  // measure 35
0100
0001
1000
0000
0100
0000
0020
0000
0130
0000
1000
0000
0001
0010
0100
0000
,  // measure 36
1000
0000
0010
1000
0001
0000
0021
0000
0000
0000
0130
0000
1000
0001
0100
0000
,  // measure 37
0010
1000
0001
0000
0100
0000
0010
0000
1000
0000
0100
0010
0001
0000
2000
0000
,  // measure 38
3010
0100
0001
0000
1000
0000
0001
0100
0010
0000
1000
0001
0100
0010
4010
0000
,  // measure 39
0000
0000
3001
0010
0001
0100
0010
1000
,  // measure 40
0002
0013
0100
0010
0001
1000
0020
0130
,  // measure 41
0001
1000
0040
0000
0000
0000
0000
0000
1030
0000
0001
0000
0010
0000
0100
0000
,  // measure 42
0120
0000
0031
1000
0010
0000
0100
0000
0001
1000
0100
0010
0100
1000
0001
0100
,  // measure 43
0010
1000
0001
0000
0010
0000
0200
0000
0000
0000
1300
0001
0100
0000
0020
0000
,  // measure 44
1030
0000
0001
1000
0010
0000
2000
0000
0000
0000
3001
0000
0100
0000
0010
0000
,  // measure 45
1000
0001
0010
0000
0100
0000
2000
0000
0001
0000
3001
0000
0010
0000
0210
0000
,  // measure 46
1300
0000
0001
0100
0010
0000
1000
0010
0100
0001
0100
0010
1000
0010
0400
0000
,  // measure 47
0000
0000
0301
1000
0100
1000
0010
0100
,  // measure 48
0101
0001
4000
0000
3010
0100
0001
0010
,  // measure 49
0100
1000
0001
0100
0010
1000
0001
0010
0100
0000
0010
0001
1000
0010
0100
0010
,  // measure 50
1010
2000
3001
0201
,  // measure 51
0000
0310
2010
0000
3100
0010
0001
0100
,  // measure 52
0110
0000
0020
0000
1030
0001
0201
0000
,  // measure 53
0000
0000
0000
0310
0000
0000
1010
0000
0000
0000
0000
0000
1000
0000
0100
0000
0010
0000
0001
0000
1000
0000
0010
0000
,  // measure 54
0110
0000
0200
0000
0301
2000
0020
0000
,  // measure 55
0000
0000
0000
0000
0030
0000
0000
3000
;

//---------------dance-single - Hard----------------
#NOTES:
     dance-single:
     Ace Of Hearts (2010):
     Hard:
     8:
     0.545,0.059,0.033,0.564,0.065:
0000
0000
0000
0000
,
0000
0000
0000
0000
0000
0000
0000
0000
0000
0000
0000
0000
0000
0000
1000
0001
,
2000
3020
2030
3002
,
0000
0000
0000
0000
0000
0000
0000
0000
0003
0000
0000
0000
0000
0000
0100
0001
,
2000
3002
0023
0230
,
0000
0000
1300
0000
0002
0000
0000
0000
1003
0000
0010
0000
0100
0000
0001
1000
,
0200
0320
0032
2003
,
3020
0000
0000
0000
0000
0000
0000
0000
1030
0000
0000
0000
0001
0000
0010
0100
,
2000
3002
0203
0320
,
0000
0000
0000
0000
,
0000
0000
0000
0000
,
0100
0000
1000
0000
,
0100
0000
1000
0030
,
1001
0000
0001
0100
0010
1000
1000
0001
,
0010
0001
1000
0040
0000
1030
0001
0010
,
0100
0010
0001
2000
0000
0000
3000
0010
,
0100
0001
1000
0020
1030
0001
4000
0000
,
0000
3010
0100
0001
0010
0100
1000
0001
,
0200
0000
0301
0000
2000
3100
0010
0000
,
0400
0000
0000
1300
0000
0000
0002
0000
,
0203
0310
1000
0000
0001
1000
0020
0000
,
0000
1030
0010
0100
0000
0001
1000
0010
,
0100
0001
1000
0040
0000
1030
0001
0010
,
0100
0010
0001
4000
0000
0000
3000
0010
,
1000
0001
0010
0100
1000
0001
0040
0000
,
0000
0031
1000
0010
0100
0000
0010
1000
,
0001
0100
0010
0000
0100
0001
1000
0000
,
0400
0000
0000
0310
0000
0001
1000
0010
,
1000
0001
0010
0000
0001
1000
0010
0000
,
1000
0000
0100
0000
0010
0000
0100
0000
1000
0000
0001
0000
1000
0010
1000
0000
,
0001
0020
0000
0130
1000
0001
1000
0010
,
0400
0000
0000
0300
0000
0000
0002
0000
,
0023
0230
0000
1300
0001
0100
0010
1000
,
0002
0013
0100
2000
0000
3001
0100
0010
,
1000
0001
0010
0002
1003
0010
1000
0002
,
0013
0100
1000
0002
0000
0103
0010
1000
,
0001
0010
0100
2000
3001
0100
0010
0200
,
0301
0000
1000
0000
0010
0000
2000
0000
3001
0000
0010
0000
0100
1000
0400
0000
,
0000
0000
0310
0000
0001
1000
0010
1000
,
0001
0010
0100
1000
0001
0100
0010
1000
,
0001
0040
0000
0030
0000
0001
1000
0010
,
2000
0000
3001
0010
0001
0000
1000
0000
0020
0000
0000
0000
1030
0001
1000
0000
,
0010
0100
0001
2000
3100
0010
0001
0200
,
0310
1000
0001
2000
0000
3010
1000
0001
,
0020
0130
1000
0002
0103
0010
1000
0002
,
0013
0000
0100
0000
2000
0000
3001
0000
0100
0000
0010
0000
1000
0001
4000
0000
,
0000
0000
3010
0000
1000
0100
0010
0001
,
1000
0010
0400
0000
0310
1000
0001
0040
,
0000
0000
0000
0000
0000
0000
0000
0000
0031
0000
1000
0010
1000
0000
0001
0000
,
0020
0130
1000
1002
,
0000
1003
0010
0000
1000
0100
0010
0001
,
2000
3010
0100
0102
,
0000
0000
0000
1003
0000
0000
0100
0000
0000
0000
0000
0000
1000
0000
0001
0000
1000
0000
0001
0000
0000
0100
0000
0000
,
0010
1000
0002
0000
1003
0000
0020
0000
,
0000
0000
0000
0000
0000
0000
0000
0030
;

//---------------dance-single - Medium----------------
#NOTES:
     dance-single:
     Ace Of Hearts (2010):
     Medium:
     6:
     0.362,0.030,0.011,0.650,0.000:
0000
0000
0000
0000
,
0000
0000
0000
0000
0000
0000
0000
1000
,
0020
2030
3002
0203
,
0000
0000
0000
0000
0300
0000
0000
0001
,
2000
3002
0023
0230
,
0000
0000
0310
0000
0001
0000
1000
0001
,
0200
0320
2030
3002
,
0023
0000
0000
0000
0130
0000
1000
0001
,
2000
3020
0230
0302
,
0000
0000
0000
0000
,
0000
0000
0000
0000
,
1000
0000
1000
0000
,
1000
0000
1000
0003
,
1001
0000
1000
0000
0001
0010
0001
0000
,
1000
0010
1000
0002
0000
0003
1000
0010
,
1000
0001
0000
2000
0000
3000
0000
0000
,
0001
0100
0001
1000
0000
0000
0040
0000
,
0000
0030
0000
0000
0000
0000
0000
1000
,
0002
0013
0002
1003
,
0400
0000
0000
0300
0000
0000
0010
0000
,
0002
1003
0010
2000
,
0000
0000
3000
0000
0000
0001
0100
0000
,
0001
1000
0010
2000
0000
3000
0001
0010
,
0001
1000
0000
0004
0000
0000
0003
0000
,
0100
0001
0100
0010
0000
0000
4000
0000
,
0000
3000
0000
0000
0000
0000
0000
0001
,
0020
0031
2000
3010
,
0400
0000
0000
0300
0000
0000
0002
0000
,
2003
3010
1000
0001
,
0020
0000
0030
0002
,
1003
0020
0000
1030
0000
0001
0020
0000
,
0200
0000
0000
0330
0000
0000
0020
0000
,
0031
1000
0000
0010
0000
1000
0002
0000
,
0020
0000
0000
0033
0000
0001
1000
0000
,
0010
1000
0001
2000
0000
0000
3001
0020
,
0000
0000
0031
2000
0000
0000
3000
0000
,
0010
1000
0001
0200
0000
0000
0301
2000
,
0000
0000
3001
0020
0000
0000
0031
4000
,
0000
3000
0000
0000
,
0020
0000
0000
0000
0030
1000
0001
0010
,
0001
4000
0000
3000
0000
0001
0100
0001
,
2000
3001
0020
0031
,
2000
0000
3001
0200
0000
0000
0301
2000
,
0000
0000
3100
0020
0000
0000
0030
0000
,
0001
1000
0100
2000
0000
0000
3001
0020
,
0000
0000
0031
2000
0000
0000
3001
0200
,
0000
0000
0300
0000
0000
0000
0000
0010
,
0100
0010
2000
0000
0000
0000
3001
0040
,
0000
0000
0000
0000
0030
0000
0000
0001
,
2000
3010
1000
0002
,
0000
0000
0000
0000
0003
0000
0000
0010
,
0200
1300
0001
2000
,
0000
0000
0000
0000
3000
0000
0000
0001
,
2000
3010
1000
0002
,
0000
0000
0000
0000
0000
0000
0000
0003
;

//---------------dance-single - Easy----------------
#NOTES:
     dance-single:
     Ace Of Hearts (2010):
     Easy:
     3:
     0.215,0.000,0.011,0.195,0.000:
0000
0000
0000
0000
,
0000
0000
0000
0000
,
0001
0001
0001
0002
,
0000
0000
0003
0000
,
1000
1000
1000
2000
,
0000
0000
3000
0000
,
0010
0010
0010
0010
,
0020
0000
0030
0000
,
1000
1000
1000
2000
,
0000
0000
0000
0000
,
0000
0000
0000
0000
,
0001
0000
0001
0000
,
0001
0000
3001
0000
,
1001
0000
0000
0000
,
0001
0001
0001
0100
,
0100
0100
0100
0000
,
0010
0010
0010
0020
,
0000
0030
0000
0000
,
1000
1000
1000
0000
,
2000
0000
3000
0001
,
0001
0001
0001
0002
,
0000
0000
0003
0000
,
0010
0010
0010
0100
,
0100
0100
0000
0000
,
1000
1000
1000
2000
,
0000
3000
0000
0000
,
0100
0100
0100
0000
,
0200
0000
0300
0010
,
0010
0000
0010
0010
,
0020
0000
0030
0001
,
0000
0001
0000
1000
0000
0000
1000
0000
,
2000
0000
3000
0010
,
0010
0010
1000
1000
,
2000
0000
3000
0000
,
0001
0001
0001
0010
,
0010
0000
0010
0000
,
0001
0001
0001
1000
,
1000
0000
1000
0000
,
2000
3000
0000
0000
,
0000
0000
0000
0001
,
0001
0000
0000
1000
,
1000
1000
1000
0000
,
0010
0010
0010
0100
,
0100
0000
0100
0000
,
0001
0001
0001
0010
,
0010
0000
0010
0000
,
0020
0000
0030
0000
,
0001
0001
0000
1000
,
2000
0000
3000
0000
,
0001
0001
0001
0002
,
0000
0000
0003
0000
,
0100
0100
0100
0200
,
0000
0000
0300
0000
,
0010
0010
0010
0020
,
0000
0000
0030
0000
;

//---------------dance-single - Blank----------------
#NOTES:
     dance-single:
     Ace Of Hearts (2010):
     Beginner:
     1:
     0.136,0.000,0.011,0.195,0.000:
0000
0000
0000
0000
,
0000
0000
0000
0000
,
1000
0000
0000
2000
,
0000
0000
3000
0000
,
0001
0000
0000
0002
,
0000
0000
0003
0000
,
0010
0000
0000
0020
,
0000
0000
0030
0000
,
0001
0000
0000
0002
,
0000
0000
0000
0000
,
0003
0000
0000
0000
,
1000
0000
1000
0000
,
1000
0000
1000
0000
,
1001
0000
0000
0000
,
0001
0000
0000
0001
,
0000
0001
0000
0000
,
0010
0000
0020
0000
,
0030
0000
0000
0000
,
0001
0000
0001
0000
,
0002
0000
0003
0000
,
0100
0000
0200
0000
,
0300
0000
0000
0000
,
0010
0000
0000
0010
,
0000
0020
0000
0030
,
1000
0000
2000
0000
,
3000
0000
0000
0000
,
0100
0000
0100
0000
,
0200
0000
0300
0000
,
0010
0000
0010
0000
,
0020
0000
0030
0001
,
0000
0001
0000
0002
,
0000
0003
0000
1000
,
0000
1000
0000
2000
,
0000
0000
3000
0000
,
0001
0000
0001
0000
,
0100
0000
0100
0000
,
0010
0000
0010
0000
,
1000
0000
1000
0000
,
1000
0000
0000
0000
,
0000
0000
0000
0000
,
0001
0000
0000
0000
,
1000
0000
1000
0000
,
0010
0000
0010
0000
,
1000
0000
1000
0000
,
0001
0000
0001
0000
,
0010
0000
0010
0000
,
0020
0000
0030
0000
,
0001
0000
0000
0000
,
2000
0000
3000
0000
,
0001
0000
0000
0002
,
0000
0000
0003
0000
,
1000
0000
0000
2000
,
0000
0000
3000
0000
,
0100
0000
0000
0200
,
0000
0000
0300
0000
;
