#TITLE:Gee;
#SUBTITLE:;
#ARTIST:Girls' Generation;
#TITLETRANSLIT:;
#SUBTITLETRANSLIT:;
#ARTISTTRANSLIT:;
#GENRE:K-Pop;
#CREDIT:Ace Of Hearts;
#BANNER:Gee - bn.png;
#BACKGROUND:Gee - bg.jpg;
#LYRICSPATH:;
#CDTITLE:Ace Of Hearts.png;
#MUSIC:Gee.ogg;
#OFFSET:-0.160;
#SAMPLESTART:58.440;
#SAMPLELENGTH:12.000;
#SELECTABLE:YES;
#BPMS:0.000=100.000,32.000=200.000,96.000=400.000,100.000=200.000,296.000=400.000,300.000=200.000,428.000=100.000,444.000=200.000,468.000=100.000,470.000=200.000;
#DISPLAYBPM:100.000:200.000;
#STOPS:96.000=0.150
,97.000=0.075
,97.500=0.150
,98.500=0.075
,99.000=0.075
,99.500=0.075
,296.000=0.150
,297.000=0.075
,297.500=0.150
,298.500=0.075
,299.000=0.075
,299.500=0.075
;
#BGCHANGES:-1.000=Gee Music Video.avi=1.000=0=0=0=StretchNoLoop====,
606.000=Gee - bg.jpg=1.000=0=0=1=Centered====,
99999=-nosongbg-=1.000=0=0=0 // don't automatically add -songbackground-
;
#KEYSOUNDS:;

//---------------dance-single - Expert----------------
#NOTES:
     dance-single:
     Ace Of Hearts (2010):
     Challenge:
     11:
     0.942,0.305,0.800,1.000,0.224: // measure 1
0000
0000
0000
0000
0022
0033
0000
0000
,  // measure 2
0000
0000
0000
0000
2002
3003
0000
0000
,  // measure 3
0000
0000
0000
0000
2020
3030
0000
0000
,  // measure 4
0000
0000
0000
0000
2002
3003
0000
0000
,  // measure 5
0002
0003
2000
3000
2200
3300
0000
0000
,  // measure 6
0000
0000
0000
0000
0220
0330
0000
0000
,  // measure 7
0000
0000
0000
0000
0022
0033
0000
0000
,  // measure 8
0000
0000
0000
0000
0000
0000
0000
0000
0101
0000
0002
0003
1001
0000
2000
3000
,  // measure 9
1100
0000
0000
0000
1000
0100
1000
0000
0001
0100
0001
0000
1000
0010
1000
0000
,  // measure 10
1001
0001
0010
0100
1100
0000
1000
1002
,  // measure 11
0000
0000
0103
0000
0010
0000
1000
0000
1100
0000
0000
0000
0002
0000
0000
0003
,  // measure 12
0101
0100
0010
1000
1001
0000
0001
0020
,  // measure 13
0000
0000
0000
0000
0230
0000
0000
0000
1300
0000
0000
0000
0002
0000
0000
0003
,  // measure 14
0022
0033
2002
3003
2020
3030
0202
0303
,  // measure 15
2002
3003
1000
1100
0000
0100
0110
0010
,  // measure 16
0022
0033
2002
3003
2020
3030
0220
0330
,  // measure 17
0202
0000
0303
0000
0001
0000
1001
0000
0000
0000
1000
0000
0020
0000
0000
0030
,  // measure 18
0110
0100
0001
1000
1020
0000
0130
0102
,  // measure 19
0000
0000
1003
0000
0100
0000
0010
0000
0011
0000
0000
0000
0002
0000
0000
0003
,  // measure 20
0101
0100
0010
1000
1001
0000
0001
0200
,  // measure 21
0000
0000
0000
0000
0320
0000
0000
0000
1030
0000
0000
0000
0002
0000
0000
0003
,  // measure 22
0202
0303
2020
3030
2200
3300
0220
0330
,  // measure 23
0022
0033
0001
0101
0000
0100
0110
0010
,  // measure 24
2020
3030
2002
3003
0022
0033
0220
0330
,  // measure 25
1100
0000
1000
0001
0000
0001
0100
0010
,  // measure 26
1010
0000
1000
0002
0000
0013
0001
1000
,  // measure 27
1010
0010
0210
0302
,  // measure 28
2003
0000
3100
0010
0000
0010
0100
1000
,  // measure 29
1001
0001
0020
0230
,  // measure 30
1300
0000
0001
0000
0200
0000
0310
1000
,  // measure 31
0001
0010
0001
1000
0200
0000
0310
0000
,  // measure 32
0012
0000
0000
0000
2003
0000
0000
0000
3020
0000
0000
0000
0230
0000
0000
0300
,  // measure 33
0101
0002
0023
0230
,  // measure 34
0320
0000
0031
0000
1000
0000
0010
1000
,  // measure 35
1001
0001
0010
0100
1000
0000
0001
0000
,  // measure 36
0200
0000
0010
0000
0301
0000
1000
0010
,  // measure 37
0110
0100
0001
1000
0200
0000
0310
0000
,  // measure 38
0002
1000
0103
0001
,  // measure 39
2000
0000
3100
0000
0110
0010
0001
1000
,  // measure 40
0010
0000
1000
0001
1000
0000
0001
0000
0010
0000
0100
1000
0100
0000
0010
0000
,  // measure 41
0002
0000
0000
0000
1003
0100
0010
0100
1000
0000
0001
0010
0100
1000
0100
0010
,  // measure 42
0001
0000
1000
0000
2020
3030
0100
0002
,  // measure 43
0000
0000
0000
0000
2003
0000
0000
3000
1010
0000
0000
0000
0020
0000
0000
0000
,  // measure 44
2030
3002
2003
3002
,  // measure 45
2003
3000
0020
0230
,  // measure 46
0302
0000
2003
0000
3100
0000
0010
0012
,  // measure 47
0000
1003
0020
0230
,  // measure 48
0301
0000
1000
0010
1000
0000
0001
0000
0010
0000
0100
1000
0100
0000
0010
0000
,  // measure 49
0001
1000
0001
0000
0100
0001
0100
0000
0001
0100
0010
1000
0010
0100
0001
1000
,  // measure 50
0002
0000
2000
0000
0010
3003
1000
0200
,  // measure 51
0000
0000
0000
0000
1300
0000
0000
0000
0002
0000
0000
0000
0203
0000
0000
0300
,  // measure 52
0220
0330
2020
3030
0202
0303
2200
3300
,  // measure 53
0022
0000
0000
0000
0033
0000
0010
0000
0200
0000
0000
0000
2300
0000
0000
3000
,  // measure 54
1002
0000
0000
0203
0000
0000
0301
0000
,  // measure 55
2002
0000
0000
0000
3003
0000
0001
0000
0200
0000
0000
0000
0320
0000
0000
0030
,  // measure 56
1010
0000
1000
0001
1000
0000
0100
0000
0010
0000
0001
0100
0001
0000
1000
0000
,  // measure 57
0010
1000
0010
0000
0100
0001
0100
0000
0010
0100
0010
0000
1000
0001
0100
0001
,  // measure 58
1000
0000
0000
0000
0020
0000
0000
0030
0110
0000
0000
0000
0200
0000
0000
0300
,  // measure 59
0101
0000
0000
0000
0001
0010
0100
1000
0100
0010
0001
0010
0100
1000
0100
0010
,  // measure 60
0002
0103
0010
1000
1001
0000
0001
0200
,  // measure 61
0000
0310
0100
0001
0011
0000
0020
0000
,  // measure 62
0031
1000
0010
0100
0002
0000
1003
1010
,  // measure 63
0000
0000
0000
0000
0020
0000
0000
0000
0230
0000
0000
0000
0302
0000
0000
0003
,  // measure 64
2002
3003
2200
3300
0022
0033
2020
3030
,  // measure 65
0202
0303
0001
1001
0000
1000
1010
0010
,  // measure 66
0220
0330
0202
0303
2200
3300
2020
3030
,  // measure 67
0022
0033
0001
1001
0000
1000
1100
0100
,  // measure 68
0010
0100
1000
0001
0200
0000
0310
2000
,  // measure 69
0000
3001
1000
0100
0110
0000
0020
0000
,  // measure 70
0031
1000
0010
0100
0002
0000
1003
1100
,  // measure 71
0000
0000
0000
0000
0200
0000
0000
0000
0310
0000
0000
0000
0002
0000
0000
0003
,  // measure 72
2002
3003
0202
0303
2020
3030
0202
0303
,  // measure 73
2200
3300
1000
1010
0000
0010
0110
0100
,  // measure 74
0202
0303
2020
3030
2200
3300
0022
0033
,  // measure 75
1001
0000
0001
0100
0000
0100
0010
1000
,  // measure 76
0001
0000
0010
0002
0000
1003
0010
1000
,  // measure 77
1100
0000
0000
0000
0200
0000
0000
0000
0310
0000
0000
0000
0002
0000
0000
0003
,  // measure 78
2001
0000
3010
0100
0000
0100
0001
1000
,  // measure 79
1100
0020
0130
2000
,  // measure 80
3001
0100
0010
1000
0100
0010
0001
0100
,  // measure 81
0020
1030
0002
0103
,  // measure 82
0020
0000
2030
3100
,  // measure 83
0020
0032
0203
0320
,  // measure 84
2030
0000
3001
0000
0101
0000
0100
0010
,  // measure 85
1010
1000
0001
0010
0100
0000
1000
0000
,  // measure 86
0020
0000
0100
0000
1030
0000
0001
0100
,  // measure 87
0110
0010
1000
0001
0200
0000
0310
0000
,  // measure 88
2000
0100
3010
1000
,  // measure 89
0200
0000
0310
0000
0001
1000
0010
0100
,  // measure 90
0001
0000
1000
0010
1000
0000
0001
0000
0100
0000
0010
1000
0010
0000
0100
0000
,  // measure 91
0001
0000
1000
0000
0100
0010
0100
0000
1000
0100
0010
0001
1000
0001
0010
0100
,  // measure 92
2000
0000
0002
0000
0010
3003
1000
0020
,  // measure 93
0000
2030
3001
2000
,  // measure 94
3020
0230
0320
0230
,  // measure 95
0320
0000
0000
0000
0030
0000
0000
0000
2000
0000
0000
0000
3002
0000
0000
0003
,  // measure 96
0101
0000
0000
0000
0200
0000
0000
0300
0110
0000
0000
0000
0010
0000
2000
0000
,  // measure 97
0000
3002
0203
0320
,  // measure 98
1030
0000
0001
0100
0001
0000
1000
0000
0100
0000
0010
0001
0010
0000
0100
0000
,  // measure 99
1000
0001
1000
0000
0010
1000
0010
0000
1000
0001
0100
0010
1000
0010
0100
0001
,  // measure 100
2000
0000
0002
0000
0010
3003
1000
0020
,  // measure 101
0000
0000
0000
0000
1030
0000
0000
0000
0200
0000
0000
0000
0320
0000
0000
0030
,  // measure 102
0022
0033
2002
3003
2020
3030
0202
0303
,  // measure 103
2002
0000
0000
0000
3003
0000
0001
0000
0200
0000
0000
0000
0320
0000
0000
0030
,  // measure 104
2010
0000
0000
3002
0000
0000
1003
0000
,  // measure 105
2200
0000
3300
0100
0010
0000
0002
0000
,  // measure 106
0203
0000
0000
0000
0000
0000
0310
0000
1000
0000
0001
0010
0001
0000
1000
0000
,  // measure 107
0010
1000
0010
0000
0100
0000
0001
1000
0100
0010
0001
0010
0100
1000
0001
0200
,  // measure 108
0002
0000
1000
0303
,  // measure 109
2002
0000
0010
3003
,  // measure 110
2200
0000
0010
3300
,  // measure 111
0110
0000
0000
1001
0000
0000
1100
0000
0012
0000
0000
0000
0203
0000
0000
0300
,  // measure 112
0101
0000
0000
0000
0002
0000
0000
0003
1001
0000
0000
0000
2000
0000
0000
3000
,  // measure 113
1100
0000
0000
0000
0010
0000
0010
0000
0011
0000
0000
0000
0002
0000
0000
0003
,  // measure 114
0101
0000
0000
0000
0200
0000
0000
0300
0110
0000
0000
0000
0020
0000
0000
0030
,  // measure 115
1010
0000
0000
0000
1000
0000
1000
0000
1100
0000
0000
0000
0200
0000
0000
0300
,  // measure 116
0110
0011
1001
0101
,  // measure 117
1010
1100
1001
0101
,  // measure 118
2002
0000
0000
0000
0000
0000
0000
0000
3003
0000
0000
0000
1000
0010
1000
0000
,  // measure 119
0001
0010
0001
0000
1000
0100
1000
0000
1002
0000
0000
0000
0203
0000
0000
0300
,  // measure 120
0110
0000
0010
2010
0000
0000
3002
0000
,  // measure 121
0103
0020
2030
3002
,  // measure 122
2003
3002
2003
3000
,  // measure 123
0020
0000
0000
0000
0230
0000
0000
0300
0102
0000
0000
0000
2003
0000
0000
3000
,  // measure 124
1100
0000
0100
0020
0000
0000
0230
0000
,  // measure 125
2300
0000
0000
0000
3002
0000
0000
0000
1003
0000
0010
0100
0010
0000
1000
0000
,  // measure 126
0001
0000
1000
0100
1000
0000
0001
0000
0100
0001
0100
0000
0001
1000
0001
0000
,  // measure 127
1000
0100
0010
0001
1000
0001
1000
0100
0020
0000
0000
0000
0230
0000
0000
0000
,  // measure 128
2300
0000
0000
0000
3001
0000
0200
0000
0000
0000
0000
0300
0110
0000
0000
0000
,  // measure 129
0020
0000
1030
0000
2002
3003
0022
0033
,  // measure 130
2200
3300
2020
3030
0202
0000
0303
0001
,  // measure 131
2000
0000
3200
0000
0320
0000
0000
0230
,  // measure 132
0000
0000
1300
0000
1020
0000
0000
1030
,  // measure 133
0002
0000
0000
0000
0203
0000
0000
0000
0310
0000
1000
0001
1000
0000
0010
0000
,  // measure 134
0100
0000
0001
1000
0001
0000
0010
0000
0001
0010
0001
0000
1000
0010
1000
0000
,  // measure 135
0001
0100
0010
1000
0001
1000
0010
0100
0002
0000
0000
0000
2000
0000
0000
0000
,  // measure 136
0010
3003
0001
0201
0000
0000
0320
0000
,  // measure 137
1030
0002
0203
0320
,  // measure 138
0230
0320
0230
0300
,  // measure 139
0002
0000
0000
0000
2003
0000
0000
0000
3200
0000
0000
0000
0320
0000
0000
0030
,  // measure 140
0011
0000
0001
2000
0000
0000
3020
0000
,  // measure 141
0230
0000
0000
0000
0302
0000
0000
0000
1003
0000
0010
1000
0010
0000
0100
0000
,  // measure 142
0001
0000
1000
0001
1000
0000
0100
0000
0010
0001
0010
0000
0100
1000
0100
0000
,  // measure 143
0010
0001
1000
0010
1000
0001
0100
0001
2000
0000
0000
0000
0002
0000
0000
0000
,  // measure 144
0010
3003
0001
0200
0000
0000
0310
0000
,  // measure 145
1000
0000
0000
0000
0002
0000
0000
0003
0202
0000
0303
0000
2200
0000
3300
0000
,  // measure 146
2020
3030
0022
0033
0202
0000
0303
0100
,  // measure 147
0020
0000
2030
0000
3002
0000
0000
0023
,  // measure 148
0000
0000
0031
0000
0202
0000
0303
0100
,  // measure 149
0020
0000
0000
0000
2030
0000
0000
0000
3001
0000
0010
0100
0010
0000
0001
0000
,  // measure 150
1000
0000
0010
1000
0010
0000
1000
0000
0001
1000
0001
0000
1000
0010
1000
0000
,  // measure 151
0001
0010
0100
1000
0100
0010
0001
1000
2002
0000
0000
0000
0000
0000
0000
0000
,  // measure 152
0000
0000
3003
0000
;

//---------------dance-single - Hard----------------
#NOTES:
     dance-single:
     Ace Of Hearts (2010):
     Hard:
     9:
     0.575,0.000,0.101,0.945,0.018:
0000
0000
0000
0000
,
0000
0000
0000
0000
,
0000
0000
0000
0000
,
0000
0000
0000
0000
,
0000
0000
0000
0000
,
0000
0000
0000
0000
,
0000
0000
0000
0000
,
0000
0000
0000
0000
0001
2000
3001
2000
,
3010
0000
0000
0000
4000
0004
0000
0000
0000
0000
0000
0000
3003
0000
0000
0000
,
0001
1000
0010
1000
0001
0000
1000
0200
,
0000
0310
0100
1000
0001
0000
0020
0000
,
0031
1000
0010
0100
0001
0000
1000
0020
,
0000
1030
0001
0020
,
0031
0001
0001
0001
,
0200
0000
0310
1000
0000
0001
0010
0100
,
0010
0010
0010
0010
,
0002
0000
1003
0010
0000
1000
0002
0000
,
0103
0010
1000
0001
0020
0000
0031
2000
,
0000
3010
0100
0001
1000
0000
0200
0000
,
0310
0001
1000
0010
0100
0000
0010
2000
,
0000
3002
0013
0002
,
1003
1000
1000
1000
,
0020
0000
1030
0001
0000
0010
0100
1000
,
0001
0001
0001
0001
,
0100
0000
0010
1000
0000
0010
0100
0001
,
1000
0000
0001
0200
0000
0310
1000
0001
,
0010
0100
1000
0000
0020
0000
0230
0000
,
0302
0000
1003
0100
0000
0010
0100
1000
,
0001
0100
0010
0000
2000
0000
3002
0000
,
0013
0100
0010
0001
1000
0001
0100
0010
,
2000
3200
0320
0032
,
2003
3020
0230
0302
,
2003
3200
0320
0032
,
0000
0000
0023
0000
0030
0000
0100
1000
,
0001
0100
0010
1000
0001
0000
0010
0000
,
0200
0000
0000
0000
0300
0000
0010
0001
,
1000
0010
0100
0001
1000
0000
0100
0000
,
0020
0000
0030
0001
,
0200
0000
0320
0000
0030
1000
0001
0010
,
0400
4000
0000
0000
0000
0000
0000
0000
0000
0000
0000
0000
0000
0000
0000
0000
,
3300
0000
2000
3002
,
0103
0000
0010
0000
1020
0000
0130
0002
,
0000
0103
0010
1000
,
0001
1000
0001
1000
,
0200
0300
0010
0001
,
1000
0000
0010
0000
1000
0000
0001
0020
,
0000
0031
2000
3010
,
0100
0010
1000
0001
,
0200
0300
0010
1000
,
0002
0000
0013
0000
0210
0000
1300
0002
,
0000
2003
3020
0230
,
0301
0001
0001
0001
,
0020
0000
0030
0001
2000
0000
3020
0000
,
0230
0000
0000
0302
0000
0000
1003
0000
,
2020
0000
3030
0010
0100
0000
0001
0000
,
2000
0000
0000
3200
0000
0000
0310
0000
,
0001
0001
0002
0003
,
1000
0020
1030
0200
,
1300
0000
0000
0000
0004
0400
0000
0000
0000
0000
0000
0000
0303
0000
0000
0000
,
0100
0010
1000
0001
0010
0000
0001
2000
,
0000
3010
0100
0001
1000
0000
0200
0000
,
0310
0100
1000
0001
0100
0000
0010
0100
,
0000
0020
1030
0002
,
0013
0010
0010
0010
,
0200
0000
1300
0001
0000
1000
0010
1000
,
0100
0100
0100
0100
,
0020
0000
0031
1000
0000
0010
1000
0001
,
0010
0001
1000
0010
0100
0000
0010
2000
,
0000
3001
0010
0001
0100
0000
0020
0000
,
1030
0001
0010
0100
1000
0000
0001
0100
,
0000
0020
1030
0200
,
1300
1000
1000
1000
,
0002
0000
0103
0010
0000
1000
0001
0010
,
0100
0100
0100
0100
,
1000
0000
0001
0100
0000
0010
0100
0001
,
1000
0000
0010
0200
0000
0301
1000
0100
,
0010
0100
1000
0000
0001
0000
0200
0000
,
0320
0000
1030
0001
0000
0010
0001
1000
,
0010
2000
3001
0200
,
0310
1000
0001
0010
0100
0010
0001
1000
,
0020
1030
0002
0013
,
0200
0000
2300
3001
,
0200
0310
2000
3200
,
0000
0000
0320
0000
0030
0000
0001
0010
,
0100
1000
0001
0100
0010
0000
1000
0000
,
0020
0000
0000
0000
0030
0000
1000
0001
,
0010
0001
0100
0010
1000
0000
0001
0000
,
2000
0000
3000
0001
,
2000
0000
3000
0000
0000
0100
0010
0001
,
4000
0040
0000
0000
0000
0000
0000
0000
0000
0000
0000
0000
0000
0000
0000
0000
,
3030
0000
2000
3002
,
0013
0000
0100
0000
2100
0000
3001
0200
,
0000
0320
1030
0002
,
1003
0010
1000
0001
,
0200
0300
0010
1000
,
0002
0000
0013
0000
0100
0000
1000
0002
,
0000
0103
0020
1030
,
0001
0010
0001
1000
,
0002
0003
0020
0032
,
2003
0000
3010
0000
0210
0000
0301
2000
,
0000
3200
1300
0002
,
0103
0100
0100
0100
,
0020
0000
0030
1000
0002
0000
0023
0000
,
0032
0000
0000
0203
0000
0000
0310
0000
,
2020
0000
3030
1000
0002
0000
0023
0000
,
0230
0000
0000
2300
0000
0000
3001
0000
,
0010
0010
0020
0030
,
0002
0000
0000
0003
0101
0000
0000
0000
,
2000
0000
0000
3000
1010
0000
0000
0000
,
0002
0000
0000
0003
1001
0000
0000
0000
,
1000
0000
0000
1000
0000
0000
1000
0000
1020
0000
0000
0000
0230
0000
0000
0000
,
0301
2000
3100
0020
,
0031
0000
1000
1000
0001
0000
0020
0000
,
0031
2000
3001
0020
,
0130
0000
0010
0010
0001
0000
2000
0000
,
3010
1000
0001
0100
,
0010
1010
0110
0101
,
2002
0000
3003
0000
,
0002
0203
0310
1000
,
0001
0000
0010
0200
0000
0000
2300
0000
,
3001
0200
0310
1000
,
0001
0010
0200
0300
,
0020
0032
1003
0010
,
0100
0000
0010
2000
0000
0000
3001
0000
,
0020
0031
1000
0010
,
1000
0000
0000
0000
0001
0000
0000
0000
0040
0400
0000
0000
0000
0000
0000
0000
,
0000
0000
0330
0100
,
2000
0000
3001
0200
0000
0000
0310
0000
,
1000
0002
0103
0100
,
0100
0000
0100
0000
0020
0000
0030
1000
,
0002
0000
0013
0000
0200
0000
0000
2300
,
0000
3001
0202
0303
,
0200
0000
0320
0000
2030
0000
0000
3002
,
0000
0103
0220
0330
,
0020
1030
0001
1000
,
1200
0000
0310
0002
0000
0000
2003
0000
,
3010
0200
0301
1000
,
0100
0010
0002
0003
,
2000
3020
0130
0001
,
1000
0000
0100
0020
0000
0000
0130
0000
,
2000
3002
0103
0010
,
1000
0000
0000
0000
0001
0000
0000
0000
4000
0400
0000
0000
0000
0000
0000
0000
,
0000
0000
3300
0100
,
0120
0000
0031
2000
0000
0000
3002
0000
,
0103
0020
1030
1000
,
1000
0000
1000
0000
0002
0000
0003
1000
,
0200
0000
0310
0000
0200
0000
0000
2300
,
0000
0000
3001
0000
0022
0000
0033
0001
,
2000
0000
3020
0000
0230
0000
0000
0302
,
0000
1003
0010
0010
,
0020
0030
2002
0000
,
0000
0000
3003
0000
;

//---------------dance-single - Medium----------------
#NOTES:
     dance-single:
     Ace Of Hearts (2010):
     Medium:
     7:
     0.464,0.000,0.005,0.719,0.003:
0000
0000
0000
0000
,
0000
0000
0000
0000
,
0000
0000
0000
0000
,
0000
0000
0000
0000
,
0000
0000
0000
0000
,
0000
0000
0000
0000
,
0000
0000
0000
0000
,
0000
0000
1000
1000
,
2000
0000
3000
0000
,
0001
0000
0010
0000
0100
0000
0010
0002
,
0000
1003
0010
0000
1000
0000
0001
0000
,
1000
0000
0010
0000
1000
0000
0001
0200
,
0000
0301
1000
0001
,
1000
1000
1000
1000
,
2000
0000
0000
3000
0000
0000
0000
0000
,
0001
0001
0001
0001
,
0002
0000
1003
0100
0000
1000
0001
0000
,
1000
0000
0100
0000
0010
0000
0001
2000
,
0000
3001
0100
0000
0010
0000
0100
0000
,
0001
0000
1000
0000
0100
0000
0010
0002
,
0000
1003
0010
1000
,
0010
0010
0010
0010
,
0020
0000
0000
0030
0000
0000
0000
0000
,
0100
0100
0100
0100
,
0100
0000
0000
0001
0000
0000
1000
0000
,
0020
0000
0000
1030
0000
0000
0001
0000
,
0010
0001
1000
0010
,
2000
0000
0000
3001
0000
0000
0010
0000
,
0001
1000
0010
0100
,
0002
0000
0000
1003
0000
0000
0010
0000
,
1000
0001
0010
0100
,
2000
3001
1000
0010
,
1000
0001
0010
0002
,
0000
0000
0003
0000
0000
0000
1000
0010
,
1000
0001
1000
0001
,
0200
0000
0000
0000
0300
0000
0001
1000
,
0001
1000
0010
1000
,
0020
0000
0030
1000
,
0001
0000
0000
1000
,
0010
1000
0001
0010
,
0002
0003
1000
0010
,
1000
0000
0001
0000
0020
0030
0001
2000
,
0000
3020
1030
0001
,
0010
0001
0010
0001
,
2000
0000
3002
0203
,
0310
0000
1000
0000
0001
0000
0010
0002
,
0000
1003
0020
1030
,
0001
0100
0001
0100
,
0020
0030
1000
0001
,
2000
0000
3001
0000
0010
0000
0001
2000
,
0000
3010
1000
0001
,
0010
0010
0010
0010
,
0020
0030
0001
1000
,
0002
0000
0000
0203
0000
0000
0310
0000
,
0020
0030
2000
3002
,
0023
0000
0000
0032
0000
0000
1003
0000
,
0010
0010
0020
0000
,
1030
0000
1000
0000
,
0001
0000
0001
1000
,
0010
0000
0100
0000
0010
0000
1000
0002
,
0000
1003
0100
0000
0010
0000
0200
0000
,
0310
0000
0001
0000
1000
0000
0001
0100
,
0000
0002
1003
0020
,
0130
0100
0100
0100
,
0200
0000
0300
0000
,
0010
0010
0010
0010
,
0020
0000
1030
0001
0000
1000
0010
0000
,
1000
0000
0001
0000
0010
0000
0001
2000
,
0000
3001
0010
0000
0001
0000
2000
0000
,
3010
0000
1000
0000
0001
0000
1000
0010
,
0000
2000
3001
0010
,
0001
0001
0001
0001
,
0002
0000
0003
0000
,
1000
1000
1000
1000
,
1000
0000
0000
0010
0000
0000
1000
0000
,
0002
0000
0000
0013
0000
0000
0100
0000
,
1000
0002
0103
0020
,
2030
0000
0000
3001
0000
0000
0010
0000
,
0001
2000
3010
0200
,
0301
1000
0001
1000
,
0100
0010
0001
1000
,
0020
0000
2030
3002
,
0013
0200
1300
0002
,
0000
0000
0003
0000
0000
0000
1000
0010
,
1000
0001
1000
0100
,
2000
0000
0000
0000
3000
0000
0001
0100
,
0001
1000
0001
0100
,
0020
0000
0030
1000
,
0001
0000
0000
0010
,
0100
1000
0001
0100
,
0020
0000
2030
3001
,
0010
0000
0001
0000
2000
3000
0010
0200
,
0000
0302
1003
0200
,
1300
0001
0100
0001
,
2000
0000
3001
1000
,
0100
0000
0010
0000
0001
0000
1000
0020
,
0000
1030
0001
0100
,
0010
1000
0010
0100
,
0002
0000
2003
3200
,
0320
0000
0031
0000
2000
3000
0001
0020
,
0000
0032
1003
0020
,
0130
0100
0100
0100
,
0200
0000
0301
1000
,
0020
0000
0000
2030
0000
0000
3001
0000
,
0200
0300
0002
1003
,
0200
0000
0000
2300
0000
0000
3001
0000
,
0100
0100
0200
0300
,
0002
0000
0103
0000
,
0020
0000
1030
0000
,
0200
0000
0310
0000
,
0001
0000
0000
0001
0000
0000
0001
0000
2000
0000
0000
0000
3020
0000
0000
0000
,
0130
0001
1000
0001
,
1000
0000
0001
0010
0000
0000
0010
0000
,
0001
1000
0010
0100
,
0001
0000
1000
0001
0000
0000
0001
0000
,
0010
0001
1000
0010
,
0100
0001
1000
0100
,
0020
0000
0030
0000
,
0002
2003
3010
1000
,
0001
0000
1000
0200
0000
0000
0320
0000
,
0130
1000
0001
0100
,
0001
0100
0020
0030
,
2000
3002
0013
0001
,
1000
0000
0001
0200
0000
0000
0310
0000
,
2000
3001
0010
0100
,
0010
0100
2000
3000
,
0002
0103
0020
0130
,
0002
0000
1003
0200
0000
0000
0310
0000
,
0002
2003
3010
0010
,
0010
0010
0020
0030
,
2000
0000
3001
0000
0020
0000
0000
0230
,
0000
1300
2000
3000
,
0002
0000
0103
0000
0020
0000
0000
2030
,
0000
3001
0020
0030
,
0002
1003
0010
1000
,
0200
0300
0010
0002
0000
0000
2003
0000
,
3010
0200
0301
1000
,
0001
1000
0200
0300
,
0020
0031
1000
0001
,
0010
0000
0001
2000
0000
0000
3010
0000
,
0200
0301
1000
0010
,
1000
0010
0200
0300
,
0002
2003
3002
0203
,
0320
0030
1000
0002
0000
0000
0203
0000
,
0310
0200
0301
0001
,
0001
0000
0001
0000
0002
0000
0003
1000
,
0200
0000
2300
0000
3002
0000
0000
0203
,
0000
0310
2000
3000
,
0001
0000
0010
0000
0002
0000
0000
0203
,
0000
0301
1000
1000
,
2000
3000
2002
0000
,
0000
0000
3003
0000
;

//---------------dance-single - Easy----------------
#NOTES:
     dance-single:
     Ace Of Hearts (2010):
     Easy:
     3:
     0.152,0.000,0.010,0.131,0.000:
0000
0000
0000
0000
,
0000
0000
0000
0000
,
0000
0000
0000
0000
,
0000
0000
0000
0000
,
0000
0000
0000
0000
,
0000
0000
0000
0000
,
0000
0000
0000
0000
,
0000
0000
0000
0000
,
0000
0000
0000
0000
,
1000
0000
1000
0000
,
0001
0000
0001
0000
,
0100
0000
0100
0000
,
0010
0000
0010
0000
,
4000
0000
0000
0000
,
0000
3000
0000
0000
0000
0000
0000
0000
,
0004
0000
0000
0000
,
0000
0003
0000
0000
0000
0000
0000
0000
,
0010
0000
0010
0000
,
0001
0000
0001
0000
,
1000
0000
1000
0000
,
0010
0000
0010
0000
,
0400
0000
0000
0000
,
0000
0300
0000
0000
0000
0000
0000
0000
,
0040
0000
0000
0000
,
0000
0030
0000
0000
0000
0000
0000
0000
,
1000
0000
1000
0000
,
0001
0000
0001
0000
,
0100
0000
0100
0000
,
0010
0000
0020
0000
,
0030
0000
0000
0000
,
1000
0000
1000
0000
,
0001
0000
0001
0000
,
0100
0000
0100
0000
,
0200
0000
0300
0000
,
0010
0000
0010
0000
,
0020
0000
0030
0000
,
1000
0000
1000
0000
,
2000
0000
3000
0000
,
1000
0000
0000
0000
,
0001
0000
0001
0000
,
0001
0000
0000
0000
,
0100
0000
0100
0000
,
0100
0000
0000
0000
,
0020
0000
0000
0000
,
0030
0000
0000
0000
,
1000
0000
1000
0000
,
1000
0000
0000
0000
,
0002
0000
0000
0000
,
0003
0000
0000
0000
,
0010
0000
0010
0000
,
0010
0000
0000
0000
,
0004
0000
0000
0000
,
0000
0003
0000
0000
1000
0000
0000
0000
,
2000
0000
3000
0000
,
0010
0000
1000
0000
,
2000
0000
3000
0000
,
0001
0000
0001
0000
,
2002
0000
0000
0000
,
3003
0000
0000
0000
,
0001
0000
0001
0000
,
0100
0000
0100
0000
,
0010
0000
0010
0000
,
1000
0000
1000
0000
,
0004
0000
0000
0000
,
0000
0003
0000
0000
0000
0000
0000
0000
,
4000
0000
0000
0000
,
0000
3000
0000
0000
0000
0000
0000
0000
,
0010
0000
0010
0000
,
0100
0000
0100
0000
,
0001
0000
0001
0000
,
1000
0000
1000
0000
,
0400
0000
0000
0000
,
0000
0300
0000
0000
0000
0000
0000
0000
,
0040
0000
0000
0000
,
0000
0030
0000
0000
0000
0000
0000
0000
,
0001
0000
0001
0000
,
1000
0000
1000
0000
,
0010
0000
0010
0000
,
0100
0000
0100
0000
,
0001
0000
0001
0000
,
1000
0000
1000
0000
,
2000
0000
3000
0000
,
1000
0000
0000
0000
,
0001
0000
0000
0000
,
0010
0000
0010
0000
,
0010
0000
0000
0000
,
0100
0000
0100
0000
,
0200
0000
0300
0000
,
0100
0000
0000
0000
,
1000
0000
1000
0000
,
1000
0000
0000
0000
,
0001
0000
0001
0000
,
0001
0000
0000
0000
,
0200
0000
0000
0000
,
0300
0000
0010
0000
,
1000
0000
1000
0000
,
1000
0000
0000
0000
,
0002
0000
0000
0000
,
0003
0000
0000
0000
,
1000
0000
1000
0000
,
1000
0000
0000
0000
,
0040
0000
0000
0000
,
0000
0030
0000
0000
1000
0000
0000
0000
,
2000
0000
3000
0000
,
0001
0000
1000
0000
,
2000
0000
3000
0000
,
0010
0000
0010
0000
,
2000
0000
3000
0000
,
0002
0000
0003
0000
,
0020
0000
0030
0000
,
0001
0000
0001
0000
,
1000
0000
1000
0000
,
1000
0000
0000
0000
,
0000
0000
0010
0000
,
0010
0000
0010
0000
,
0000
0000
0100
0000
,
0100
0000
0100
0000
,
0002
0000
0003
0000
,
0000
0000
1000
0000
,
1000
0000
1000
0000
,
0000
0000
0002
0000
,
0000
0000
0003
0000
,
0000
0000
0100
0000
,
0100
0000
0100
0000
,
0000
0000
0020
0000
,
0000
0000
0030
0000
,
0000
0000
1000
0000
,
1000
0000
1000
0000
,
0000
0000
0004
0000
,
0000
0000
0000
0000
0000
0003
0000
0000
,
0000
0000
0010
0000
,
0010
0000
0010
0000
,
0000
0000
0001
0000
,
0001
0000
0001
0000
,
0000
0000
0100
0000
,
0100
0000
0100
0000
,
0000
0000
0020
0000
,
0000
0000
0030
0000
,
0000
0000
1000
0000
,
1000
0000
1000
0000
,
0000
0000
0200
0000
,
0000
0000
0300
0000
,
0000
0000
0010
0000
,
0010
0000
0010
0000
,
0000
0000
0004
0000
,
0000
0000
0000
0000
0000
0003
0000
0000
,
0000
0000
1000
0000
,
1000
0000
1000
0000
,
0000
0000
0010
0000
,
0010
0000
0010
0000
,
0010
0000
2002
0000
,
0000
0000
3003
0000
;

//---------------dance-single - Novice----------------
#NOTES:
     dance-single:
     Ace Of Hearts (2010):
     Beginner:
     1:
     0.121,0.000,0.010,0.151,0.000:
0000
0000
0000
0000
,
0000
0000
0000
0000
,
0000
0000
0000
0000
,
0000
0000
0000
0000
,
0000
0000
0000
0000
,
0000
0000
0000
0000
,
0000
0000
0000
0000
,
0000
0000
0000
0000
,
0000
0000
0000
0000
,
1000
0000
0000
0000
,
1000
0000
0000
0000
,
0001
0000
0000
0000
,
0001
0000
0000
0000
,
0020
0000
0000
0000
,
0030
0000
0000
0000
,
0200
0000
0000
0000
,
0300
0000
0000
0000
,
0010
0000
0000
0000
,
0010
0000
0000
0000
,
0001
0000
0000
0000
,
0001
0000
0000
0000
,
2000
0000
0000
0000
,
3000
0000
0000
0000
,
0002
0000
0000
0000
,
0003
0000
0000
0000
,
1000
0000
0000
0000
,
1000
0000
0000
0000
,
0010
0000
0000
0000
,
0010
0000
0000
0000
,
0100
0000
0000
0000
,
0100
0000
0000
0000
,
0001
0000
0000
0000
,
0001
0000
0000
0000
,
0002
0000
0003
0000
,
1000
0000
1000
0000
,
1000
0000
0000
0000
,
0010
0000
0010
0000
,
0010
0000
0000
0000
,
0010
0000
0000
0000
,
1000
0000
0000
0000
,
1000
0000
0000
0000
,
0001
0000
0001
0000
,
0001
0000
0000
0000
,
2000
0000
0000
0000
,
3000
0000
0000
0000
,
0010
0000
0010
0000
,
0010
0000
0000
0000
,
0200
0000
0000
0000
,
0300
0000
0000
0000
,
0001
0000
0001
0000
,
0001
0000
0000
0000
,
2000
0000
0000
0000
,
3000
0000
0000
0000
,
0010
0000
0000
0000
,
0010
0000
0000
0000
,
0100
0000
0000
0000
,
0100
0000
0000
0000
,
0020
0000
0000
0000
,
0030
0000
0000
0000
,
1000
0000
0000
0000
,
1000
0000
0000
0000
,
0100
0000
0000
0000
,
0100
0000
0000
0000
,
0020
0000
0000
0000
,
0030
0000
0000
0000
,
0002
0000
0000
0000
,
0003
0000
0000
0000
,
1000
0000
0000
0000
,
1000
0000
0000
0000
,
0010
0000
0000
0000
,
0010
0000
0000
0000
,
2000
0000
0000
0000
,
3000
0000
0000
0000
,
0002
0000
0000
0000
,
0003
0000
0000
0000
,
0010
0000
0000
0000
,
0010
0000
0000
0000
,
0001
0000
0000
0000
,
0001
0000
0000
0000
,
1000
0000
0000
0000
,
1000
0000
0000
0000
,
0010
0000
0000
0000
,
0010
0000
0000
0000
,
0010
0000
0000
0000
,
0100
0000
0100
0000
,
0100
0000
0000
0000
,
0001
0000
0001
0000
,
0001
0000
0000
0000
,
0001
0000
0000
0000
,
0010
0000
0000
0000
,
0010
0000
0000
0000
,
0001
0000
0001
0000
,
0001
0000
0000
0000
,
2000
0000
0000
0000
,
3000
0000
0000
0000
,
0010
0000
0010
0000
,
0010
0000
0000
0000
,
0200
0000
0000
0000
,
0300
0000
0000
0000
,
0001
0000
0001
0000
,
0001
0000
0000
0000
,
0200
0000
0000
0000
,
0300
0000
0000
0000
,
0010
0000
0000
0000
,
0010
0000
0000
0000
,
1000
0000
0000
0000
,
1000
0000
0000
0000
,
0002
0000
0003
0000
,
2000
0000
3000
0000
,
0002
0000
0003
0000
,
0020
0000
0030
0000
,
0000
0000
0100
0000
,
0100
0000
0000
0000
,
0000
0000
1000
0000
,
1000
0000
0000
0000
,
0000
0000
0001
0000
,
0001
0000
0000
0000
,
2002
0000
3003
0000
,
0000
0000
1000
0000
,
1000
0000
1000
0000
,
0000
0000
0020
0000
,
0000
0000
0030
0000
,
0000
0000
0100
0000
,
0100
0000
0100
0000
,
0000
0000
0002
0000
,
0000
0000
0003
0000
,
0000
0000
1000
0000
,
1000
0000
1000
0000
,
0000
0000
0200
0000
,
0000
0000
0300
0000
,
0000
0000
0010
0000
,
0000
0000
0010
0000
,
0000
0000
0001
0000
,
0000
0000
0001
0000
,
0000
0000
0010
0000
,
0010
0000
0010
0000
,
0000
0000
0200
0000
,
0000
0000
0300
0000
,
0000
0000
1000
0000
,
1000
0000
1000
0000
,
0000
0000
0002
0000
,
0000
0000
0003
0000
,
0000
0000
0010
0000
,
0010
0000
0010
0000
,
0000
0000
0200
0000
,
0000
0000
0300
0000
,
0000
0000
1000
0000
,
0000
0000
1000
0000
,
0000
0000
0001
0000
,
0000
0000
0001
0000
,
0000
0000
2002
0000
,
0000
0000
3003
0000
;
