#TITLE:Doki Doki;
#SUBTITLE:;
#ARTIST:Smile.dk;
#TITLETRANSLIT:;
#SUBTITLETRANSLIT:;
#ARTISTTRANSLIT:;
#GENRE:Pop;
#CREDIT:Ace Of Hearts;
#BANNER:Doki Doki - bn.png;
#BACKGROUND:Doki Doki - bg.jpg;
#LYRICSPATH:;
#CDTITLE:Ace Of Hearts.png;
#MUSIC:Doki Doki.ogg;
#OFFSET:0.160;
#SAMPLESTART:52.880;
#SAMPLELENGTH:12.000;
#SELECTABLE:YES;
#BPMS:0.000=140.000,52.000=70.000,56.000=140.000,184.000=70.000,188.000=140.000,320.000=70.000,336.000=140.000,400.000=70.000,401.500=35.000;
#STOPS:;
#BGCHANGES:;
#KEYSOUNDS:;

//---------------dance-single - Expert----------------
#NOTES:
     dance-single:
     Ace Of Hearts (2010):
     Challenge:
     9:
     0.682,0.000,0.367,0.851,0.149:
0000
0000
0000
0000
,
0000
0000
0000
0000
,
0000
0000
0000
0000
,
0000
0000
0000
0000
,
0000
0000
0000
0000
,
2010
3001
0100
0010
2000
3100
0010
0001
,
0200
0310
1000
0001
0020
0031
1000
0100
,
0020
0000
0000
0000
0030
0000
0100
0000
2000
0000
0000
0000
3000
0000
0002
0003
,
0101
0100
0100
0002
2000
0000
0010
3003
,
2010
3001
1000
0010
0200
0301
1000
0010
,
2000
3001
0010
0100
2000
3010
0100
0001
,
0200
0000
0000
0000
0300
0000
0001
0000
2000
0000
0000
0000
3000
0000
0002
0003
,
0011
0000
0010
0000
0010
0000
0100
0000
1000
0001
0000
0001
0100
0000
0010
0000
,
2010
0000
0000
0000
3001
0000
0010
0000
0200
0000
0000
0000
1300
0000
0001
0000
0201
0000
0000
0310
1000
0000
0002
0000
1003
0000
0010
0000
0110
0000
0000
0000
,
0101
0000
0100
0010
1000
0000
0001
0000
0010
0100
1000
0000
0001
0000
1000
0000
,
0100
0010
0001
0000
1000
0000
0020
0000
0230
0000
0301
0000
1000
0000
0001
0000
,
1000
0000
0010
1000
0001
0000
0010
0000
0200
0000
1300
0000
0001
0000
0200
0000
,
0000
0000
0310
1000
0002
0000
1003
0000
1010
0000
0000
0000
0101
0000
0001
0000
,
1002
0000
1003
0010
0100
0000
0001
0000
1000
0100
0010
0000
0001
0000
0100
0000
,
0010
1000
0002
0000
0103
0000
0020
0000
2030
0000
3001
0000
0010
0000
0100
0000
,
1000
0000
0001
1000
0010
0000
1000
0000
0020
0000
0000
0000
0400
0000
0000
0000
,
0030
0301
1000
0100
0010
0100
2000
3000
,
2002
3000
0023
0031
2000
3010
0100
0002
,
0000
0000
0023
0000
0000
0000
0230
0000
0000
0000
4300
0000
0000
0000
0000
3000
,
1010
0000
0010
0000
0100
0000
0001
0000
1000
0000
0100
0000
0020
0000
0000
0030
,
0110
0000
0100
0000
1000
0000
0001
0000
0100
0000
0001
0000
2000
0000
0000
3000
,
1001
0000
0002
0000
2003
3100
0010
0200
,
0000
0000
2300
0000
0000
0000
3002
0000
0000
0000
0403
0000
0000
0000
0000
0300
,
0110
0010
1000
0001
0100
0001
2000
3000
,
1100
0100
0010
0100
1000
0001
0200
0300
,
0110
0000
0010
0000
1010
0000
1000
0000
0100
0000
0010
0000
0002
0000
0000
0003
,
1001
1000
0010
0100
0101
0001
2000
0000
,
3000
0100
0010
0001
0010
0100
2000
0000
,
3001
0100
0010
1000
0004
0000
0003
0000
,
0011
0010
0110
0100
1000
0100
0020
0000
,
0130
0000
1000
0000
0001
0000
0100
0000
0010
0000
0100
0000
0002
0000
0000
0003
,
1001
1000
0010
0100
0002
0000
0003
0000
,
0101
0100
0010
1000
0002
0000
1003
0010
,
1001
0000
0010
0000
1001
0000
0200
1300
,
0002
0103
0010
1000
0020
1030
0001
1000
,
0020
0000
0000
0000
0030
0000
1000
0000
0200
0000
0000
0000
0300
0000
0020
0030
,
0011
0001
0001
0200
0020
0000
1000
0330
,
0201
0310
1000
0100
0020
0031
0010
0100
,
2000
3001
0100
0010
2000
3100
0010
0001
,
0200
0000
0000
0000
0300
0000
0010
0000
2000
0000
0000
0000
3000
0000
0020
0030
,
0110
0000
0100
0000
0100
0000
0001
0000
1000
0000
0100
0010
0001
0000
1000
0000
,
0010
0000
0000
0000
1000
0000
0001
0000
0020
0000
0000
0000
0031
0000
1000
0000
1020
0000
0000
0130
0001
0000
1000
0000
0002
0000
0000
0003
0011
0000
0000
0000
,
1001
0000
1000
0010
0100
0000
0001
0000
1000
0100
0010
0000
0100
0000
1000
0000
,
0001
0100
0010
0000
1000
0000
0002
0000
0023
0000
0031
0000
0100
0000
0010
0000
,
1000
0000
0001
0010
0100
0000
0010
0000
0001
1000
0010
0000
0100
0000
0020
0000
,
0000
0000
1030
0001
0010
0000
0100
0000
1000
0000
0000
0000
1010
0000
0010
0000
,
0210
0000
0301
1000
0010
0000
1000
0000
0001
0010
0100
0000
1000
0000
0001
0000
,
1000
0010
0100
0000
0001
0000
2000
0000
3200
0000
0310
0000
0100
0000
1000
0000
,
0002
0000
1003
0100
0010
0000
0001
0000
1000
0010
0100
0000
0001
0000
0020
0000
,
0000
0000
0031
1000
0010
0000
0100
0000
0001
0000
1000
0000
0100
0000
0010
0000
,
0012
0000
1003
0010
0200
0301
1000
0020
,
0000
0000
0230
0000
0000
0000
0302
0000
0000
0000
4003
0000
0000
0000
0000
3000
,
1001
0000
0001
0000
0010
0000
0100
0000
0010
0000
0001
0000
0200
0000
0000
0300
,
0110
0000
0010
0000
1000
0000
0001
0000
0010
0000
0100
0000
2000
0000
0000
3000
,
1010
0000
0020
0000
1030
0001
0010
0200
,
0000
0000
2300
0000
0000
0000
3002
0000
0000
0000
0403
0000
0000
0000
0000
0300
,
0101
0000
0001
0000
1000
0000
0100
0000
0010
0000
0100
0000
2000
0000
0000
3000
,
1001
0000
0001
0000
0100
0000
0010
0000
0100
0000
0001
0000
0200
0000
0000
0300
,
0101
0000
0001
0000
0011
0000
0010
0000
0100
0000
1000
0000
0002
0000
0000
0003
,
0011
0010
0100
1000
0010
0100
0002
0000
,
0003
0010
0001
1000
0100
0010
0200
0000
,
0310
0001
1000
0001
0040
0000
0030
0000
,
0110
0100
1100
1000
0001
0010
0200
0000
,
0310
0000
0001
0000
1000
0000
0010
0000
0100
0000
0001
0000
2000
0000
0000
3000
,
1010
0010
0100
0001
2000
0000
3000
0000
,
1100
0100
0010
0001
0200
0000
0310
1000
,
1001
0000
0010
0000
1001
0000
0200
0301
,
2000
3100
0010
0001
0200
0301
1000
0100
,
0020
0000
0000
0000
0030
0000
0100
0000
2000
0000
0000
0000
3000
0000
0002
0003
,
1001
1000
1000
0200
0020
0000
0001
0330
,
0012
1003
0010
1000
0200
0310
0001
1000
,
0020
0130
0001
1000
0200
1300
0001
0100
,
0020
0000
0000
0000
0030
0000
0100
0000
0002
0000
0000
0000
0003
0000
2000
3000
,
1010
0010
0010
0200
0002
0000
0010
0303
,
1002
0000
0000
1003
0020
0000
0130
0000
0002
0000
1003
0000
0200
0000
0310
0000
,
0012
0000
1003
0100
0020
0000
0130
2000
0000
3002
0000
0023
0000
0230
0000
0300
,
0000
0010
0001
1000
0001
0100
0020
0000
1030
0001
0010
0001
1000
0010
0200
0000
,
0300
0000
0020
0000
2030
0000
3001
0020
0000
0032
0000
2003
0000
3200
0000
0300
,
0010
0000
0000
0001
0000
0000
0010
0000
0000
0100
0000
0000
1000
0000
0000
0100
0000
0000
2000
0000
0000
3000
0000
0000
0004
0400
0000
0000
0000
0000
0000
0000
0000
0000
0000
0000
0000
0000
0000
0000
0000
0000
0303
0000
0000
0000
0000
0000
,
0110
0000
0010
0000
1010
0000
1000
0000
0100
0000
0010
0000
0002
0000
0000
0003
,
0101
0100
0010
1000
0100
0010
0002
0000
,
0003
0100
0010
0100
0001
1000
0200
0000
,
0310
0100
1000
0001
0040
0000
0030
0000
,
0110
0000
0100
0000
1100
0000
1000
0000
0001
0000
0100
0000
0020
0000
0000
0030
,
1010
0000
1000
0000
0001
0000
0010
0000
0100
0000
1000
0000
0002
0000
0000
0003
,
0101
0100
0001
1000
0020
0000
0030
0000
,
0110
0100
0001
1000
0200
0000
0310
0001
,
1001
0000
0010
0000
1001
0000
0200
0310
,
0002
1003
0010
0100
0002
0013
0100
1000
,
0002
0000
0000
0000
0003
0000
1000
0000
0200
0000
0000
0000
0300
0000
0020
0030
,
0011
0001
0001
2000
3020
0000
0130
0001
,
1001
0000
0100
0000
1001
0000
0020
0130
,
0002
1003
0100
0010
0200
1300
0001
0100
,
0020
0000
0000
0000
0030
0000
1000
0000
0002
0000
0000
0000
0003
0000
0020
0030
,
0110
0100
0100
1000
0002
0000
1003
0000
,
0020
0000
0000
0000
1030
0000
0001
0000
2000
0000
0000
0000
3100
0010
0004
0000
0000
0000
0000
0000
0000
0000
0000
0000
0003
0000
0000
0000
0000
0000
0000
0000
;

//---------------dance-single - Hard----------------
#NOTES:
     dance-single:
     Ace Of Hearts (2010):
     Hard:
     7:
     0.558,0.000,0.021,0.686,0.085: // measure 1
0000
0000
0000
0000
,  // measure 2
0000
0000
0000
0000
,  // measure 3
0000
0000
0000
0000
,  // measure 4
0000
0000
0000
0000
,  // measure 5
0000
0000
0000
0000
,  // measure 6
0001
0010
0100
1000
0100
0010
0001
1000
,  // measure 7
0001
0100
0001
1000
0010
1000
0001
0100
,  // measure 8
0002
0000
0003
1000
0200
0000
0300
0010
,  // measure 9
0001
1000
0001
0010
0002
0000
0203
0000
,  // measure 10
0310
1000
0001
0100
0010
0100
0001
1000
,  // measure 11
0001
0010
0100
1000
0001
0100
0010
0100
,  // measure 12
0002
0000
0003
0010
0200
0000
0300
1000
,  // measure 13
0001
1000
0010
1000
0002
0000
0203
0000
,  // measure 14
0302
0000
1003
0010
2000
0000
3002
0000
2003
0000
3010
0100
0001
0100
0001
0000
,  // measure 15
1000
0100
0010
0001
1000
0001
0010
0100
,  // measure 16
1000
0002
0000
0203
0000
0000
0300
0001
,  // measure 17
1000
0100
0010
0001
0010
0100
0000
0020
,  // measure 18
0000
0031
1000
0001
0100
0000
0100
0000
,  // measure 19
0000
0010
1000
0001
1000
0100
0010
0001
,  // measure 20
1000
0100
0000
0020
0000
0000
0030
0001
,  // measure 21
1000
0010
0100
0010
2000
0000
0002
3000
,  // measure 22
0000
1003
0010
0100
0010
1000
0002
0000
,  // measure 23
0003
0000
1000
0010
2000
0000
3001
0020
,  // measure 24
0000
0032
0000
2003
0000
3200
0000
0300
,  // measure 25
0000
0010
0001
0010
0001
1000
0002
0000
,  // measure 26
1003
0010
1000
0010
0100
0010
2000
0000
,  // measure 27
3000
0000
0002
0000
0203
0000
0301
2000
,  // measure 28
0000
3200
0000
0320
0000
0032
0000
0003
,  // measure 29
1000
0010
1000
0001
0100
0001
0200
0000
,  // measure 30
0310
0100
0010
0100
0001
1000
0002
0000
,  // measure 31
1003
0010
1000
0010
1000
0001
2000
0000
,  // measure 32
3001
0010
0001
1000
0001
0010
0200
0000
,  // measure 33
0300
0010
0001
1000
0001
0010
0200
0000
,  // measure 34
0310
0001
1000
0001
0200
0000
0300
0000
,  // measure 35
0001
1000
0001
1000
0100
0010
0002
0000
,  // measure 36
1003
0100
1000
0100
0010
0001
2000
0000
,  // measure 37
3001
0100
0010
0100
0002
0000
0003
0000
,  // measure 38
1000
0100
0010
0100
2000
0000
3001
0100
,  // measure 39
0010
1001
0001
0200
,  // measure 40
0301
1000
0001
0100
0001
1000
0100
0010
,  // measure 41
0002
0000
0003
0010
0200
0000
0300
1000
,  // measure 42
0100
0010
0001
0010
0100
0000
2000
0000
,  // measure 43
3001
0100
0010
1000
0010
0100
0001
1000
,  // measure 44
0001
0100
0001
1000
0010
1000
0001
0100
,  // measure 45
0002
0000
0003
1000
0200
0000
0300
1000
,  // measure 46
0001
1000
0010
1000
0002
0000
0203
0000
,  // measure 47
0320
0000
1030
0001
2000
0000
3001
0100
0002
0000
1003
0100
2000
0000
3001
0000
,  // measure 48
1000
0010
0100
0010
1000
0001
1000
0001
,  // measure 49
0010
0100
0000
2000
0000
3000
0000
0001
,  // measure 50
0100
0001
1000
0100
2000
0000
3001
0200
,  // measure 51
0000
0301
1000
0100
0010
0000
0200
0000
,  // measure 52
0310
0001
1000
0001
0010
0001
1000
0010
,  // measure 53
0100
0000
0000
0001
0000
0000
0200
0000
0000
0000
0000
0000
0300
0000
0000
0000
,  // measure 54
0001
0100
0001
1000
0200
0000
0310
0002
,  // measure 55
0000
2003
0000
3100
0010
0001
0020
0000
,  // measure 56
0030
0000
0001
1000
0002
0000
1003
0020
,  // measure 57
0000
0230
0000
0302
0000
2003
0000
3000
,  // measure 58
0000
0001
0010
0001
1000
0001
0200
0000
,  // measure 59
0310
0100
0001
0100
0010
1000
0020
0000
,  // measure 60
0030
0000
2000
0000
3002
0000
0103
0020
,  // measure 61
0000
0230
0000
0302
0000
2003
0000
3000
,  // measure 62
0001
0010
0001
1000
0010
1000
0020
0000
,  // measure 63
0130
0001
0100
0010
1000
0010
2000
0000
,  // measure 64
3001
1000
0001
1000
0100
0010
0002
0000
,  // measure 65
1003
0010
0100
0010
1000
0001
0020
0000
,  // measure 66
0030
0001
0010
0100
1000
0100
0020
0000
,  // measure 67
0130
1000
0100
0010
0002
0000
0003
0000
,  // measure 68
1000
0100
1000
0100
0010
0001
2000
0000
,  // measure 69
3010
1000
0010
1000
0001
0010
0002
0000
,  // measure 70
1003
0100
0010
0100
2000
0000
3000
0000
,  // measure 71
0001
0010
0100
0010
0002
0000
1003
0100
,  // measure 72
0010
1001
1000
0002
,  // measure 73
1003
0010
0100
0001
0100
0010
1000
0001
,  // measure 74
2000
0000
3000
0001
0200
0000
0300
0001
,  // measure 75
1000
0100
0010
0100
2000
0000
3002
0000
,  // measure 76
1003
0010
1000
0001
0010
0001
1000
0001
,  // measure 77
0100
0001
1000
0100
0010
0001
0010
0100
,  // measure 78
2000
0000
3000
0001
0200
0000
0300
0001
,  // measure 79
0100
0010
0100
0001
2000
0000
3200
0000
,  // measure 80
0310
0000
0000
0001
1000
0000
0001
0000
1000
0000
0010
0000
0100
0000
0001
0000
,  // measure 81
0000
0000
1000
0001
2000
0000
3100
0020
0000
0032
0000
0023
0000
0230
0000
0300
,  // measure 82
0000
1000
0100
1000
0100
0010
0002
0000
1003
0010
1000
0010
0100
0001
0200
0000
,  // measure 83
0300
0000
0020
0000
0230
0000
0301
2000
0000
3002
0000
0023
0000
0230
0000
0300
,  // measure 84
0010
0001
0010
0001
1000
0001
2000
0000
3010
1000
0010
0100
0001
0100
0002
0000
,  // measure 85
1003
0100
1000
0100
0010
0001
2000
0000
,  // measure 86
3001
0100
0010
1000
0010
0100
0002
0000
,  // measure 87
0003
0100
0001
1000
0001
0010
0002
0000
,  // measure 88
1003
0010
0100
0010
2000
0000
3000
0000
,  // measure 89
0001
0100
0001
0100
0010
1000
0002
0000
,  // measure 90
1003
0100
0010
0001
0010
0100
2000
0000
,  // measure 91
3001
0010
0100
0010
0002
0000
0003
0000
,  // measure 92
1000
0100
0010
0100
2000
0000
3001
0100
,  // measure 93
0010
1001
1000
0200
,  // measure 94
0310
0001
1000
0010
1000
0001
0010
0100
,  // measure 95
0020
0000
0030
0100
2000
0000
3000
0001
,  // measure 96
1000
0010
1000
0001
2000
0000
3100
0010
,  // measure 97
0001
1001
1000
0020
,  // measure 98
0130
0001
1000
0001
0010
0001
1000
0100
,  // measure 99
2000
0000
3000
0001
0200
0000
0300
0010
,  // measure 100
1000
0001
1000
0010
2000
0000
3000
0000
,  // measure 101
0001
0010
0001
1000
0002
0000
2003
3020
0000
0000
0000
0000
0030
0000
0000
0000
;

//---------------dance-single - Medium----------------
#NOTES:
     dance-single:
     Ace Of Hearts (2010):
     Medium:
     5:
     0.359,0.000,0.000,0.372,0.035: // measure 1
0000
0000
0000
0000
,  // measure 2
0000
0000
0000
0000
,  // measure 3
0000
0000
0000
0000
,  // measure 4
0000
0000
0000
0000
,  // measure 5
0000
0000
0000
0000
,  // measure 6
0001
1000
0010
1000
,  // measure 7
0001
1000
0010
1000
,  // measure 8
0020
0030
0200
0300
,  // measure 9
0001
1000
0001
0000
1000
0000
1000
0000
,  // measure 10
0001
0100
0010
1000
,  // measure 11
0001
0010
0100
1000
,  // measure 12
0002
0003
0200
0300
,  // measure 13
0001
0100
0002
0000
1003
0000
1000
0000
,  // measure 14
0200
0000
0300
0000
0010
0010
0002
0003
,  // measure 15
1000
0010
1000
0000
0001
0000
0001
0000
,  // measure 16
2000
0000
0000
3200
0000
0000
0300
0000
,  // measure 17
0010
0000
0001
1000
0001
0000
0000
0000
,  // measure 18
1000
0000
0010
1000
0010
0000
0010
0000
,  // measure 19
0000
0000
1000
0001
1000
0000
0010
0000
,  // measure 20
2000
0000
0000
3020
0000
0000
0030
0000
,  // measure 21
1000
0001
1000
0000
0020
0000
0030
0000
,  // measure 22
0000
1000
0010
1000
,  // measure 23
0000
0000
0001
0000
2000
0000
3001
0020
,  // measure 24
0000
0031
0000
2000
0000
3200
0000
0300
,  // measure 25
0000
0010
0001
0000
1000
0000
0001
0000
,  // measure 26
1000
0010
1000
0000
0001
0000
0001
0000
,  // measure 27
0000
0000
0020
0000
0032
0000
1003
0010
,  // measure 28
0000
1000
0000
0002
0000
0203
0000
0300
,  // measure 29
0010
1000
0010
0000
0100
0000
0100
0000
,  // measure 30
0001
1000
0001
0000
0100
0000
0100
0000
,  // measure 31
0001
1000
0001
0000
1000
0000
1000
0000
,  // measure 32
0010
1000
0010
0000
0100
0000
0100
0000
,  // measure 33
0000
0000
0001
0000
1000
0010
1000
0000
,  // measure 34
0001
0010
0001
0000
2000
0000
3000
0000
,  // measure 35
0010
1000
0010
0000
0100
0000
0100
0000
,  // measure 36
0001
0100
0001
0000
1000
0000
1000
0000
,  // measure 37
0001
0100
0020
0030
,  // measure 38
1000
0001
0200
0301
,  // measure 39
1000
0010
1000
0002
,  // measure 40
1003
0010
1000
0001
,  // measure 41
0020
0030
0002
0003
,  // measure 42
1000
0010
1000
0000
0001
0000
1000
0000
,  // measure 43
0001
1000
0100
0010
,  // measure 44
0001
1000
0010
0100
,  // measure 45
0002
0003
2000
3000
,  // measure 46
0001
0010
0001
0000
1000
0000
0100
0000
,  // measure 47
0020
0000
0030
0000
0001
0001
0020
0030
,  // measure 48
0001
1000
0001
0000
1000
0000
0010
0000
,  // measure 49
0200
0000
0000
0302
0000
0000
0003
0000
,  // measure 50
1000
0100
1000
0000
0001
0000
1000
0000
,  // measure 51
0001
0010
0001
0000
2000
0000
3000
0000
,  // measure 52
0001
0100
0001
0000
1000
0000
0010
0000
,  // measure 53
0200
0000
0000
0302
0000
0000
0003
0000
,  // measure 54
1000
0001
1000
0000
0010
0000
1000
0000
,  // measure 55
0001
0000
0000
0000
1000
0010
1000
0000
,  // measure 56
0000
0000
0001
0000
2000
0000
3001
0200
,  // measure 57
0000
0320
0000
2030
0000
3002
0000
0003
,  // measure 58
0000
1000
0100
0000
1000
0000
0001
0000
,  // measure 59
1000
0010
1000
0000
0001
0000
0100
0000
,  // measure 60
0000
0000
0010
0000
2000
0000
3001
0020
,  // measure 61
0000
0031
0000
2000
0000
3200
0000
0300
,  // measure 62
0010
0001
0010
0000
0100
0000
0100
0000
,  // measure 63
1000
0001
1000
0000
0010
0000
0010
0000
,  // measure 64
0100
0001
0100
0000
0010
0000
0010
0000
,  // measure 65
1000
0001
1000
0000
0010
0000
0010
0000
,  // measure 66
0000
0000
1000
0000
0001
0100
0001
0000
,  // measure 67
1000
0010
1000
0000
0002
0000
0003
0000
,  // measure 68
1000
0100
1000
0000
0001
0000
0001
0000
,  // measure 69
0100
0001
0100
0000
0010
0000
0010
0000
,  // measure 70
1000
0001
0020
0030
,  // measure 71
0001
1000
0020
1030
,  // measure 72
0001
0010
0001
2000
,  // measure 73
3010
1000
0001
0100
,  // measure 74
0020
0030
2000
3000
,  // measure 75
0001
0010
0001
0000
1000
0000
0001
0000
,  // measure 76
0010
0100
1000
0100
,  // measure 77
0010
0001
1000
0010
,  // measure 78
0200
0300
0002
0003
,  // measure 79
1000
0010
1000
0000
0001
0000
0010
0000
,  // measure 80
0001
0000
1000
0100
1000
0000
0001
0000
,  // measure 81
0000
0000
1000
0000
0010
0000
1000
0002
0000
0013
0000
0200
0000
2300
0000
3000
,  // measure 82
0000
0001
1000
0000
0010
0000
1000
0000
0001
1000
0001
0000
0010
0000
0001
0000
,  // measure 83
0000
0000
1000
0000
0002
0000
1003
0020
0000
2030
0000
3002
0000
0203
0000
0300
,  // measure 84
0010
1000
0010
0000
0100
0000
0100
0000
0001
0100
0001
0000
1000
0000
1000
0000
,  // measure 85
0001
0010
0001
0000
1000
0000
1000
0000
,  // measure 86
0010
1000
0010
0000
0100
0000
0100
0000
,  // measure 87
0000
0000
0001
0000
1000
0010
1000
0000
,  // measure 88
0001
0010
0001
0000
2000
0000
3000
0000
,  // measure 89
0010
1000
0010
0000
0100
0000
0100
0000
,  // measure 90
0001
0100
0001
0000
1000
0000
1000
0000
,  // measure 91
0001
0100
0020
0030
,  // measure 92
1000
0001
0200
0310
,  // measure 93
1000
0001
0010
0200
,  // measure 94
1300
0001
0100
0010
,  // measure 95
0200
0300
0002
0003
,  // measure 96
1000
0010
1000
0000
0001
0000
1000
0000
,  // measure 97
0100
0010
0001
0020
,  // measure 98
0130
1000
0001
0100
,  // measure 99
0020
0030
2000
3000
,  // measure 100
0001
1000
0001
0000
0100
0000
0010
0000
,  // measure 101
1000
0000
0001
0000
2000
0000
0000
3010
0000
0000
0000
0000
0000
0000
0000
0000
;

//---------------dance-single - Easy----------------
#NOTES:
     dance-single:
     Ace Of Hearts (2010):
     Easy:
     3:
     0.216,0.000,0.000,0.048,0.003: // measure 1
0000
0000
0000
0000
,  // measure 2
0000
0000
0000
0000
,  // measure 3
0000
0000
0000
0000
,  // measure 4
0000
0000
0000
0000
,  // measure 5
0000
0000
0000
0000
,  // measure 6
0010
0010
0010
0000
,  // measure 7
1000
1000
1000
0000
,  // measure 8
0001
0000
0001
0000
,  // measure 9
1000
1000
1000
0000
,  // measure 10
0010
0010
0010
0000
,  // measure 11
0100
0100
0100
0000
,  // measure 12
0001
0000
0001
0000
,  // measure 13
1000
1000
1000
0000
,  // measure 14
0200
0300
0020
0030
,  // measure 15
0001
0001
0001
0000
,  // measure 16
1000
0000
1000
0000
,  // measure 17
0010
0010
0010
0000
,  // measure 18
0100
0100
0100
0100
,  // measure 19
0000
0001
0001
0001
,  // measure 20
0001
0000
0001
0000
,  // measure 21
1000
1000
1000
0000
,  // measure 22
0000
0010
0010
0010
,  // measure 23
0000
0100
0100
0000
,  // measure 24
0001
0001
0001
0000
,  // measure 25
0000
1000
1000
0000
,  // measure 26
0010
0010
0010
0000
,  // measure 27
0000
1000
1000
0000
,  // measure 28
0001
0001
0001
0000
,  // measure 29
0010
0010
0010
0000
,  // measure 30
0100
0100
0100
0000
,  // measure 31
1000
1000
2000
3000
,  // measure 32
0001
0001
0001
0000
,  // measure 33
0000
0100
0100
0000
,  // measure 34
0010
0010
0010
0000
,  // measure 35
0100
0100
0200
0300
,  // measure 36
0001
0001
0001
0000
,  // measure 37
1000
1000
1000
0000
,  // measure 38
0001
0001
0001
0000
,  // measure 39
0010
0010
0010
0000
,  // measure 40
0001
0001
0001
0000
,  // measure 41
1000
0000
1000
0000
,  // measure 42
0100
0100
0100
0000
,  // measure 43
0010
0010
0010
0000
,  // measure 44
0001
0001
0001
0000
,  // measure 45
1000
0000
1000
0000
,  // measure 46
0010
0010
0010
0000
,  // measure 47
2000
3000
0001
0001
,  // measure 48
1000
1000
1000
0000
,  // measure 49
0100
0000
0100
0000
,  // measure 50
0010
0010
0010
0000
,  // measure 51
0001
0001
0002
0003
,  // measure 52
1000
1000
1000
0000
,  // measure 53
0010
0000
0010
0000
,  // measure 54
0100
0100
0100
0000
,  // measure 55
0001
0001
0001
0000
,  // measure 56
0000
1000
1000
0000
,  // measure 57
0010
0010
0010
0000
,  // measure 58
0000
0100
0100
0000
,  // measure 59
0001
0001
0001
0000
,  // measure 60
0000
0100
0100
0000
,  // measure 61
0010
0010
0010
0000
,  // measure 62
1000
1000
1000
0000
,  // measure 63
0001
0001
0001
0000
,  // measure 64
0010
0010
0020
0030
,  // measure 65
0001
0001
0001
0000
,  // measure 66
0000
1000
1000
0000
,  // measure 67
0010
0010
0010
0000
,  // measure 68
1000
1000
1000
0000
,  // measure 69
0001
0001
0001
0000
,  // measure 70
0010
0010
0010
0000
,  // measure 71
0100
0100
0100
0000
,  // measure 72
1000
1000
1000
0000
,  // measure 73
0001
0001
0001
0000
,  // measure 74
0100
0000
0100
0000
,  // measure 75
0010
0010
0010
0000
,  // measure 76
1000
1000
1000
0000
,  // measure 77
0001
0001
0001
0000
,  // measure 78
0100
0000
0100
0000
,  // measure 79
0010
0010
0010
0000
,  // measure 80
1000
1000
1000
0000
,  // measure 81
0000
0001
0001
0000
0001
0000
0001
0000
,  // measure 82
0000
1000
1000
0000
0010
0010
0010
0000
,  // measure 83
0000
1000
1000
0000
0001
0001
0001
0000
,  // measure 84
0100
0100
0100
0000
0001
0001
0001
0000
,  // measure 85
1000
1000
2000
3000
,  // measure 86
0100
0100
0100
0000
,  // measure 87
0000
0010
0010
0000
,  // measure 88
0001
0001
0001
0000
,  // measure 89
0100
0100
0200
0300
,  // measure 90
0001
0001
0001
0000
,  // measure 91
1000
1000
1000
0000
,  // measure 92
0100
0100
0100
0000
,  // measure 93
0010
0010
0010
0000
,  // measure 94
0001
0001
0001
0000
,  // measure 95
1000
0000
1000
0000
,  // measure 96
0010
0010
0010
0000
,  // measure 97
0100
0100
0100
0000
,  // measure 98
0001
0001
0001
0000
,  // measure 99
1000
0000
1000
0000
,  // measure 100
0010
0010
0010
0000
,  // measure 101
0100
0000
0000
0000
0100
0000
0000
0001
0000
0000
0000
0000
0000
0000
0000
0000
;

//---------------dance-single - Novice----------------
#NOTES:
     dance-single:
     Ace Of Hearts (2010):
     Beginner:
     1:
     0.132,0.000,0.005,0.170,0.000: // measure 1
0000
0000
0000
0000
,  // measure 2
0000
0000
0000
0000
,  // measure 3
0000
0000
0000
0000
,  // measure 4
0000
0000
0000
0000
,  // measure 5
0000
0000
0000
0000
,  // measure 6
0001
0000
0001
0000
,  // measure 7
0001
0000
0000
0000
,  // measure 8
2000
0000
3000
0000
,  // measure 9
0020
0000
0030
0000
,  // measure 10
1000
0000
1000
0000
,  // measure 11
1000
0000
0000
0000
,  // measure 12
0002
0000
0003
0000
,  // measure 13
0200
0000
0300
0000
,  // measure 14
0002
0000
0003
0000
,  // measure 15
1000
0000
1000
0000
,  // measure 16
1000
0000
0000
0000
,  // measure 17
0010
0000
0010
0000
,  // measure 18
0010
0000
0010
0000
,  // measure 19
0000
0000
1000
0000
,  // measure 20
1000
0000
1000
0000
,  // measure 21
0001
0000
0001
0000
,  // measure 22
0000
0000
0001
0000
,  // measure 23
0000
0000
1000
0000
,  // measure 24
2000
0000
3000
0000
,  // measure 25
0000
0000
0001
0000
,  // measure 26
0001
0000
0001
0000
,  // measure 27
0000
0000
0100
0000
,  // measure 28
0100
0000
0100
0000
,  // measure 29
0020
0000
0030
0000
,  // measure 30
2000
0000
3000
0000
,  // measure 31
0001
0000
0001
0000
,  // measure 32
0002
0000
0003
0000
,  // measure 33
1000
0000
1000
0000
,  // measure 34
2000
0000
3000
0000
,  // measure 35
0010
0000
0010
0000
,  // measure 36
0020
0000
0030
0000
,  // measure 37
1000
0000
1000
0000
,  // measure 38
0001
0000
0001
0000
,  // measure 39
2000
0000
3000
0000
,  // measure 40
0001
0000
0001
0000
,  // measure 41
0001
0000
0000
0000
,  // measure 42
0200
0000
0300
0000
,  // measure 43
0010
0000
0010
0000
,  // measure 44
0010
0000
0000
0000
,  // measure 45
2000
0000
3000
0000
,  // measure 46
0002
0000
0003
0000
,  // measure 47
0200
0000
0300
0000
,  // measure 48
0010
0000
0010
0000
,  // measure 49
0010
0000
0000
0000
,  // measure 50
1000
0000
1000
0000
,  // measure 51
2000
0000
3000
0000
,  // measure 52
0010
0000
0010
0000
,  // measure 53
0010
0000
0000
0000
,  // measure 54
0100
0000
0100
0000
,  // measure 55
0200
0000
0300
0000
,  // measure 56
0000
0000
0001
0000
,  // measure 57
0002
0000
0003
0000
,  // measure 58
0000
0000
1000
0000
,  // measure 59
1000
0000
1000
0000
,  // measure 60
0000
0000
0100
0000
,  // measure 61
0100
0000
0000
0000
,  // measure 62
0010
0000
0010
0000
,  // measure 63
0001
0000
0001
0000
,  // measure 64
1000
0000
1000
0000
,  // measure 65
2000
0000
3000
0000
,  // measure 66
0000
0000
0001
0000
,  // measure 67
0002
0000
0003
0000
,  // measure 68
0100
0000
0100
0000
,  // measure 69
0100
0000
0000
0000
,  // measure 70
0010
0000
0010
0000
,  // measure 71
1000
0000
1000
0000
,  // measure 72
0002
0000
0003
0000
,  // measure 73
0100
0000
0100
0000
,  // measure 74
0100
0000
0000
0000
,  // measure 75
0002
0000
0003
0000
,  // measure 76
1000
0000
1000
0000
,  // measure 77
1000
0000
0000
0000
,  // measure 78
0200
0000
0300
0000
,  // measure 79
0020
0000
0030
0000
,  // measure 80
0001
0000
0001
0000
,  // measure 81
0000
1000
1000
1000
,  // measure 82
0000
0010
0010
0010
,  // measure 83
0000
0100
0100
0000
,  // measure 84
0001
0001
1000
1000
,  // measure 85
0010
0000
0010
0000
,  // measure 86
0020
0000
0030
0000
,  // measure 87
0000
0000
1000
0000
,  // measure 88
2000
0000
3000
0000
,  // measure 89
0100
0000
0100
0000
,  // measure 90
0100
0000
0000
0000
,  // measure 91
0010
0000
0010
0000
,  // measure 92
0001
0000
0001
0000
,  // measure 93
2000
0000
3000
0000
,  // measure 94
0010
0000
0010
0000
,  // measure 95
0010
0000
0000
0000
,  // measure 96
0200
0000
0300
0000
,  // measure 97
0001
0000
0001
0000
,  // measure 98
1000
0000
1000
0000
,  // measure 99
1000
0000
0000
0000
,  // measure 100
0020
0000
0030
0000
,  // measure 101
2002
0000
0000
0000
0000
0000
0000
3003
0000
0000
0000
0000
0000
0000
0000
0000
;
