#TITLE:Christmas Memories;
#SUBTITLE:;
#ARTIST:Boa;
#TITLETRANSLIT:;
#SUBTITLETRANSLIT:;
#ARTISTTRANSLIT:;
#GENRE:J-Christmas;
#CREDIT:Ace Of Hearts;
#BANNER:Christmas Memories - bn.png;
#BACKGROUND:Christmas Memories - bg.jpg;
#LYRICSPATH:;
#CDTITLE:Ace Of Hearts.png;
#MUSIC:Christmas Memories.ogg;
#OFFSET:2.660;
#SAMPLESTART:60.988;
#SAMPLELENGTH:12.000;
#SELECTABLE:YES;
#BPMS:0.000=85.000;
#STOPS:;
#BGCHANGES:;
#KEYSOUNDS:;

//---------------dance-single - Expert----------------
#NOTES:
     dance-single:
     Ace Of Hearts (2010):
     Challenge:
     9:
     0.661,0.162,0.190,0.948,0.716: // measure 1
0000
0000
0000
0000
,  // measure 2
4000
0004
0000
0000
0000
0000
0000
0000
0000
0000
0000
0000
0000
0000
0000
0000
0000
0000
3003
0000
0000
0000
0000
0000
0002
0000
0000
0000
0000
0000
0023
0000
0000
0000
0000
0000
0230
0000
0000
0000
0000
0000
2300
0000
0000
0000
0000
0000
,  // measure 3
3001
0010
0001
0010
0001
0010
0100
1000
0100
1000
0100
1000
1001
0000
0000
1001
0000
0000
1001
0000
0000
2000
0000
0000
,  // measure 4
3002
0000
1003
0100
0000
1000
0200
0000
0000
0310
0000
0000
0011
0000
0000
0011
0000
0000
0011
0000
0000
0002
0000
0000
,  // measure 5
2003
0000
3001
0100
0000
0001
0200
0000
0310
1000
0000
0000
1010
0000
0000
1010
0000
0000
1010
0000
0000
2000
0000
0000
,  // measure 6
3200
0000
1300
0001
0000
1000
0002
0000
0000
0013
0000
0000
0002
0000
0000
0000
0000
0000
2003
0000
0000
0000
0000
3010
,  // measure 7
0100
0001
0100
0001
0100
0001
1000
0010
1000
0001
0000
0000
0021
0000
0000
0100
0000
0000
0130
0000
0000
2000
0000
0000
,  // measure 8
3002
0000
0000
0203
0000
0000
0320
0000
0000
2030
0000
0000
3002
0000
0000
0013
0000
0200
0000
0000
2300
0000
0000
3002
,  // measure 9
0000
0000
1003
0200
0000
0000
0320
0000
0031
1000
0000
0000
0020
0000
0000
1000
0030
0002
0000
0000
0023
0000
0000
0230
,  // measure 10
0000
0000
2300
0000
0000
3002
0000
0000
0023
0000
0000
0000
0032
0000
0000
0013
0000
0100
0000
0000
1000
0000
0000
0001
,  // measure 11
0100
0001
0100
0001
0100
0010
1000
0010
1000
0010
1000
0001
0021
0000
0000
0130
0000
2000
0000
0000
0000
0000
0000
3001
,  // measure 12
0020
0000
0230
0000
2300
0000
3002
0000
0043
0000
0000
0000
0030
0000
0000
0001
,  // measure 13
2000
3010
0200
0301
2000
3100
0020
0130
,  // measure 14
2000
0000
0000
3001
0000
0000
0200
0000
0000
0301
0000
0000
1000
0100
1000
0100
1000
0100
0010
0001
0010
0001
0010
0200
,  // measure 15
0000
0000
0000
0000
1300
0000
0001
0000
0000
0000
0000
0000
0100
0000
0000
0001
0000
0000
1000
0000
0000
0100
0000
0000
0010
0000
0000
0000
0000
0000
0100
0000
0000
0000
0000
0000
2000
0000
0000
0000
0000
0000
3001
0000
0000
0000
0010
0000
,  // measure 16
0000
0000
0001
1000
0000
0010
0100
0000
0010
1000
0000
0001
1000
0000
0000
0100
0000
0000
0020
0000
0000
0130
0000
1000
,  // measure 17
0000
0000
0001
0100
0000
0001
1000
0000
0100
0010
0000
0001
2000
0000
0000
3001
0000
0000
0020
0000
0000
0031
0000
1000
,  // measure 18
0000
0000
0010
0100
0000
0010
1000
0000
0001
0010
0000
0100
1000
0000
0000
0001
0000
0000
0020
0000
0000
0031
0000
0000
,  // measure 19
1000
0010
0100
0010
0100
0010
0100
0001
0100
0001
0100
0001
1000
0000
0000
0001
0000
0000
0020
0000
0000
0130
0000
1000
,  // measure 20
0000
0000
0001
0100
0000
0001
1000
0000
0010
0100
0000
0001
1000
0000
0000
0010
0000
0000
0200
0000
0000
0301
0000
1000
,  // measure 21
0000
0000
0200
0000
0000
0310
0000
0000
0002
0000
0000
0000
2003
0000
0000
0000
0000
0000
3200
0000
0000
0000
0000
0000
,  // measure 22
0320
0000
0000
0000
0000
0000
0032
0000
0000
0000
0000
0000
1003
0010
1000
0010
1000
0010
0100
0001
0100
0001
0100
0020
,  // measure 23
0000
0000
1030
0001
0010
0001
0010
0001
0010
0100
1000
0001
1000
0000
0000
0100
0000
0000
0020
0000
0000
0230
0000
1300
,  // measure 24
0000
0000
1000
0001
0000
0000
0200
0000
0000
0310
0000
0000
1000
0000
0000
0010
0000
0000
0020
0000
0000
1030
0000
0001
,  // measure 25
0000
0000
0001
0100
0000
0000
0020
0000
1030
0001
0000
0000
0010
0000
0000
0100
0000
0000
0200
0000
0000
0310
0000
0001
,  // measure 26
0000
0000
0001
0000
0000
1000
0200
0000
0000
0310
0000
0000
0002
0000
0000
0000
0000
0000
0023
0000
0000
0000
0000
0000
,  // measure 27
0130
1000
0100
1000
0100
1000
0001
0100
0001
0100
0001
0100
0020
0000
0000
0000
0000
0000
0000
0000
0000
0000
0000
0000
,  // measure 28
0030
2000
3002
2003
3020
0000
0030
2000
,  // measure 29
3020
0230
0302
2003
3100
0010
0002
2003
,  // measure 30
3020
0000
0000
0000
0000
0000
2030
0000
0000
0000
0000
0000
3001
0100
0001
0100
0001
0100
0010
1000
0010
1000
0010
2000
,  // measure 31
3001
0100
0001
0100
0001
1000
0001
1000
0001
1000
0001
1000
0020
0000
0000
0130
0000
0000
0002
0000
0000
0203
0000
0000
,  // measure 32
0320
0000
0000
0000
0000
0000
2030
0000
0000
0000
0000
0000
3001
0100
0001
0100
0001
0100
0010
1000
0010
1000
0010
2000
,  // measure 33
3001
0010
0001
0010
0001
0010
0100
1000
0100
0010
0000
0000
0010
0000
0000
0001
0000
0000
2000
0000
0000
3002
0000
0000
,  // measure 34
0023
0000
0000
0000
0000
0000
0230
0000
0000
0000
0000
0300
1100
0000
0000
1100
0000
0000
1100
0000
0000
0200
0000
0000
,  // measure 35
2300
0000
3100
0010
0000
0100
0020
0000
0000
0031
0000
0000
1001
0000
0000
1001
0000
0000
1001
0000
0000
2000
0000
0000
,  // measure 36
3002
0000
1003
0010
0000
1000
0020
0000
0130
0010
0000
0000
0110
0000
0000
0110
0000
0000
0110
0000
0000
0200
0000
0000
,  // measure 37
0320
0000
0130
0001
0000
0100
0002
0000
0000
1003
0000
0000
1200
0000
0000
0000
0000
0000
0320
0000
0000
0000
0000
0031
,  // measure 38
1000
0010
1000
0001
1000
0100
0010
0100
1000
0001
0000
0000
2202
0000
0000
3303
0000
0000
0000
0000
0000
0000
0000
0000
;

//---------------dance-single - Hard----------------
#NOTES:
     dance-single:
     Ace Of Hearts (2010):
     Hard:
     7:
     0.400,0.162,0.009,0.897,0.216:
0000
0000
0000
0000
,
4000
0004
0000
0000
0000
0000
0000
0000
0000
3003
0000
0000
0002
0000
0000
0023
0000
0000
0032
0000
0000
2003
0000
0000
,
3004
0400
0000
0000
0000
0000
0000
0000
0000
0000
0000
0000
0303
0000
0000
0100
0000
0000
0100
0000
0000
0000
0000
0000
,
0000
0000
0010
1000
0000
0010
2000
0000
0000
3001
0000
0000
0100
0000
0000
0100
0000
0000
0100
0000
0000
0000
0000
0000
,
0000
0000
0001
1000
0000
0001
2000
0000
0000
3020
0000
0000
0130
0000
0000
0100
0000
0000
0100
0000
0000
0000
0000
0000
,
0000
0000
0001
1000
0000
0001
2000
0000
0000
3010
0000
0000
2000
0000
0000
0000
0000
0000
3002
0000
0000
0000
0000
0023
,
0000
0000
0000
0030
0002
0000
0000
2003
,
3020
0000
0000
0230
0000
0000
0302
0000
0000
2003
0000
0000
3020
0000
0000
1030
0000
0002
0000
0000
0023
0000
0000
0230
,
0000
0000
0000
0000
0000
0000
0300
0000
0000
0000
0000
0000
0020
0000
0000
0031
0000
2000
0000
0000
3020
0000
0000
0230
,
0000
0000
0302
0000
0000
2003
0000
0000
3020
0000
0000
0000
2030
0000
0000
3001
0000
0020
0000
0000
0230
0000
0000
2300
,
0000
0000
0000
3002
0000
0000
0203
0000
0000
0302
0000
0000
2003
0000
0000
3001
0000
0020
0000
0000
0000
0000
0000
0031
,
2000
0000
3020
0000
2030
0000
3002
0000
0023
0000
0000
0000
0030
0000
0000
0001
,
2000
3200
0320
0032
2003
3020
0130
0001
,
2000
0000
0000
3100
0000
0000
0020
0000
0000
0031
0000
0000
4000
0040
0000
0000
0000
0000
0000
0000
0000
0000
0000
3030
,
0000
0000
0020
0000
0000
0000
1030
0000
0000
0001
0000
0000
0100
0000
0000
0010
0000
0000
2000
0000
0000
3001
0000
0010
,
0000
0000
0000
0000
0000
0000
0000
0000
0000
0000
0000
0000
0000
0000
0000
0001
0000
0000
2000
0000
0000
3100
0000
0010
,
0000
0000
0000
0000
0000
0000
0000
0000
0000
0000
0000
0000
0000
0000
0000
0001
0000
0000
2000
0000
0000
3010
0000
0100
,
0000
0000
0000
0000
0001
1000
0200
0310
,
0002
0000
0000
1003
0000
0000
0020
0000
0000
0130
0000
0000
0001
0000
0000
1000
0000
0000
0002
0000
0000
1003
0000
0010
,
0000
0000
0000
0000
0000
0000
0000
0000
0000
0000
0000
0000
0000
0000
0000
0100
0000
0000
0002
0000
0000
1003
0000
0100
,
0000
0000
0020
0032
,
2003
0000
0000
0000
0000
0000
3200
0000
0000
0000
0000
0000
0340
0004
0000
0000
0000
0000
0000
0000
0000
0000
0000
0033
,
0000
0000
0000
0000
0000
0000
0000
0000
0000
0000
0000
0000
0001
0000
0000
0100
0000
0000
0002
0000
0000
1003
0000
0010
,
0000
0000
0010
1000
0000
0000
0002
0000
0000
0013
0000
0000
0000
0000
0000
0001
0000
0000
2000
0000
0000
3100
0000
0010
,
0000
0000
0010
0100
0000
0000
2000
0000
0000
3001
0000
0000
0100
0000
0000
0010
0000
0000
2000
0000
0000
3001
0000
0100
,
0000
0000
0100
0000
0000
0001
1000
0000
0000
0001
0000
0000
0020
0000
0000
0000
0000
0000
0230
0000
0000
0000
0000
0000
,
2300
3002
2003
0000
,
3000
0002
0203
0320
2030
0000
3000
0002
,
0023
0230
2300
3002
2003
3010
0100
0001
,
2000
0000
0000
0000
0000
0000
3020
0000
0000
0000
0000
0000
0430
0004
0000
0000
0000
0000
0000
0000
0000
0000
0000
0303
,
0000
0000
0002
0000
0000
0000
2003
0000
0000
3100
0000
0000
0020
0000
0000
0130
0000
0000
1000
0000
0000
0001
0000
0000
,
2000
0000
0000
0000
0000
0000
3002
0000
0000
0000
0000
0000
4003
0400
0000
0000
0000
0000
0000
0000
0000
0000
0000
3300
,
0000
0000
0200
0000
0000
0000
0320
0000
0000
0031
0000
0000
2000
0000
0000
3010
0000
0000
0200
0000
0000
0301
0000
0000
,
2000
0000
3002
0000
0013
0010
0010
0000
,
0000
0000
0001
1000
0000
0001
2000
0000
0000
3100
0000
0000
0010
0000
0000
0010
0000
0000
0010
0000
0000
0000
0000
0000
,
0000
0000
0001
0010
0000
0001
0020
0000
0000
0130
0000
0000
1000
0000
0000
1000
0000
0000
1000
0000
0000
0000
0000
0000
,
0000
0000
0001
0100
0000
0001
0200
0000
0000
0310
0000
0000
2000
0000
0000
0000
0000
0000
3002
0000
0000
0000
0000
0023
,
0000
0000
0000
0030
2002
3003
0000
0000
;

//---------------dance-single - Medium----------------
#NOTES:
     dance-single:
     Ace Of Hearts (2010):
     Medium:
     5:
     0.225,0.065,0.009,0.233,0.043:
0000
0000
0000
0000
,
4000
0000
0000
0000
3001
0100
0001
0000
,
0400
0000
0300
0000
0001
0001
0001
0000
,
0000
1000
1000
0000
0010
0010
0010
0000
,
0000
0100
0100
0000
0001
0001
0001
0000
,
0000
0000
0000
1000
0000
0000
1000
0000
0000
0000
0000
0000
0002
0000
0000
0000
0000
0000
2003
0000
0000
0000
0000
3020
,
0000
0000
0000
0030
2000
0000
3000
0000
,
0001
0010
0001
0000
0100
0000
0001
1000
,
0002
0000
0003
0000
0100
0000
0010
1000
,
0010
0000
1000
0000
0001
0000
0010
0001
,
0010
0100
1000
0010
,
0100
0001
0100
0000
0020
0000
0030
0000
,
1000
0000
0001
0100
0001
0000
1000
0000
,
0001
0010
0001
0000
4000
0000
0000
0000
,
3000
0000
0000
0000
0000
0000
0000
0000
0000
0000
0000
0000
0001
0000
0000
0001
0000
0000
0001
0000
0000
0000
0000
0001
,
0000
0000
0000
0000
0000
0000
0000
0000
0000
0000
0000
0000
0100
0000
0000
0100
0000
0000
0100
0000
0000
0000
0000
0100
,
0000
0000
0000
0000
0000
0000
0000
0000
0000
0000
0000
0000
0010
0000
0000
0010
0000
0000
0010
0000
0000
0000
0000
0010
,
0000
0000
1000
0010
,
1000
0000
0000
0000
0000
0000
0001
0000
0000
0000
0000
0000
0010
0000
0000
0010
0000
0000
0010
0000
0000
0000
0000
0010
,
0000
0000
0000
0000
0000
0000
0000
0000
0000
0000
0000
0000
0100
0000
0000
0100
0000
0000
0100
0000
0000
0000
0000
0100
,
0000
0000
2000
3002
,
0203
0320
0430
0000
,
0300
0000
0000
0000
0000
0000
0000
0000
0000
0000
0000
0000
0001
0000
0000
1000
0000
0000
0001
0000
0000
0000
0000
0010
,
0000
0000
0000
0001
0000
0000
1000
0000
0000
0001
0000
0000
0000
0000
0000
0010
0000
0000
0001
0000
0000
0000
0000
1000
,
0000
0000
0000
0010
0000
0000
1000
0000
0000
0010
0000
0000
0000
0000
0000
1000
0000
0000
0001
0000
0000
0000
0000
0100
,
0000
0001
1000
0001
0020
0000
0032
0000
,
2003
3020
0230
0000
,
0300
0000
0001
1000
0020
0000
0030
0000
,
1000
0001
1000
0001
0000
0010
0001
0000
,
2000
3020
0230
0000
,
0300
0001
0100
0000
0001
1000
0001
0000
,
0020
0230
2300
0000
,
3000
0001
0010
0000
0001
1000
0001
0000
,
2000
0000
3020
0000
0130
0100
0100
0000
,
0000
0001
0001
0000
1000
1000
1000
0000
,
0000
0100
0100
0000
0010
0010
0010
0000
,
0000
0000
0000
0001
0000
0000
0001
0000
0000
0000
0000
0000
2000
0000
0000
0000
0000
0000
3200
0000
0000
0000
0000
0320
,
0000
0000
0000
0030
1001
0000
0000
0000
;

//---------------dance-single - Easy----------------
#NOTES:
     dance-single:
     Ace Of Hearts (2010):
     Easy:
     3:
     0.156,0.065,0.009,0.121,0.022:
0000
0000
0000
0000
,
0002
0000
1003
1000
,
0020
0000
0030
0000
1000
1000
1000
0000
,
0000
0000
0000
0000
0001
0001
0001
0000
,
0000
0000
0000
0000
0010
0010
0010
0000
,
0000
0000
0001
0001
,
0002
0003
2000
3000
,
0010
0010
1000
1000
,
1000
0000
0001
0001
,
0001
1000
0010
0010
,
0010
0000
1000
0000
,
0001
0001
0002
0003
,
0100
0100
0100
0000
,
0010
0010
0020
0000
,
0030
0000
0000
0000
0000
0000
0000
0000
0000
0000
0000
0000
1000
0000
0000
1000
0000
0000
1000
0000
0000
0000
0000
1000
,
0000
0000
0000
0000
0000
0000
0000
0000
0000
0000
0000
0000
0000
0000
0000
0001
0000
0000
0001
0000
0000
0000
0000
0001
,
0000
0000
0000
0000
0000
0000
0000
0000
0000
0000
0000
0000
0000
0000
0000
0010
0000
0000
0010
0000
0000
0000
0000
0010
,
0000
0000
0001
0001
,
1000
0000
0000
0000
0000
0000
1000
0000
0000
0000
0000
0000
0100
0000
0000
0100
0000
0000
0100
0000
0000
0000
0000
0100
,
0000
0000
0000
0000
0000
0000
0000
0000
0000
0000
0000
0000
0000
0000
0000
0010
0000
0000
0010
0000
0000
0000
0000
0010
,
0000
0000
0001
0001
,
1000
1000
0020
0000
,
0030
0000
1000
1000
,
0001
0001
0001
0000
0000
0000
0100
0000
,
0100
0100
0100
0000
0000
0000
0010
0000
,
0010
0010
0010
0000
1000
0000
1000
0000
,
0001
0001
0020
0000
,
0030
0001
0002
0003
,
1000
1000
1000
0000
0010
0000
0000
0000
,
0100
0100
0200
0000
,
0300
0000
0002
0003
,
1000
1000
2000
0000
,
3000
0000
0200
0300
,
0010
0000
0010
0000
0010
0010
0010
0000
,
0000
0000
0000
0000
0001
0001
0001
0000
,
0000
0000
0000
0000
1000
1000
1000
0000
,
0000
0000
0001
0001
,
0002
0003
1001
0000
;

//---------------dance-single - Novice----------------
#NOTES:
     dance-single:
     Ace Of Hearts (2010):
     Beginner:
     1:
     0.099,0.032,0.009,0.078,0.000:
0000
0000
0000
0000
,
0000
0000
2000
0000
,
3000
0000
0001
0001
,
0000
0000
1000
1000
,
0000
0000
0010
0010
,
0000
0000
1000
0000
,
1000
0000
0001
0000
,
0001
0000
0002
0000
,
0003
0000
0100
0000
,
0100
0000
0200
0000
,
0300
0000
0010
0000
,
0010
0000
0010
0000
,
1000
0000
1000
0000
,
2000
0000
3000
0000
,
0000
0000
0001
0001
,
0001
0000
0000
1000
,
1000
0000
0000
0010
,
0010
0000
1000
0000
,
1000
0000
0001
0001
,
0001
0000
0000
0010
,
0010
0000
0001
0000
,
0001
0000
0002
0000
,
0003
0000
1000
0000
,
1000
0000
0010
0000
,
0010
0000
0100
0000
,
0100
0000
0001
0000
,
0001
0000
2000
0000
,
3000
0000
0001
0000
,
0001
0000
1000
0000
,
1000
1000
2000
0000
,
3000
0000
0001
0000
,
0001
0001
0002
0000
,
0003
0000
0010
0000
,
0010
0010
0010
0010
,
0000
0000
0001
0001
,
0000
0000
1000
1000
,
0000
0000
0010
0010
,
0020
0030
1001
0000
;
