#TITLE:Captain Murasa's Ketsu Anchor;
#SUBTITLE:;
#ARTIST:Iosys;
#TITLETRANSLIT:;
#SUBTITLETRANSLIT:;
#ARTISTTRANSLIT:;
#GENRE:;
#CREDIT:Ace Of Hearts;
#BANNER:Captain Murasa's Ketsu Anchor - bn.png;
#BACKGROUND:Captain Murasa's Ketsu Anchor - bg.jpg;
#LYRICSPATH:;
#CDTITLE:Ace Of Hearts.png;
#MUSIC:Captain Murasa's Ketsu Anchor.ogg;
#OFFSET:0.940;
#SAMPLESTART:13.520;
#SAMPLELENGTH:10.000;
#SELECTABLE:YES;
#BPMS:0.000=190.000,134.000=95.000,138.000=190.000,202.000=95.000,214.000=190.000;
#STOPS:222.000=0.340
;
#BGCHANGES:3.000=Captain Murasa's Ketsu Anchor Video.avi=1.000=0=0=0=StretchNoLoop====,
99999=-nosongbg-=1.000=0=0=0 // don't automatically add -songbackground-
;
#FGCHANGES:;
#KEYSOUNDS:;

//---------------dance-single - Hard----------------
#NOTES:
     dance-single:
     Ace Of Hearts (2010):
     Hard:
     10:
     0.752,0.072,0.246,0.940,0.198:
0000
0000
0000
0000
,
0002
0000
0000
0000
,
0000
0203
0000
0000
,
0000
0000
0000
0320
0000
0000
0000
0000
,
0000
0000
0000
0000
0000
0000
2030
0004
,
0000
3000
0000
0000
,
0023
0000
0000
0000
,
0000
0230
0000
2000
,
0300
0000
0000
3000
1002
0000
0103
0120
,
0000
0000
1030
0000
2002
0000
0003
0000
3004
0040
0000
0000
0000
0000
0000
0000
,
0000
0000
0000
0000
0033
0000
0000
0000
0010
0100
0010
0000
0001
0000
1000
0000
,
0010
1000
0001
1000
1010
0010
0200
0301
,
2000
3100
0010
0011
0000
0001
0010
0100
,
1000
0001
0200
0310
2000
3001
0010
0100
,
1000
0001
1000
2010
0000
3001
0010
0000
,
0200
0000
0310
0000
0011
0001
1000
0010
,
0100
0001
1000
2100
0000
3001
0100
0001
,
1000
0100
0020
0130
1000
0001
0200
0000
,
0301
1000
0001
0000
0010
0000
0100
0000
1000
0000
0010
0000
1000
0000
0000
0000
,
0002
0000
0000
0003
2002
0000
3000
0000
2003
0000
0010
3000
0010
0000
0100
0000
,
0002
0000
1000
0003
1000
0000
0100
0000
0010
0000
0100
0000
1000
0000
0002
0000
,
0000
0000
1000
0003
1000
0000
0000
0000
0010
0000
0100
0000
0001
0000
0000
0000
,
2000
0000
3100
0000
0010
0001
1000
0010
,
1000
0010
1000
0000
0001
0000
1000
0000
0002
0000
0100
0003
0100
0000
0010
0000
,
2000
0000
0001
3000
0001
0000
0010
0000
0100
0000
1000
0000
0001
0000
0100
0000
,
0020
0000
1030
0000
1000
0001
0020
0000
,
0130
0000
0000
0000
1000
0000
0000
0000
0004
4000
0000
0000
0000
0000
0000
0000
,
3003
0000
1000
0000
0100
0000
0000
0000
0020
0000
0100
0030
0100
0000
1000
0000
,
0002
0000
0100
0003
0100
0000
0010
0000
1000
0000
0001
0000
0100
0000
0020
0000
,
1000
0030
1000
0000
0001
0000
0010
0000
0100
0000
0010
0000
0002
0000
0000
0000
,
2003
3200
2300
0000
,
3020
0000
1000
0000
1000
0000
0000
0000
0230
0000
0001
0300
0001
0000
1000
0000
,
0200
0000
0010
0300
0010
0000
0001
0000
1000
0000
0010
0000
0100
0000
0001
0000
,
2000
0000
0010
3000
0010
0000
0100
0000
0001
1000
0100
0000
0010
0000
0100
0000
,
2000
0000
3002
0000
2003
3100
0000
0000
,
0020
0000
0000
0130
0000
0000
0000
1000
0001
0000
1000
0010
1000
0000
0001
1000
,
0001
0100
0020
0000
2030
3001
0000
0000
,
2000
0000
3001
0100
0000
0000
0000
0000
0002
0000
0000
0000
0013
0000
0100
0000
,
1000
0000
0001
0020
0000
0000
0031
0000
2000
0000
3100
0000
0000
0000
0000
0000
,
1000
0001
1000
0000
0010
0000
0000
0000
1000
0010
1000
0000
0001
0000
0010
0000
,
0100
0000
1000
0000
0100
0000
0020
0000
0000
0000
0000
0000
0230
0000
0000
1300
0000
0000
0000
0000
0000
0000
0000
0000
,
0002
0000
1003
0010
0000
0000
0000
0000
0110
0000
0000
0000
0200
0000
0301
0000
,
1000
0100
0040
0000
0130
1000
0100
1000
,
0001
0000
1000
0010
1000
0000
0001
0000
1000
0000
0001
0010
0001
0000
1000
0000
,
0010
0100
0001
0000
0010
0001
0010
0001
,
1000
0010
1000
0000
0001
0000
1000
0000
0001
0000
0010
0000
0100
0000
1000
0000
,
0001
0000
0100
0000
0010
0000
0000
0000
0100
0002
0000
1003
0000
0000
0000
0000
,
0100
0010
0100
0000
0010
0001
1000
0010
,
0100
0000
0001
0000
1000
0000
0000
0000
0400
0040
0000
0000
0000
0000
0000
0000
,
0000
0000
0000
0000
0000
0000
0330
0000
0010
0001
0010
0000
0100
0000
1000
0000
,
0001
0000
1000
0000
0001
0000
0100
0000
0120
0000
1030
0000
0001
1000
0000
1200
,
0000
0000
0000
0000
0310
0000
0000
0000
0001
0000
1000
0000
0000
0000
1020
0000
0000
0000
0000
0000
0130
0000
0000
0000
0001
0000
2000
0000
0000
0000
3100
0010
,
0002
0000
2003
0000
3010
0200
0300
0000
0102
0000
2003
0000
3100
0010
0000
0012
,
0000
0000
0103
0000
0010
1000
0000
0001
0011
0000
0000
0000
0000
0000
0110
0000
,
0000
4200
0000
0000
,
0000
0000
0000
0000
3300
0000
2002
3000
,
0000
0000
0203
0310
2000
3001
0020
0130
,
2000
3001
0000
0001
0100
0020
1030
0000
,
1100
0000
0200
0310
0002
1003
0020
0130
,
0001
2001
0000
3100
0010
0000
0002
1003
,
0010
0100
0002
1003
0200
0310
0002
1003
,
0010
0110
0000
0100
0010
1000
0002
0013
,
0100
0000
0000
0000
0000
0000
1000
0000
0002
0000
0000
0000
0103
0010
0100
0000
,
0001
1000
0100
0010
0100
0000
2000
0000
,
3001
0001
0100
0001
0000
0000
0022
0000
,
0030
0000
0000
1000
0000
1000
1000
1000
,
0000
4000
0003
0000
0000
0000
0000
0000
,
0000
3000
4000
0000
3000
4000
0000
3000
;

//---------------dance-single - Expert----------------
#NOTES:
     dance-single:
     Ace Of Hearts (2010):
     Challenge:
     12:
     1.000,0.000,0.417,0.459,1.000: // measure 1
0000
0000
0000
0000
,  // measure 2
0000
0000
0000
0000
,  // measure 3
2000
0000
0000
0000
0000
0000
0000
0000
0001
3000
0000
0000
0100
0000
0000
0000
0010
0000
0000
0000
0000
0000
0000
0000
0000
0000
0000
0000
0000
0000
0000
0000
0000
0000
0000
0000
1000
0000
0000
0001
0000
0000
0010
0000
0000
0000
0000
0000
,  // measure 4
0000
0100
1000
0001
0100
0000
0000
0110
,  // measure 5
0000
0000
0000
0020
0000
0000
0000
0000
0000
1030
0000
0100
0000
0010
0000
0001
0000
0000
0000
0000
0000
4000
0000
0000
,  // measure 6
0000
0000
0000
3100
0010
0001
1000
0000
,  // measure 7
0000
0000
0000
0010
0100
0001
1000
0100
,  // measure 8
0010
0001
1000
0001
0100
0000
0002
1003
,  // measure 9
0100
0020
0000
0000
0000
0000
0000
0030
2002
0000
0003
0000
3010
0000
0220
0000
,  // measure 10
0030
0000
0301
0000
2002
0000
3000
0000
1003
0010
0100
0010
1000
0001
0010
0100
,  // measure 11
0010
0001
1000
0010
0100
0001
1000
0100
1000
0001
1000
0000
0010
0000
0100
0000
,  // measure 12
1001
0000
0001
0000
1000
0000
0100
0000
0010
0100
1000
0001
0100
0010
1000
0001
,  // measure 13
0010
0000
0001
0000
0000
0000
1001
0000
0001
0010
0100
1000
0001
1000
0001
0100
,  // measure 14
0010
1000
0001
0010
0100
0010
0001
0000
1000
0010
0100
0001
0100
0010
1000
0001
,  // measure 15
1000
0000
0100
0000
0000
0000
0010
0001
1000
0010
0100
0001
1000
0010
1000
0100
,  // measure 16
0010
0001
1000
0010
0100
0001
1000
0100
0010
0100
1000
0001
0100
0010
0100
0001
,  // measure 17
1000
0000
0010
0000
0000
0000
0100
0010
1000
0001
0010
0001
1000
0010
0100
0001
,  // measure 18
1000
0010
0100
0001
0100
0000
0001
0000
1000
0000
0100
0000
0020
0000
0000
0000
,  // measure 19
0031
1000
0010
0000
0100
0000
0010
0000
1000
0000
0001
0000
0011
0000
0000
0000
,  // measure 20
0020
0000
0000
0030
4004
0000
0000
3003
1000
0010
0100
0000
0010
0000
1000
0000
,  // measure 21
0100
0010
0001
0000
1000
0000
0010
0000
0100
0001
1000
0000
0100
0000
1000
0000
,  // measure 22
0001
0100
0010
0000
1000
0001
0010
0000
0001
1000
0100
0000
1000
0000
0001
0000
,  // measure 23
0101
0100
0010
1000
1100
0100
0010
0001
,  // measure 24
1000
0010
0100
0010
1000
0001
0010
0100
0010
0001
1000
0000
0010
0000
0100
0000
,  // measure 25
0010
1000
0001
0000
0010
0000
0100
0000
0010
0000
0001
0000
1000
0000
0010
0000
,  // measure 26
0100
0000
0001
0000
1000
0001
0100
0000
0010
0000
0010
0000
0010
0000
0010
0000
,  // measure 27
0110
0000
0000
0000
1001
0000
0000
0000
1000
0001
1000
0001
1000
0001
1000
0001
,  // measure 28
1000
0000
0010
0000
0100
0001
1000
0100
0010
0000
0001
1000
0010
0100
0001
0000
,  // measure 29
1000
0010
0100
0010
1000
0100
0010
0001
1000
0000
0010
0100
0001
1000
0001
0000
,  // measure 30
0010
0000
0001
1000
0010
0100
0010
1000
0001
0000
0100
0010
1000
0000
0001
0000
,  // measure 31
0010
0001
0010
0100
1000
0100
0010
0001
1000
0001
0100
0010
1000
0010
0100
0000
,  // measure 32
0010
0100
0001
1000
0100
0010
0100
1000
0001
0000
1000
0010
0000
1000
0001
0000
,  // measure 33
0010
0001
1000
0010
0100
0001
0100
0010
1000
0000
0001
0010
0100
0000
1000
0000
,  // measure 34
1001
0000
0000
0000
0001
0000
0100
0000
0010
0000
1000
0000
0001
0000
0010
0000
0100
0000
0010
0000
0001
0000
0000
0000
2000
0000
3001
0100
0010
0000
0100
0000
,  // measure 35
0002
0000
1003
0000
0100
0000
0010
0000
0100
1000
0100
0010
0001
1000
0001
1000
0010
0000
0000
0000
0200
0000
0000
0000
0300
0000
0000
0000
0000
0000
0000
0000
,  // measure 36
0102
0000
1003
0100
0000
0000
0000
0100
0010
0000
0001
1000
0010
0000
0100
0001
,  // measure 37
1000
0010
0100
0000
0002
0000
0000
0003
0201
0000
0310
0000
0000
0000
0000
0000
,  // measure 38
0020
0000
1030
0001
0000
0000
0000
0000
0201
0000
0000
0000
0310
0000
0000
0000
,  // measure 39
1000
0000
0001
0010
0100
0000
0020
0000
0031
0000
1000
0000
0000
0000
0000
0000
,  // measure 40
0001
0100
0010
0000
1000
0000
0000
0000
0010
0100
0001
0000
1000
0000
0100
0000
,  // measure 41
0010
0000
0000
0000
0001
0000
0000
0000
1000
0000
0000
0000
0020
0000
0000
0000
0000
0000
0000
0000
0000
0000
0000
0000
1030
0000
0000
0001
0000
0000
0010
0000
0000
0100
0000
0000
0010
0000
0000
0001
0000
0000
1000
0000
0000
0010
0000
0000
,  // measure 42
0100
0010
1000
0001
0010
0100
0010
0001
1000
0010
1000
0000
0001
0100
0010
0100
,  // measure 43
0001
1000
0100
0010
0100
1000
0001
0100
0110
0000
0010
0000
1010
0000
1000
0000
,  // measure 44
0001
0000
1000
0010
0100
0000
0001
0000
0011
0000
0010
0000
0100
0000
1000
0000
,  // measure 45
1001
0001
0100
0000
0110
0010
1010
1000
,  // measure 46
0001
0100
0010
0000
1000
0000
0001
0000
0101
0000
0100
0000
0010
0000
1000
0000
,  // measure 47
1100
0100
0010
0000
0020
0031
2000
3010
,  // measure 48
0200
0301
2000
3100
0020
0130
2000
3001
,  // measure 49
0200
0000
0310
0000
2000
0000
3001
0000
1000
0100
0010
0001
1000
0100
0010
0001
,  // measure 50
1000
0010
1000
0001
0010
0100
0010
0001
1000
0010
1000
0000
0001
0000
0100
0000
,  // measure 51
0110
0000
0010
0000
0100
0000
0001
0000
0022
0003
0230
0000
1300
0001
0100
0120
,  // measure 52
0000
0000
1030
0000
0001
0000
1000
0000
0010
0000
1000
0000
0100
0000
0120
0000
0000
0000
0031
0000
0100
0000
0010
0000
1000
0000
0001
0000
0010
0000
0001
1000
,  // measure 53
0010
0000
0100
0000
0001
0100
0010
0000
1000
0000
0001
0000
0100
0001
1000
0000
1020
0000
0130
0000
0001
0000
1000
0000
0100
0000
1000
0000
0010
0000
0210
0000
,  // measure 54
0000
0301
1000
0100
0010
0001
1000
0100
0110
0000
0010
0000
0001
0000
0101
0000
,  // measure 55
0100
0010
2020
0000
0030
3001
0010
0001
,  // measure 56
1000
0000
0010
0000
0100
0000
0000
0000
0010
0000
1000
0000
0001
0000
1000
0000
0020
0030
0000
0000
0000
0000
0000
0000
1000
0000
0001
0000
0010
0000
0001
0000
,  // measure 57
1000
0010
0100
0001
1000
0100
0010
0100
1000
0001
0100
0010
1000
0000
0001
0000
,  // measure 58
0000
0000
1001
0000
0001
0010
0001
1000
0100
0010
0100
1000
0001
0100
0010
1000
,  // measure 59
0001
0100
0010
0000
1000
0001
0010
0100
0010
0001
1000
0010
0100
0000
0001
0000
,  // measure 60
0000
0000
1001
0000
0001
0010
0001
1000
0010
0100
0001
1000
0100
0010
0100
1000
,  // measure 61
0001
0100
0010
1000
0001
0100
0010
1000
0001
0010
0001
1000
0010
0000
0100
0000
,  // measure 62
0000
0000
1001
0000
1000
0010
0100
0001
1000
0100
0010
0001
1000
0010
0100
0001
,  // measure 63
1000
0000
0010
0000
0000
0000
1000
0000
0002
0000
0000
0000
0013
0100
1000
0000
,  // measure 64
0001
0100
0110
0010
1000
0000
1200
0000
,  // measure 65
0310
0010
0001
1000
0000
0000
2001
0000
,  // measure 66
0000
0000
0000
0100
0000
0010
0010
0010
,  // measure 67
0000
0000
0004
0003
3004
0003
0004
0003
0004
0003
0004
0003
0004
0000
0000
0003
,  // measure 68
0004
0000
0000
0003
0004
0000
0000
0000
0000
0003
0004
0000
0000
0000
0003
0000
;

//---------------dance-single - Medium----------------
#NOTES:
     dance-single:
     Ace Of Hearts (2010):
     Medium:
     8:
     0.508,0.072,0.043,0.609,0.027:
0000
0000
0000
0000
,
0002
0000
0000
0000
,
0000
0023
0000
0000
,
0000
0000
0000
0230
0000
0000
0000
0000
,
0000
0000
0000
0000
0000
0000
0000
4300
,
0000
0000
0000
0000
,
3020
0000
0000
0000
,
0000
2030
0000
0000
,
0000
0000
3000
0000
0010
0000
1000
0001
,
0000
0000
1000
0000
0002
0000
0000
0000
4003
0004
0000
0000
0000
0000
0000
0000
,
0000
0000
3003
0000
0001
0100
0001
1000
,
0100
1000
0001
0100
0010
0000
2000
0000
,
3001
0100
0000
0010
0000
0100
0001
1000
,
0100
0020
0130
2000
,
3001
0100
0000
0010
0000
1000
0001
0000
,
0200
0300
0010
2000
,
3001
0010
0000
0100
0000
0010
0001
1000
,
0010
0000
0200
0000
0300
0001
2000
0000
,
3001
0010
0100
0010
0001
1000
0010
0000
,
2000
0000
3000
0000
0002
0000
0003
1000
,
0020
0000
0030
1000
0010
1000
0001
0020
,
0000
0000
0030
0000
0001
0010
0100
0000
,
1000
0001
0200
0300
,
0020
0000
0030
0000
2000
0000
3000
0001
,
0020
0000
0030
0001
1000
0010
1000
0001
,
0020
0000
0030
0000
0001
1000
0010
0000
,
1000
0001
0020
0030
,
0200
0000
0300
0000
2000
0000
3000
0001
,
0200
0000
0300
0001
0100
0010
0100
0002
,
0000
0003
0000
0000
1000
0100
1000
0000
,
0001
0100
0020
0030
,
2000
0000
3000
0000
0002
0000
0003
1000
,
0020
0000
0030
1000
0001
0010
0001
1000
,
0020
0000
0030
0000
1000
0100
0010
0001
,
2000
0000
0200
3000
0310
0001
0000
0000
,
1000
0010
0000
0000
1000
0010
1000
0001
,
0010
0100
1000
0000
0001
0100
0000
0000
,
0010
0100
0001
0000
2000
0000
3100
0000
,
0010
0001
0000
1000
0010
1000
0000
0000
,
0001
0100
0000
0000
0010
1000
0001
1000
,
0100
0010
0001
0000
1000
0010
0000
0000
,
1000
0010
0100
0000
0001
0000
2000
0000
,
3100
0010
0002
0000
1003
0010
1000
0000
,
0001
0100
0001
0000
1000
0100
0010
0100
,
1000
0001
0100
0000
0010
1000
0010
0000
,
1000
0001
1000
0000
0001
0010
0001
1000
,
0010
0100
0001
0000
1000
0100
0000
0000
,
0010
0100
0000
0000
1000
0100
0010
0001
,
0010
0000
0100
0000
1000
0000
0000
0000
0004
4000
0000
0000
0000
0000
0000
0000
,
0000
0000
3003
0000
1000
0100
0010
0100
,
1000
0000
0000
0000
0000
0000
0000
0000
0002
0000
0103
0000
0010
0000
0000
2000
,
0000
0000
3100
0000
0010
0000
0000
0002
0000
0000
0013
0000
0100
0000
0000
0000
,
0010
0000
0001
0000
1000
0000
0000
0000
0020
0000
1030
0000
0001
0000
0000
0020
,
0000
0130
1000
0000
1001
0000
0000
0110
,
0000
2002
0000
0000
,
0000
0000
3003
2000
,
0000
0000
3010
0000
0200
0000
0301
1000
,
0000
0010
0000
1000
0001
0010
0001
0000
,
2000
0000
3010
0000
0200
0000
0310
1000
,
0000
0002
0000
0013
0100
0000
2000
0000
,
3000
0000
0001
0000
0200
0000
0310
1000
,
0000
0002
0000
1003
0010
0100
0001
0000
,
2000
0000
3000
0001
0020
0000
0031
1000
,
0010
1000
0001
0100
0010
0000
2000
0000
,
3001
0010
0001
1000
0000
0000
2020
0000
,
0000
0000
3000
0000
,
0000
0400
0030
0000
0000
0000
0000
0000
,
0000
0000
0000
0000
0000
0300
0000
0000
;

//---------------dance-single - Easy----------------
#NOTES:
     dance-single:
     Ace Of Hearts (2010):
     Easy:
     5:
     0.249,0.071,0.011,0.203,0.000:
0000
0000
0000
0000
,
0002
0000
0000
0000
,
0000
2003
0000
0000
,
0000
0000
0000
3020
0000
0000
0000
0000
,
0000
0000
0000
0000
0000
0000
0000
4030
,
0000
0000
0000
0000
,
3002
0000
0000
0000
,
0000
2003
0000
0000
,
0000
0000
0000
0000
3010
0000
0000
0010
,
0000
0020
4030
0000
,
0000
0000
3000
0000
,
0000
0000
0001
0000
,
0001
0000
1000
0010
,
1000
0000
0010
0000
,
0010
0000
1000
0001
,
1000
0000
0001
0000
,
0001
0000
0010
0001
,
0010
0000
0000
0001
,
0001
0000
1000
0010
,
1000
0000
0001
0000
,
0001
0000
1000
0100
,
1000
0000
0001
0000
,
0100
0000
0002
0000
,
2003
0000
3010
0000
,
0010
0000
1000
0001
,
1000
0000
0001
0000
,
0001
0000
0020
0000
,
0230
0000
1300
0000
,
1000
0000
0001
0100
,
0001
0000
1000
0010
,
1000
0000
0002
0000
,
2003
0000
3010
0000
,
0100
0000
0001
0100
,
0001
0000
2000
3001
,
0020
0031
1000
0000
,
1000
0000
0010
1000
,
0010
0000
0100
0000
,
0001
0000
1000
0001
,
1000
0000
0001
0000
,
0010
0000
0100
1000
,
0100
0000
0010
0000
,
0001
0000
1000
0010
,
1000
0000
0001
0010
,
0001
0000
1000
0100
,
1000
0000
0001
1000
,
0001
0000
0100
0001
,
0100
0000
0010
0000
,
0010
0000
1000
0001
,
1000
0000
0040
0000
,
0000
0000
0030
0000
,
0000
0000
1000
1000
,
0001
0001
0100
0100
,
0010
0010
1000
1000
,
0001
0000
0001
0000
0010
0000
0000
0100
,
0000
2000
0000
0000
,
0000
0000
3000
0002
,
0000
1003
0000
1000
,
0000
0010
1000
0010
,
0000
0100
0000
0100
,
0000
0001
1000
0001
,
0000
0010
0000
0010
,
0000
0001
0010
0001
,
0000
0000
1000
1000
,
0000
0010
1000
0001
,
2000
0000
0000
3000
0000
0000
2002
0000
,
0000
0000
0000
0000
,
0000
3003
0000
0000
;

//---------------dance-single - Novice----------------
#NOTES:
     dance-single:
     Ace Of Hearts (2010):
     Beginner:
     2:
     0.175,0.035,0.011,0.182,0.000:
0000
0000
0000
0000
,
0001
0000
0000
0000
,
0000
0001
0000
0000
,
0000
0000
1000
0000
,
0000
0000
0000
2000
,
0000
3000
0000
0000
,
1000
0000
0000
0000
,
0000
0010
0000
0000
,
0000
0000
0020
0000
,
0000
0030
0040
0000
,
0000
0000
0030
0000
,
0000
0000
1000
0000
,
1000
0000
2000
0000
,
3000
0000
0001
0000
,
0001
0000
0002
0000
,
0003
0000
0010
0000
,
0010
0000
0020
0000
,
0030
0000
0100
0000
,
0100
0000
0200
0000
,
0300
0000
0010
0000
,
0010
0000
0010
0000
,
0000
0000
0001
0000
,
0001
0000
0002
0000
,
0003
0000
1000
0000
,
1000
0000
1000
0000
,
0000
0000
0010
0000
,
0010
0000
0020
0000
,
0030
0000
1000
0000
,
1000
0000
1000
0000
,
0000
0000
0001
0000
,
0001
0000
0002
0000
,
0003
0000
0100
0000
,
0100
0000
0100
0000
,
0000
0000
0010
0000
,
0010
0000
1000
0000
,
1000
0000
0001
0000
,
0001
0000
0010
0000
,
0010
0000
0001
0000
,
0001
0000
1000
0000
,
1000
0000
0010
0000
,
0010
0000
1000
0000
,
1000
0000
0001
0000
,
0001
0000
1000
1000
,
1000
0000
0001
0000
,
0001
0000
0010
0010
,
0010
0000
0100
0000
,
0100
0000
1000
0000
,
1000
0000
0001
0000
,
0001
0000
0040
0000
,
0000
0000
0030
0000
,
0000
0000
0001
0000
,
0001
0000
1000
0000
,
1000
0000
0100
0000
,
0100
0000
0000
0000
0010
0000
0000
0010
,
0000
0020
0000
0000
,
0000
0000
0030
0000
,
0000
0001
0000
0001
,
0000
0002
0000
0003
,
0000
1000
0000
1000
,
0000
2000
0000
3000
,
0000
0010
0000
0010
,
0000
0020
0000
0030
,
0000
0100
0000
0100
,
0000
0200
0000
0300
,
0002
0003
0000
2002
,
0000
0000
0000
0000
,
0000
3003
0000
0000
;
