#TITLE:Ba Be Loo Be Ra;
#SUBTITLE:;
#ARTIST:Kristeen;
#TITLETRANSLIT:;
#SUBTITLETRANSLIT:;
#ARTISTTRANSLIT:;
#GENRE:Pop;
#CREDIT:Ace Of Hearts;
#BANNER:Ba Be Loo Be Ra - bn.png;
#BACKGROUND:Ba Be Loo Be Ra - bg.jpg;
#LYRICSPATH:;
#CDTITLE:Ace Of Hearts.png;
#MUSIC:Ba Be Loo Be Ra.ogg;
#OFFSET:0.920;
#SAMPLESTART:39.000;
#SAMPLELENGTH:15.000;
#SELECTABLE:YES;
#BPMS:0.000=126.000;
#STOPS:;
#BGCHANGES:1.833=Ba Be Loo Be Ra Video.avi=1.000=0=0=0=StretchNoLoop====,
99999=-nosongbg-=1.000=0=0=0 // don't automatically add -songbackground-
;
#KEYSOUNDS:;

//---------------dance-single - Hard----------------
#NOTES:
     dance-single:
     Ace Of Hearts (2010):
     Hard:
     8:
     0.553,0.000,0.129,1.000,0.479: // measure 1
0000
0000
0000
0000
,  // measure 2
0000
0000
0000
0000
,  // measure 3
0000
0000
0000
0000
,  // measure 4
0002
0000
0000
0023
0000
0000
0130
0000
1000
0000
0000
0000
0000
0000
0010
0000
,  // measure 5
2000
0000
0000
3002
0000
0000
1003
0000
0000
0000
0010
0000
0100
0000
0001
0000
,  // measure 6
2000
0000
3100
0010
0000
0100
0000
2000
0000
0000
3000
0000
0000
0000
0001
0000
,  // measure 7
1000
0020
0000
1030
0000
0001
0000
0200
0000
0000
0300
0000
0000
0000
0000
0000
,  // measure 8
0020
0000
1030
0001
0000
0010
0000
0200
0000
0000
0000
0000
0300
0000
1000
0000
,  // measure 9
0001
0000
1000
0020
0000
0130
0000
0002
0000
0000
0003
0000
0000
0000
1000
0000
,  // measure 10
0020
0000
1030
0001
0000
1000
0000
0020
0000
0000
0030
0000
0000
0000
1000
0000
,  // measure 11
0020
0000
0130
0001
0000
1000
0000
0200
0000
0000
0300
0000
0000
0000
0000
0000
,  // measure 12
2000
0000
0000
3002
0000
0000
0013
0000
0100
0000
0000
0000
0000
0000
0010
0000
,  // measure 13
0002
0000
0000
2003
0000
0000
3100
0000
0000
0000
1000
0000
0001
0000
0100
0000
,  // measure 14
0010
1000
0000
0002
0000
0013
0000
0200
0000
0000
0300
0000
0000
0000
0010
0000
,  // measure 15
0002
0000
1003
0010
0000
0100
0000
0020
0000
0000
0030
0000
0000
0000
0000
0000
,  // measure 16
1000
0002
0000
0103
0000
0010
0000
0200
0000
0000
0300
0000
0000
0000
0001
0000
,  // measure 17
2000
0000
3100
0010
0000
0001
0000
2000
0000
0000
3000
0000
0000
0000
0000
0000
,  // measure 18
0020
0000
1030
0001
0000
0010
0000
0002
0000
0000
0003
0000
0000
0000
1000
0000
,  // measure 19
0020
0000
1030
0001
0000
0100
0000
0020
0000
0000
0030
0000
0000
0000
0000
0000
,  // measure 20
1000
0010
0000
0200
0000
0310
0000
0000
1000
0000
0000
0002
0000
0000
0103
0000
,  // measure 21
0020
0000
1030
0001
0000
0000
1000
0000
0020
0000
0000
0000
0000
0000
0030
0000
,  // measure 22
0120
0000
0000
0000
2030
0000
0000
3000
1002
0000
0000
0000
0023
0000
0000
0000
,  // measure 23
0230
0000
0000
0000
0000
0000
0000
0000
1300
0000
0001
0000
0010
0100
0000
0020
,  // measure 24
0000
0000
0000
0000
0032
0000
0000
0003
2001
0000
0000
0000
3020
0000
0000
0000
,  // measure 25
0230
0000
0000
0000
0020
0300
0000
1030
,  // measure 26
0002
0000
1003
0100
0000
1000
0002
0000
0000
0000
0003
0000
0000
0000
0000
0000
,  // measure 27
0200
0310
1000
0001
0010
0200
0300
0000
,  // measure 28
0120
0032
2000
0003
,  // measure 29
3200
0000
0000
0310
0000
0000
0002
0000
0000
0000
0000
0000
0003
0000
0000
0000
,  // measure 30
0201
0000
0000
0000
0320
0000
0000
0030
2010
0000
0000
0000
3002
0000
0000
0000
,  // measure 31
0203
0000
0000
0000
0000
0000
0310
1000
0010
2000
0000
3001
0000
0010
0000
0200
,  // measure 32
0000
0000
0000
0000
0320
0000
0000
0030
0012
0000
0000
0000
2003
0000
0000
3000
,  // measure 33
1020
0000
0000
0000
0200
0030
0000
0302
,  // measure 34
1003
0000
0100
0000
0010
0001
1000
0002
0000
0000
0003
0000
0000
0000
0000
0000
,  // measure 35
2000
3100
0010
0001
0010
0200
0300
0000
,  // measure 36
2100
3002
0203
0000
,  // measure 37
0320
0000
0000
1030
0000
0000
0002
0000
0000
0000
0000
0000
0003
0000
0000
0000
,  // measure 38
2000
0000
0000
3020
0000
0000
0130
0000
0001
0000
0000
0000
0000
0000
1000
0000
,  // measure 39
0200
0000
0000
0320
0000
0000
0031
0000
0000
0000
1000
0000
0010
0000
1000
0000
,  // measure 40
0002
0000
0000
0203
0000
0000
0310
0000
1000
0000
0000
0000
0000
0000
0001
0000
,  // measure 41
0200
0000
0000
0320
0000
0000
1030
0000
0001
0000
1000
0000
0010
0000
0100
0000
,  // measure 42
0002
0000
0000
0000
0000
1003
0000
0100
0000
0010
0000
0200
0000
1300
0001
0000
,  // measure 43
1000
0000
0010
0100
0000
0001
0000
2000
0000
0000
3000
0000
0000
0000
0000
0000
,  // measure 44
0001
0010
0000
0002
0000
2003
0000
3010
0000
0100
0000
0002
0000
0000
1003
0000
,  // measure 45
0200
0000
0310
0001
0000
1000
0000
0020
0000
0000
0030
0000
0000
0000
0000
0000
,  // measure 46
1000
0010
0000
0200
0000
0310
0000
1000
0000
0001
0000
0020
0000
0000
0031
0000
,  // measure 47
1000
0010
0000
0200
0000
0310
0000
2000
0000
0000
3000
0000
0000
0000
0000
0000
,  // measure 48
0001
0010
0000
0002
0000
1003
0000
0020
0000
0130
0000
0002
0000
1003
0100
0000
,  // measure 49
0010
0100
1000
0001
0020
0000
0030
0000
,  // measure 50
0210
0000
0000
0000
2300
0000
0000
3000
1002
0000
0000
0000
0203
0000
0000
0000
,  // measure 51
0320
0000
0000
0000
0000
0000
0000
0000
2030
0000
3001
0000
0100
0010
0000
2000
,  // measure 52
0000
0000
0000
0000
3002
0000
0000
0003
0201
0000
0000
0000
0320
0000
0000
0000
,  // measure 53
2030
0000
0000
0000
0002
3000
0000
0103
,  // measure 54
0020
0000
1030
0001
0000
1000
0200
0000
0000
0000
0300
0000
0000
0000
0000
0000
,  // measure 55
0020
0130
1000
0001
1000
0020
0030
0000
,  // measure 56
0210
0302
2003
0000
,  // measure 57
3020
0000
0000
0130
0000
0000
0002
0000
0000
0000
0103
0000
0010
0000
0010
0000
,  // measure 58
2002
3003
0000
0000
;

//---------------dance-single - Expert----------------
#NOTES:
     dance-single:
     Ace Of Hearts (2010):
     Challenge:
     10:
     0.949,0.000,0.378,0.710,1.000: // measure 1
0000
0000
0000
0000
,  // measure 2
0000
0000
0000
0000
,  // measure 3
0000
0000
0000
0000
,  // measure 4
0102
0000
1003
0010
0000
0010
1000
0000
1100
0000
0000
0000
0100
0000
0010
0000
,  // measure 5
0012
0000
0000
0000
1003
0000
0010
0000
0000
0000
0010
0000
1000
0000
0001
0000
1000
0100
1000
0000
0001
0000
1000
0000
0100
0000
0010
0000
0001
0000
1000
0000
,  // measure 6
0020
0000
0130
0001
0000
1000
0000
0200
0000
0310
0001
0000
1000
0010
0100
0001
,  // measure 7
0100
0010
0000
1000
0000
0001
0100
0020
0000
1030
0001
0010
0001
1000
0010
0100
,  // measure 8
0001
1000
0100
0010
0000
0100
1000
0001
0100
0010
0100
0001
0000
1000
0100
0010
,  // measure 9
0001
0010
0100
1000
0000
0001
0100
0020
0000
1030
0100
0010
0100
1000
0001
0100
,  // measure 10
0010
1000
0001
0100
0000
0010
0000
2010
0000
3001
0010
0001
1000
0010
0100
0001
,  // measure 11
1000
0000
0100
0010
0000
0100
1000
0002
0000
0103
0010
0100
0001
1000
0100
0010
,  // measure 12
0002
0000
1003
0010
0000
0010
0100
0000
0101
0000
0001
0010
0001
0000
1000
0000
,  // measure 13
1020
0000
0130
0001
0000
0100
0010
0000
1000
0010
0100
0000
0002
0000
1003
0000
,  // measure 14
0100
0010
0001
1000
0000
0010
0100
0002
0000
1003
0010
1000
0001
0010
0100
1000
,  // measure 15
0001
0100
0010
0100
0000
0001
1000
0200
0000
1300
0001
0100
0010
1000
0010
0100
,  // measure 16
0001
0100
0010
1000
0000
0001
1000
0010
0000
0100
0001
1000
0100
0010
0001
1000
,  // measure 17
0001
0000
0010
0100
0000
1000
0000
0002
0000
1003
0010
0100
0010
1000
0100
0010
,  // measure 18
0001
1000
0001
0100
0000
0001
0000
0021
0000
0130
1000
0001
0000
0100
0001
1000
,  // measure 19
0010
1000
0100
0010
0000
0100
0010
0002
0000
1003
0010
0000
1000
0100
0010
0001
,  // measure 20
1000
0010
0100
0010
1000
0001
0010
0100
0010
0001
1000
0010
0100
0001
1000
0100
,  // measure 21
0010
0100
1000
0001
0000
0000
0100
0000
0020
0000
1030
0001
0010
0001
1000
0010
,  // measure 22
0210
0000
0000
0301
2000
0000
3100
0000
0120
0000
0031
0000
2000
3010
0100
0000
,  // measure 23
0102
0000
0000
1003
0100
0000
0010
0000
0100
0000
1000
0000
0001
0100
0000
0010
,  // measure 24
2010
0000
3001
0000
0200
0310
1000
0000
1002
0000
0000
0103
0020
0000
1030
0000
,  // measure 25
1200
0000
0000
0310
0001
0000
1000
0000
0020
0130
0001
0000
1000
0000
0001
0000
,  // measure 26
2001
0000
3010
0100
0000
0001
2000
0000
0000
3100
0010
0000
0100
1000
0001
0100
,  // measure 27
0010
0000
1000
0010
0000
0010
0100
0000
0001
1000
0100
0000
0010
0000
0001
0000
,  // measure 28
2001
0000
0000
3010
0200
0000
0301
0000
0021
0000
0130
0000
1000
0001
0100
0000
,  // measure 29
0120
0000
0000
1030
0001
0000
0022
0000
0000
0000
0033
0000
0010
0100
0010
0001
,  // measure 30
2001
0000
0000
3010
0200
0000
0301
0000
2000
0000
3100
0000
0020
0130
1000
0000
,  // measure 31
1002
0000
0103
0010
0000
0010
1000
0001
1000
0100
0000
0010
0000
0100
0000
1000
,  // measure 32
1002
0000
0000
0103
0020
0000
1030
0000
2100
0000
3001
0000
0200
0310
1000
0000
,  // measure 33
1200
0000
0000
0310
0001
0000
1000
0000
1020
0000
0130
0000
0001
0000
1000
0000
,  // measure 34
1100
0000
0100
0000
0010
1000
0010
0200
0000
1300
0001
0000
1001
0000
1000
0000
,  // measure 35
0010
0000
0100
0000
0001
0000
0010
0000
0100
1000
0001
0000
0100
0000
0010
0000
,  // measure 36
2010
0000
0000
3001
0200
0000
0310
0000
0210
0000
0301
0000
1000
0100
0010
0100
,  // measure 37
1000
0001
0100
0010
1000
0000
2002
0000
0000
0000
3003
0000
0001
1000
0100
0010
,  // measure 38
0001
0000
0000
0000
1000
0010
1000
0000
0001
0010
0000
0010
0001
0000
1000
0000
,  // measure 39
0010
0100
0000
0100
0010
0000
1000
0100
0010
0000
0001
0010
0100
0000
1000
0000
,  // measure 40
0001
0100
0001
0100
0010
1000
0010
0000
1000
0001
0000
0001
1000
0000
0010
0000
,  // measure 41
0100
0001
1000
0001
0100
0000
0010
1000
0001
0010
0100
0000
1000
0001
0100
0010
,  // measure 42
2000
0000
0001
3000
0001
0100
0010
1000
0000
0001
0000
0010
0000
0001
1000
0000
,  // measure 43
0010
0100
0001
1000
0000
0100
0010
0002
0000
1003
0010
0000
0100
0010
1000
0001
,  // measure 44
0010
0001
1000
0010
0000
1000
0100
0010
0000
0001
0000
1000
0000
0010
0100
0001
,  // measure 45
0100
0010
1000
0001
0000
0010
0001
1000
0000
0100
1000
0001
0100
0001
1000
0100
,  // measure 46
1000
0001
0100
0010
0000
0100
0001
1000
0000
0100
0010
0001
0000
1000
0010
0100
,  // measure 47
0001
1000
0100
0010
0000
0100
0000
2100
0000
3001
0100
0010
1000
0001
0010
0100
,  // measure 48
1000
0001
0010
0001
1000
0010
0100
0001
1000
0001
0100
0010
1000
0001
0010
0100
,  // measure 49
1000
0001
1000
0000
0010
1000
0001
1000
0100
0010
0001
1000
0010
0100
0001
1000
,  // measure 50
1020
0000
0000
0130
0002
0000
1003
0000
1200
0000
0310
0000
0002
1003
0010
0000
,  // measure 51
0210
0000
0000
0301
1000
0000
0100
0000
0010
0000
0001
0000
1000
0001
0000
0100
,  // measure 52
0120
0000
0000
1030
0002
0000
1003
0000
0020
0000
0130
0000
0002
1003
0100
0000
,  // measure 53
0120
0000
0031
1000
0010
0000
0100
0000
0002
0000
1003
0000
0100
0000
0010
0000
,  // measure 54
0012
0000
1003
0010
0000
0010
0200
0000
0000
0310
1000
0001
0010
0100
1000
0001
,  // measure 55
0200
0000
0310
0000
0100
0000
0001
0000
1000
0100
0010
0000
0100
0000
1000
0000
,  // measure 56
1002
0000
0000
0103
0020
0000
1030
0000
1200
0000
0310
0000
0001
0000
1000
0000
,  // measure 57
1020
0000
0000
0130
0001
0000
2001
0000
0000
0000
3100
0000
0010
0000
0010
0000
,  // measure 58
2002
3003
0000
0000
;

//---------------dance-single - Medium----------------
#NOTES:
     dance-single:
     Ace Of Hearts (2010):
     Medium:
     6:
     0.380,0.000,0.000,0.728,0.074: // measure 1
0000
0000
0000
0000
,  // measure 2
0000
0000
0000
0000
,  // measure 3
0000
0000
0000
0000
,  // measure 4
0001
0000
0000
2000
0000
0000
0000
0000
3100
0000
0000
0000
0000
0000
1000
0000
,  // measure 5
0001
0000
0000
0020
0000
0000
0031
0000
0000
0000
0000
0000
0000
0000
0000
0000
,  // measure 6
1000
0000
0010
1000
0020
0000
0030
0000
,  // measure 7
1000
0000
0001
0010
0002
0000
0003
0000
,  // measure 8
2000
0000
3010
1000
0020
0000
0030
0000
,  // measure 9
1000
0000
0001
0100
0002
0000
0003
0000
,  // measure 10
0020
0000
0031
1000
0002
0000
0003
0000
,  // measure 11
2000
0000
3100
1000
0200
0000
0300
0000
,  // measure 12
0010
0000
0000
0002
0000
0000
0000
0000
1003
0000
0000
0000
0000
0000
0010
0000
,  // measure 13
1000
0000
0000
0002
0000
0000
0103
0000
0000
0000
0000
0000
0000
0000
0000
0000
,  // measure 14
0010
0000
0100
0001
0200
0000
0300
0000
,  // measure 15
0010
0000
1000
0010
2000
0000
3000
0000
,  // measure 16
0001
0000
0100
0001
0200
0000
0300
0000
,  // measure 17
0001
0000
1000
0001
2000
0000
3000
0000
,  // measure 18
0020
0000
0000
0030
1000
0000
0010
0000
2000
0000
0000
0000
3000
0000
0000
0000
,  // measure 19
0002
0000
0000
0003
1000
0000
0010
0000
2000
0000
0000
0000
3000
0000
0000
0000
,  // measure 20
0100
0000
0000
1000
0000
0000
0001
0000
2000
0000
0000
0000
3001
0000
0000
0000
,  // measure 21
2000
0000
0000
3010
0000
0000
1000
0000
0002
0000
0000
0000
0003
0000
0000
0000
,  // measure 22
0020
0032
2003
3002
,  // measure 23
0023
0000
0030
0000
0001
1000
0010
0000
,  // measure 24
0200
0320
0230
0302
,  // measure 25
2003
0000
0000
0000
3000
0000
0000
0001
,  // measure 26
0010
0000
0000
0001
0000
0000
1000
0000
0000
0000
0000
0000
0000
0000
0000
0000
,  // measure 27
0010
1000
0010
0000
0100
0000
0000
0000
,  // measure 28
0002
2003
3200
0300
,  // measure 29
0020
0000
0000
0031
0000
0000
2000
0000
0000
0000
0000
0000
3000
0000
0000
0000
,  // measure 30
0020
2030
3002
2003
,  // measure 31
3200
0000
0300
0010
0001
0000
1000
0010
,  // measure 32
2000
3020
2030
3002
,  // measure 33
0203
0000
0000
0000
0300
0000
0000
0010
,  // measure 34
1000
0000
0001
0000
2000
0000
0000
3100
0000
0000
0000
0000
0000
0000
0000
0000
,  // measure 35
0010
0001
0010
0000
0100
0000
0000
0000
,  // measure 36
2000
3002
0203
0300
,  // measure 37
0020
0000
0000
1030
0000
0000
0002
0000
0000
0000
0000
0000
0003
0000
0000
0000
,  // measure 38
1000
0000
0000
0020
0000
0000
0000
0000
0130
0000
0000
0000
0000
0000
0001
0000
,  // measure 39
0100
0000
0000
0020
0000
0000
1030
0000
0000
0000
0001
0000
1000
0000
0000
0000
,  // measure 40
0001
0000
0000
0020
0000
0000
0000
0000
0130
0000
0000
0000
0000
0000
0000
0000
,  // measure 41
0010
0000
0000
0002
0000
0000
1003
0000
0000
0000
0010
0000
1000
0000
0000
0000
,  // measure 42
0002
0000
0003
0000
0010
0001
0010
0000
,  // measure 43
0001
1000
0001
0000
0200
0000
0300
0000
,  // measure 44
0020
0000
0030
0000
1000
0010
1000
0000
,  // measure 45
0001
0000
1000
0100
1000
0000
0000
0000
,  // measure 46
0002
0000
0003
0000
1000
0001
1000
0000
,  // measure 47
0001
0010
0001
0000
1000
0000
0000
0000
,  // measure 48
0010
1000
0010
0000
1000
0001
1000
0000
,  // measure 49
0001
0010
0001
1000
0002
0000
0003
0000
,  // measure 50
2000
3020
2030
3002
,  // measure 51
0203
0000
0300
0000
0010
1000
0010
0000
,  // measure 52
0200
0302
0203
0320
,  // measure 53
2030
0000
0000
0000
3000
0000
0000
0001
,  // measure 54
0100
0000
0000
0010
0000
0000
1000
0000
0000
0000
0000
0000
0000
0000
0000
0000
,  // measure 55
0001
0010
0001
0000
1000
0000
0000
0000
,  // measure 56
0020
0230
0302
0003
,  // measure 57
2000
0000
0000
3001
0000
0000
0020
0000
0000
0000
0031
0000
1000
0000
0001
0000
,  // measure 58
0100
0000
0000
0000
;

//---------------dance-single - Easy----------------
#NOTES:
     dance-single:
     Ace Of Hearts (2010):
     Easy:
     4:
     0.251,0.000,0.009,0.323,0.000: // measure 1
0000
0000
0000
0000
,  // measure 2
0000
0000
0000
0000
,  // measure 3
0000
0000
0000
0000
,  // measure 4
0001
0001
0001
0000
,  // measure 5
2000
0000
3000
0000
,  // measure 6
0010
0010
0010
0000
,  // measure 7
0100
0100
0100
0000
,  // measure 8
0001
0001
0001
0000
,  // measure 9
1000
1000
1000
0000
,  // measure 10
0001
1000
0001
0000
,  // measure 11
0010
0001
0010
0000
,  // measure 12
0001
0001
0001
0000
,  // measure 13
2000
0000
3000
0000
,  // measure 14
0100
0100
0100
0000
,  // measure 15
1000
0001
1000
0000
,  // measure 16
0100
0100
0100
0000
,  // measure 17
1000
0100
1000
0000
,  // measure 18
0001
0001
0001
0000
,  // measure 19
1000
0010
1000
0000
,  // measure 20
0001
0001
0001
0000
,  // measure 21
1000
0100
1000
0000
,  // measure 22
0002
1003
0002
1003
,  // measure 23
0020
0030
1000
0001
,  // measure 24
2000
3001
2000
3001
,  // measure 25
0020
0000
0030
0000
,  // measure 26
0001
0001
0001
0000
,  // measure 27
0100
0100
0100
0000
,  // measure 28
0002
1003
0002
0003
,  // measure 29
1000
0010
2000
3000
,  // measure 30
0002
1003
0002
1003
,  // measure 31
0020
0030
1000
0010
,  // measure 32
2000
3001
2000
3001
,  // measure 33
0200
0000
0300
0000
,  // measure 34
0001
1000
0010
0000
,  // measure 35
1000
0001
1000
0000
,  // measure 36
0002
1003
0020
0030
,  // measure 37
1000
0001
2000
3000
,  // measure 38
0010
0010
0010
0000
,  // measure 39
0200
0000
0300
0000
,  // measure 40
0001
0001
0001
0000
,  // measure 41
2000
0000
3000
0000
,  // measure 42
0020
0030
1000
1000
,  // measure 43
0001
0001
0001
0000
,  // measure 44
2000
3000
0001
0001
,  // measure 45
0100
0100
0100
0000
,  // measure 46
0002
0003
1000
1000
,  // measure 47
0010
0010
0010
0000
,  // measure 48
2000
3000
0001
0001
,  // measure 49
0100
0100
0100
0000
,  // measure 50
0020
1030
0020
1030
,  // measure 51
0002
0003
1000
0010
,  // measure 52
2000
3001
2000
3010
,  // measure 53
0200
0000
0300
0000
,  // measure 54
0010
1000
0010
0000
,  // measure 55
1000
1000
1000
0000
,  // measure 56
0002
1003
0200
0300
,  // measure 57
0010
0001
0020
0030
,  // measure 58
1001
0000
0000
0000
;

//---------------dance-single - Novice----------------
#NOTES:
     dance-single:
     Ace Of Hearts (2010):
     Beginner:
     1:
     0.115,0.000,0.009,0.120,0.000: // measure 1
0000
0000
0000
0000
,  // measure 2
0000
0000
0000
0000
,  // measure 3
0000
0000
0000
0000
,  // measure 4
0000
0000
0000
0000
,  // measure 5
0000
0000
0000
0000
,  // measure 6
1000
0000
0000
0000
,  // measure 7
1000
0000
0000
0000
,  // measure 8
0010
0000
0000
0000
,  // measure 9
0010
0000
0000
0000
,  // measure 10
0100
0000
0000
0000
,  // measure 11
0100
0000
0000
0000
,  // measure 12
0002
0000
0000
0000
,  // measure 13
0003
0000
0000
0000
,  // measure 14
1000
0000
0000
0000
,  // measure 15
1000
0000
0000
0000
,  // measure 16
0010
0000
0000
0000
,  // measure 17
0010
0000
0000
0000
,  // measure 18
0100
0000
0000
0000
,  // measure 19
0100
0000
0000
0000
,  // measure 20
0001
0000
0000
0000
,  // measure 21
0001
0000
0000
0000
,  // measure 22
1000
1000
1000
0000
,  // measure 23
2000
0000
3000
0000
,  // measure 24
0001
0001
0001
0000
,  // measure 25
0002
0000
0003
0000
,  // measure 26
0010
0000
0000
0000
,  // measure 27
0010
0000
0000
0000
,  // measure 28
0100
0100
0200
0000
,  // measure 29
0300
0000
0000
0000
,  // measure 30
0010
0010
0010
0000
,  // measure 31
0020
0000
0030
0000
,  // measure 32
0001
0001
0001
0000
,  // measure 33
0002
0000
0003
0000
,  // measure 34
1000
0000
0000
0000
,  // measure 35
1000
0000
0000
0000
,  // measure 36
0010
0010
0020
0000
,  // measure 37
0030
0000
0000
0000
,  // measure 38
2000
0000
3000
0000
,  // measure 39
2000
0000
3000
0000
,  // measure 40
0002
0000
0003
0000
,  // measure 41
0002
0000
0003
0000
,  // measure 42
0010
0000
0010
0000
,  // measure 43
0010
0000
0000
0000
,  // measure 44
0100
0000
0100
0000
,  // measure 45
0100
0000
0000
0000
,  // measure 46
1000
0000
1000
0000
,  // measure 47
1000
0000
0000
0000
,  // measure 48
0001
0000
0001
0000
,  // measure 49
0001
0000
0000
0000
,  // measure 50
1000
1000
1000
0000
,  // measure 51
2000
0000
3000
0000
,  // measure 52
0010
0010
0010
0000
,  // measure 53
0020
0000
0030
0000
,  // measure 54
0100
0000
0000
0000
,  // measure 55
0100
0000
0000
0000
,  // measure 56
0001
0001
0001
0000
,  // measure 57
1000
0000
0001
0000
,  // measure 58
1001
0000
0000
0000
;
