#TITLE:Alchemy;
#SUBTITLE:;
#ARTIST:Girls Dead Monster;
#TITLETRANSLIT:;
#SUBTITLETRANSLIT:;
#ARTISTTRANSLIT:;
#GENRE:J-Rock;
#CREDIT:Ace Of Hearts;
#BANNER:Alchemy - bn.png;
#BACKGROUND:Alchemy - bg.jpg;
#LYRICSPATH:;
#CDTITLE:Ace Of Hearts.png;
#MUSIC:Alchemy.ogg;
#OFFSET:-0.200;
#SAMPLESTART:43.560;
#SAMPLELENGTH:28.000;
#SELECTABLE:YES;
#BPMS:0.000=165.000;
#STOPS:;
#BGCHANGES:;
#KEYSOUNDS:;

//---------------dance-single - Expert----------------
#NOTES:
     dance-single:
     Ace Of Hearts (2010):
     Challenge:
     9:
     0.681,0.068,0.300,0.958,0.129:
0000
0000
0000
0000
,
0000
0000
0000
0000
,
0000
0000
0000
0000
,
0000
0000
0000
0000
0000
0000
0000
0000
0000
0000
0000
0000
0000
0000
1000
0100
,
0020
0000
0130
2000
0000
3001
0100
0010
,
1000
0000
0100
0000
0010
0000
0001
0000
0002
0000
1003
0000
0010
1000
0001
0000
,
0200
0000
0000
0000
0301
0000
2000
0000
0000
0000
3001
0100
0010
0000
1000
0000
,
0001
0010
0100
0010
0001
0000
1000
0010
1000
0001
0010
0100
0010
0001
1000
0000
,
0010
2000
0000
3002
0000
0023
0000
0032
,
0000
1003
0010
0400
0000
0000
0300
0000
,
0001
2000
0000
3020
0000
0230
0000
0302
,
0000
1003
0100
2000
0000
3020
0000
0000
,
0230
0301
1000
0020
0000
1030
0001
0010
,
0200
0000
0310
0000
0001
0000
1000
0000
0000
0000
0010
0000
1000
0000
0001
0100
,
0020
2030
0000
3002
0000
1003
0010
0100
,
0000
0000
0010
0000
0100
0000
0001
0000
1000
0000
0001
0000
0010
0000
0100
1000
,
0001
0200
0000
0320
0000
2030
0000
3002
,
0000
0013
0100
4000
0000
0000
3000
0000
,
0001
0200
0000
0320
0000
2030
0000
3002
,
0000
1003
0010
0200
0000
0320
0000
0000
,
2030
3001
0010
0002
0000
1003
0010
1000
,
0001
0010
0100
1000
0001
1000
0010
0100
,
0001
2000
0000
3020
0000
0000
1030
0002
,
0000
4003
0000
0000
3000
0001
0100
0010
,
1000
0002
0000
0023
0000
0000
0031
2000
,
0000
3040
0000
0000
0030
1000
0001
0010
,
0100
0020
0000
0032
0000
2003
0000
3020
,
0000
0230
0000
0320
0000
2030
0000
0002
,
0000
0000
0000
0000
,
0000
0000
0000
0000
3000
0000
1003
0001
0100
0010
0100
0001
1000
0000
1020
0000
,
0000
0130
0000
0102
0000
1003
0000
1200
,
0000
0310
0011
0000
4100
0000
3000
0010
,
0100
0001
1000
0200
0000
0300
0000
1000
,
0001
0010
0001
0200
0000
0300
0000
0120
,
0000
0000
2030
0000
0000
3000
1002
0000
0000
0000
0023
0000
0000
0030
0210
0000
,
0000
1300
0001
0000
0041
0000
0030
0100
,
1000
0001
1000
0100
0010
0001
2000
0000
,
3002
0000
0000
0000
0000
0003
0000
0020
,
0000
0000
0000
0000
,
0000
0000
0031
0100
0010
0000
1000
0000
0001
0010
0100
0000
1100
0000
0000
0000
,
2000
3001
0100
0020
0000
0230
0000
0301
,
1000
0100
0010
0002
0000
2003
0000
3020
,
0000
0000
0000
0000
0030
2000
0000
3200
,
0000
0000
0000
0000
0000
0000
0000
0000
0310
0000
0100
1000
0001
1000
0010
0000
,
0100
0001
1000
0020
0000
2030
0000
3001
,
0010
0001
1000
0020
0000
0230
0000
0302
,
0000
0000
0000
0023
0000
0031
1000
0040
,
0000
0000
0000
0000
0000
0000
0000
0000
0030
0000
1000
0001
0010
0001
1000
0000
,
1010
0010
0100
0002
0000
2003
0000
3100
,
0010
0100
1000
0002
0000
0203
0000
0302
,
0000
0000
0000
0000
0000
2003
0000
3200
,
0000
0000
0000
0000
0000
0000
0000
0000
0000
0000
0310
0000
0001
1000
0010
0000
,
0100
0010
1000
0002
0000
0023
0000
0031
,
1000
0010
0100
0002
0000
2003
0000
3200
,
0000
0000
0000
0300
,
1001
1000
0000
0002
0000
0103
0010
1000
,
1100
0100
0000
0100
0110
0000
0010
0011
,
0000
0001
1001
0000
1010
0010
0100
0001
,
1001
1000
0000
0010
0110
0000
0100
0101
,
0000
0001
0011
0000
0110
0100
1000
0001
,
0101
0100
0000
0100
0110
0000
0010
1010
,
0000
1000
1001
0001
0011
0000
0010
0000
,
0110
0100
0000
1000
0001
0000
1001
0001
,
0000
0000
0100
0000
0110
0000
0000
0000
1010
0000
1000
0001
0010
0001
1000
0000
,
0010
2000
0000
3002
0000
0023
0000
0032
,
0000
1003
0010
4000
0000
0000
3000
0000
,
0001
0000
0020
0000
0000
0000
0032
0000
0000
0000
2003
0000
0000
3000
1020
0000
,
0000
0130
0001
2000
0000
3020
0000
0000
,
0230
0000
0001
0000
0310
1000
0001
0010
,
0000
0001
0100
0010
1000
0001
0010
0100
,
1000
0001
0000
0020
0000
0031
1000
0000
,
0010
0000
1000
0000
0100
0000
0000
0000
1000
0000
0001
0000
0100
0000
0010
1000
,
0001
0100
0000
0020
0000
2030
0000
3002
,
0000
0013
0100
4000
0000
0000
3000
0000
,
0001
0000
0200
0000
0000
0000
0320
0000
0000
0000
2030
0000
0000
3000
1002
0000
,
0000
0103
0010
2000
0000
3020
0000
0000
,
0130
0001
1000
0020
0000
0130
0001
1000
,
0100
0010
0100
1000
0001
0100
0010
1000
,
0001
1000
0000
0200
0000
0000
0310
0002
,
0000
2003
0000
3000
0010
0100
0001
1000
,
1100
0200
0000
0320
0000
0000
0130
2000
,
0000
3004
0000
0000
0000
1003
0010
0100
,
0001
2000
0000
3020
0000
0230
0000
0302
,
0000
2003
0000
3200
0000
0320
0000
0002
,
0000
0000
0000
0000
,
0030
0000
1003
0000
0010
0000
1000
0001
0010
0100
1000
0001
0100
0000
0120
0000
,
0000
1030
0000
1200
0000
0310
0000
0012
,
0000
1003
1010
0000
0104
0000
0003
1000
,
0100
0010
0100
2000
0000
3000
0000
0001
,
0010
0100
0010
0002
0000
0003
0000
2001
,
0000
3010
0000
0210
0000
0301
0000
0021
,
0000
0130
1100
0000
0014
0000
0003
1000
,
0100
0010
0001
1000
0001
0010
0100
2000
,
0001
0000
0001
0000
3002
0000
0103
0020
,
0000
0100
0000
0100
,
0000
0000
0130
0001
1000
0000
0100
0000
0010
0001
1000
0000
1100
0000
0000
0000
,
0100
0010
0001
2000
0000
3200
0000
0310
,
0100
1000
0001
0020
0000
0032
0000
2003
,
0010
0000
0010
0000
0000
3020
0000
0230
,
0001
0000
0000
0000
0001
0000
0000
0000
0301
0000
1000
0000
0100
0010
0001
0000
,
1000
0010
0100
0002
0000
2003
0000
3020
,
0000
0130
0001
2000
0000
3020
0000
2030
,
0000
0000
0000
3002
0000
1003
0100
0020
,
0031
0000
1000
0000
0010
0000
0100
0000
0010
0000
0100
0000
0001
1000
0100
0000
,
0010
0001
1000
0020
0000
0230
0000
0301
,
1000
0100
0010
0002
0000
2003
0000
3020
,
0100
0000
0100
0000
0000
2030
0000
3200
,
0010
0000
0000
0000
0010
0000
0300
0000
0010
0000
0001
1000
0010
1000
0001
0000
,
0010
0100
1000
0002
0000
0203
0000
0000
,
0310
1000
0001
0020
0000
0230
0000
2300
,
0000
0000
0000
3000
,
1001
0001
0000
0020
0000
0031
1000
0002
,
0000
0000
0003
0000
,
2000
0000
0000
3000
,
0002
0000
0000
0000
0000
0023
0000
0031
,
1000
0000
0200
0000
0000
0000
0000
0000
0300
0000
0000
0000
1000
0001
0100
0010
,
1000
0001
0010
0001
1000
0010
0100
0001
2000
0000
0000
0000
3001
0000
0010
0000
,
0100
0010
0001
1000
0100
1000
0002
0000
,
0203
0000
0000
0000
0000
0000
0301
0000
0000
1000
0000
0000
0020
0000
0000
0000
0000
0000
1030
0000
0000
0100
0000
0000
0010
0000
0000
0000
0001
0000
0000
0000
1000
0000
0000
0000
0010
0000
0000
0000
0100
0000
0000
0000
0001
0000
0000
0000
,
1000
0000
0100
0000
0010
0000
0001
0000
0000
0002
0000
0000
1000
0000
0000
1003
0000
0000
0010
0000
0000
0210
0000
0000
,
0000
0301
0000
2001
0000
3100
0000
0120
,
0000
0031
1001
0000
1040
0000
0030
1000
,
0010
0100
0010
2000
3000
0000
0000
0001
,
0010
0100
0010
0002
0003
0000
0000
0201
,
0000
0310
0000
2010
0000
3001
0000
0021
,
0000
0130
1100
0000
1040
0000
0030
1000
,
0001
0010
0001
1000
0010
0100
0001
2000
,
0000
0000
0000
0000
0000
3000
0000
0020
,
0000
0100
0000
0100
,
0130
0000
0001
1000
0100
0000
0010
0000
0001
1000
0001
0000
1001
0000
0100
0000
;

//---------------dance-single - Hard----------------
#NOTES:
     dance-single:
     Ace Of Hearts (2010):
     Hard:
     7:
     0.523,0.034,0.005,0.974,0.011: // measure 1
0000
0000
0000
0000
,  // measure 2
0000
0000
0000
0000
,  // measure 3
0000
0000
0000
0000
,  // measure 4
0000
0000
0000
0000
0000
0000
0000
0001
,  // measure 5
0020
0000
0031
2000
0000
3010
1000
0001
,  // measure 6
0010
0001
1000
0000
0020
0000
1030
0001
,  // measure 7
2000
0000
3100
0020
0000
0130
1000
0100
,  // measure 8
0040
0004
0000
0000
0000
0000
0000
0000
0033
0000
0000
0000
0000
0000
0000
0000
,  // measure 9
0001
2000
0000
3020
0000
2030
0000
3002
,  // measure 10
0000
0013
0100
4000
0000
0000
3000
0000
,  // measure 11
0001
0200
0000
0320
0000
2030
0000
3002
,  // measure 12
0000
0013
0100
2000
0000
3002
0000
0000
,  // measure 13
0203
0000
0000
0300
,  // measure 14
0010
1000
0001
0100
0000
0010
1000
0001
,  // measure 15
1000
0020
0000
2030
0000
0000
3000
0000
,  // measure 16
0001
0100
0000
0010
0000
0010
1000
0000
,  // measure 17
0001
0020
0000
0032
0000
2003
0000
3020
,  // measure 18
0000
1030
0001
0400
0000
0000
0300
0000
,  // measure 19
0001
2000
0000
3200
0000
0320
0000
0032
,  // measure 20
0000
1003
0100
2000
0000
3002
0000
0000
,  // measure 21
0023
0000
0000
0030
,  // measure 22
0001
1000
0010
1000
0000
0001
1000
0100
,  // measure 23
1000
0002
0000
2003
0000
0000
3001
0200
,  // measure 24
0000
0320
0000
0030
0000
1000
0001
0100
,  // measure 25
0001
2000
0000
3002
0000
0000
0103
0020
,  // measure 26
0000
4030
0000
0000
3000
0001
0010
0001
,  // measure 27
1000
0020
0000
2030
0000
3002
0000
0023
,  // measure 28
0000
0230
0000
2300
0000
3002
0000
0200
,  // measure 29
0000
0000
0000
0000
,  // measure 30
0003
0000
0000
0000
0300
0000
0040
4000
0000
0000
3030
0000
0000
0000
2000
0000
,  // measure 31
0000
3001
0000
0020
0000
0031
0000
2000
,  // measure 32
0000
3100
0010
0000
0040
0000
0030
0001
,  // measure 33
0010
0100
0010
0002
0003
0000
0000
1000
,  // measure 34
0100
0010
0100
2000
3000
0000
0000
0002
,  // measure 35
0000
0203
0000
0320
0000
2030
0000
3002
,  // measure 36
0000
1003
0100
0000
0400
0000
0300
0010
,  // measure 37
0001
0010
0100
0000
1000
0001
0200
0000
,  // measure 38
0302
0000
0000
0000
0000
0003
0000
2000
,  // measure 39
0000
0000
0000
0000
,  // measure 40
0000
3001
0010
0000
0001
1000
0010
0000
,  // measure 41
1000
0001
0010
0200
0000
0320
0000
0031
,  // measure 42
1000
0001
1000
0020
0000
0230
0000
0302
,  // measure 43
0000
0000
0000
0000
0000
2003
0000
3200
,  // measure 44
0000
0000
0000
0000
0000
0310
0001
0000
,  // measure 45
1000
0010
1000
0002
0000
2003
0000
3001
,  // measure 46
0010
0001
1000
0200
0000
2300
0000
3002
,  // measure 47
0000
0000
0000
0023
0000
0000
0031
4000
,  // measure 48
0000
0000
0000
0000
3000
0001
0100
0000
,  // measure 49
0001
1000
0010
2000
0000
3002
0000
0013
,  // measure 50
0100
1000
0100
0020
0000
0032
0000
2003
,  // measure 51
0000
0000
0000
0000
0000
3002
0000
0203
,  // measure 52
0000
0000
0000
0000
0000
0301
1000
0000
,  // measure 53
0001
0010
0100
2000
0000
3002
0000
1003
,  // measure 54
0010
1000
0001
0020
0000
0032
0000
2003
,  // measure 55
0000
0000
0000
3000
,  // measure 56
1010
0000
0000
0020
0000
0000
1030
0001
,  // measure 57
1000
0100
0000
0010
0001
0000
1000
0010
,  // measure 58
0000
1000
0001
0000
1000
0010
1000
0000
,  // measure 59
0001
0010
0000
0100
1000
0000
0001
0100
,  // measure 60
0000
0001
1000
0000
0001
0100
0001
1000
,  // measure 61
0010
1000
0000
0001
0010
0000
0001
1000
,  // measure 62
0000
0001
0100
0001
1000
0000
0010
0000
,  // measure 63
1000
1000
0000
0100
0100
0000
0010
0010
,  // measure 64
0000
0001
0001
0000
1000
0100
0020
0000
,  // measure 65
0031
2000
0000
3020
0000
2030
0000
3002
,  // measure 66
0000
0013
0100
4000
0000
0000
3000
0000
,  // measure 67
0001
2000
0000
3020
0000
2030
0000
3020
,  // measure 68
0000
1030
0001
0200
0000
0320
0000
0000
,  // measure 69
2030
0000
0000
0000
,  // measure 70
3000
0000
0000
0000
0000
0001
0100
0010
,  // measure 71
1000
0002
0000
2003
0000
0000
0000
3000
,  // measure 72
0100
0010
0000
0010
0000
0001
1000
0010
,  // measure 73
1000
0002
0000
2003
0000
3200
0000
0320
,  // measure 74
0000
0031
0010
0400
0000
0000
0300
0000
,  // measure 75
1000
0002
0000
2003
0000
3200
0000
0320
,  // measure 76
0000
0031
1000
0002
0000
0203
0000
0000
,  // measure 77
0320
0000
0000
0000
,  // measure 78
1030
0001
0000
0010
0000
0001
1000
0010
,  // measure 79
1000
0002
0000
0023
0000
0000
0031
2000
,  // measure 80
0000
3002
0000
0000
0000
1003
0010
1000
,  // measure 81
0001
0020
0000
0230
0000
0000
0310
0002
,  // measure 82
0000
4003
0000
3000
0000
0001
0100
0001
,  // measure 83
1000
0200
0000
0320
0000
0230
0000
2300
,  // measure 84
0000
3002
0000
0203
0000
0302
0000
2000
,  // measure 85
0000
0000
0000
0000
0000
0000
0000
0003
,  // measure 86
0000
3100
0010
0001
1000
0010
1000
0002
,  // measure 87
0000
2003
0000
3200
0000
0320
0000
0230
,  // measure 88
0000
1300
0001
0000
0004
0000
0003
0010
,  // measure 89
0100
1000
0100
0020
0030
0000
0000
0001
,  // measure 90
0010
0100
0010
0002
0003
0000
0000
2000
,  // measure 91
0000
3020
0000
2030
0000
3002
0000
0023
,  // measure 92
0000
0130
1000
0000
4000
0000
3000
0001
,  // measure 93
0010
0001
1000
0010
1000
0000
0001
0200
,  // measure 94
0000
0000
0000
0000
0000
0000
0000
0020
,  // measure 95
0000
0000
0000
0000
0000
0000
0000
0300
,  // measure 96
0000
1030
0001
0000
0010
0001
1000
0000
,  // measure 97
0010
1000
0001
0020
0000
0032
0000
1003
,  // measure 98
0010
1000
0001
0020
0000
0230
0000
2300
,  // measure 99
0000
0000
0000
0000
0000
3002
0000
0203
,  // measure 100
0000
0000
0000
0000
0000
0310
1000
0000
,  // measure 101
0001
0010
0100
0020
0000
0230
0000
2300
,  // measure 102
0000
3001
0100
0002
0000
2003
0000
3200
,  // measure 103
0000
0000
0000
0320
0000
0000
0031
2000
,  // measure 104
0000
0000
0000
0000
0000
3001
0010
0000
,  // measure 105
0001
1000
0010
2000
0000
3002
0000
1003
,  // measure 106
0010
1000
0001
0020
0000
0230
0000
2300
,  // measure 107
0000
0000
0000
0000
0000
3002
0000
0203
,  // measure 108
0000
0000
0000
0000
0000
0301
1000
0000
,  // measure 109
0010
1000
0001
0020
0000
0032
0000
0000
,  // measure 110
1003
0010
1000
0002
0000
0023
0000
0032
,  // measure 111
0000
0000
0000
0003
,  // measure 112
1000
0010
0000
2000
0000
3100
0010
0002
,  // measure 113
0000
0000
0003
0000
,  // measure 114
2000
0000
0000
3000
,  // measure 115
0020
0000
0000
0000
0000
2030
0000
3002
,  // measure 116
0000
0000
0003
0000
,  // measure 117
4000
0040
0000
0000
0000
0000
0000
0000
3030
0000
0000
0000
0000
0000
0000
0000
,  // measure 118
0400
0004
0000
0000
0000
0000
0000
0000
0303
0000
0000
0000
0200
0000
0000
0000
,  // measure 119
0301
1000
0010
0100
,  // measure 120
0010
0000
1000
0000
0001
0010
0000
0002
,  // measure 121
0000
2003
0000
3020
0000
2030
0000
3002
,  // measure 122
0000
0103
0010
0000
0040
0000
0030
1000
,  // measure 123
0010
0100
0010
2000
3000
0000
0000
0001
,  // measure 124
0100
0010
0100
0002
0003
0000
0000
2000
,  // measure 125
0000
3200
0000
0320
0000
0230
0000
2300
,  // measure 126
0000
3001
0100
0000
0400
0000
0300
0001
,  // measure 127
1000
0100
0010
0000
0100
1000
0001
2000
,  // measure 128
0000
0000
0000
0000
0000
3000
0000
0020
,  // measure 129
0000
0000
0000
0000
0000
0000
0000
0030
,  // measure 130
0000
1000
0001
0010
0100
0010
0001
1000
;

//---------------dance-single - Medium----------------
#NOTES:
     dance-single:
     Ace Of Hearts (2010):
     Medium:
     5:
     0.325,0.000,0.000,0.521,0.000: // measure 1
0000
0000
0000
0000
,  // measure 2
0000
0000
0000
0000
,  // measure 3
0000
0000
0000
0000
,  // measure 4
0000
0000
0000
0000
,  // measure 5
2000
0000
0000
3002
0000
0000
1003
0000
,  // measure 6
0010
1000
0010
1000
,  // measure 7
0002
0000
0000
2003
0000
0000
3001
0000
,  // measure 8
0020
0000
0030
0000
,  // measure 9
0002
0000
0000
1003
0000
0010
0000
2000
,  // measure 10
0000
0000
0000
3001
0000
0000
0000
0000
,  // measure 11
0020
0000
0000
0031
0000
1000
0000
0010
,  // measure 12
0000
1000
0000
0010
0000
1000
0000
0000
,  // measure 13
0002
0000
0000
0003
,  // measure 14
0000
0000
0000
1000
,  // measure 15
0010
0000
0000
0020
0000
0000
0030
0000
,  // measure 16
0000
0000
0000
0000
,  // measure 17
2000
0000
0000
3001
0000
0010
0000
0001
,  // measure 18
0000
1000
0000
0002
0000
0000
0003
0000
,  // measure 19
0020
0000
0000
0031
0000
1000
0000
0100
,  // measure 20
0000
1000
0000
0001
0000
1000
0000
0000
,  // measure 21
0020
0000
0000
0030
,  // measure 22
0000
0000
0000
1000
,  // measure 23
0001
0000
0000
0002
0000
0000
0000
0013
,  // measure 24
0000
0010
0000
0000
0000
0000
0001
0000
,  // measure 25
0001
0000
0000
2000
0000
0000
0000
3100
,  // measure 26
0000
0100
0000
0000
0000
0000
0010
0000
,  // measure 27
0001
0000
0000
1000
0000
0001
0000
1000
,  // measure 28
0000
0001
0000
0100
0000
0001
0000
2000
,  // measure 29
0000
0000
0000
0000
,  // measure 30
3000
0000
0000
0000
0000
0000
0000
0001
,  // measure 31
0000
1000
0000
0010
0000
1000
0000
0002
,  // measure 32
0000
1003
0010
0000
0010
0000
0000
0000
,  // measure 33
2000
0000
3001
0100
0000
0000
0000
0000
,  // measure 34
0001
0000
1000
0100
0000
0000
0000
1000
,  // measure 35
0000
0001
0000
0100
0000
0001
0000
2000
,  // measure 36
0000
3001
0100
0000
0100
0000
0000
0000
,  // measure 37
0001
1000
0001
1000
,  // measure 38
0002
0000
0000
0000
0003
0000
0000
0020
,  // measure 39
0000
0000
0000
0000
,  // measure 40
0000
0000
0030
0000
,  // measure 41
0001
0000
1000
0020
0000
1030
0000
0000
,  // measure 42
0010
0000
1000
0002
0000
0013
0000
0002
,  // measure 43
0000
0000
0003
0000
0000
1000
0000
0200
,  // measure 44
0000
0000
0300
0000
,  // measure 45
1000
0000
0001
2000
0000
3010
0000
0000
,  // measure 46
1000
0000
0001
0020
0000
0031
0000
2000
,  // measure 47
0000
0000
0000
3020
0000
0000
1030
0002
,  // measure 48
0000
0000
0003
0000
,  // measure 49
2000
0000
3001
0020
0000
0031
0000
0000
,  // measure 50
2000
0000
3001
0100
0000
0001
0000
2000
,  // measure 51
0000
0000
0000
0000
0000
3002
0000
0203
,  // measure 52
0000
0000
0300
0000
,  // measure 53
0002
0000
1003
0020
0000
1030
0000
0000
,  // measure 54
0002
0000
1003
0200
0000
1300
0000
0002
,  // measure 55
0000
0000
0000
0000
,  // measure 56
0013
0000
0000
0002
0000
0000
1003
0010
,  // measure 57
1000
0000
0000
0001
0000
0000
1000
0000
,  // measure 58
0000
0010
1000
0010
,  // measure 59
0100
0000
0000
0001
0000
0000
0100
0000
,  // measure 60
0000
0001
0000
0000
1000
0000
0001
0000
,  // measure 61
1000
0000
0000
0100
0000
0000
0010
0000
,  // measure 62
0000
0001
0000
0000
1000
0000
0100
0000
,  // measure 63
1000
0000
0000
0001
0000
0000
0100
0000
,  // measure 64
0000
0010
0000
0000
1000
0000
0001
0000
,  // measure 65
1000
0000
0000
0001
0000
0100
0000
0001
,  // measure 66
0000
1000
0000
0002
0000
0000
0003
0000
,  // measure 67
0010
0000
0000
0001
0000
1000
0000
0010
,  // measure 68
0000
1000
0000
0001
0000
0010
0000
0000
,  // measure 69
0200
0000
0000
0000
,  // measure 70
0300
0000
0000
0010
,  // measure 71
0001
0000
0000
0002
0000
0000
0003
0000
,  // measure 72
0000
0000
0000
0000
,  // measure 73
1000
0000
0000
0010
0000
1000
0000
0001
,  // measure 74
0000
1000
0000
0200
0000
0000
0300
0000
,  // measure 75
1000
0000
0000
0001
0000
0100
0000
0001
,  // measure 76
0000
1000
0000
0001
0000
0100
0000
0000
,  // measure 77
0020
0000
0000
0000
,  // measure 78
0030
0000
0000
1000
,  // measure 79
0010
0000
0000
0020
0000
0000
0000
1030
,  // measure 80
0000
1000
0000
0000
0000
0000
0001
0000
,  // measure 81
0010
0000
0000
0020
0000
0000
0000
0130
,  // measure 82
0000
0100
0000
0000
0000
0000
0010
0000
,  // measure 83
0001
0000
0000
1000
0000
0010
0000
1000
,  // measure 84
0000
0001
0000
1000
0000
0100
0000
2000
,  // measure 85
0000
0000
0000
0000
,  // measure 86
0000
0000
0000
0000
3000
0000
0000
0001
,  // measure 87
0000
0010
0000
0001
0000
1000
0000
0002
,  // measure 88
0000
1003
0010
0000
0010
0000
0000
1000
,  // measure 89
0002
0000
0000
0013
0000
0000
0000
0001
,  // measure 90
2000
0000
0000
3010
0000
0000
0000
1000
,  // measure 91
0000
0010
0000
1000
0000
0001
0000
0020
,  // measure 92
0000
0031
1000
0000
1000
0000
0000
0010
,  // measure 93
1000
0000
0001
0000
1000
0000
0001
0200
,  // measure 94
0000
0000
0000
0000
0000
0000
0000
0020
,  // measure 95
0000
0000
0000
0000
,  // measure 96
0000
0000
0330
0000
,  // measure 97
1000
0000
0001
2000
0000
3100
0000
0000
,  // measure 98
0010
0000
0100
2000
0000
3001
0000
2000
,  // measure 99
0000
0000
0000
0000
0000
3002
0000
0203
,  // measure 100
0000
0000
0000
0300
,  // measure 101
0001
0000
1000
0020
0000
1030
0000
0000
,  // measure 102
0010
0000
1000
0002
0000
0013
0000
0200
,  // measure 103
0000
0000
0000
0320
0000
0000
0000
0032
,  // measure 104
0000
0000
0003
0000
,  // measure 105
2000
0000
3001
0100
0000
0010
0000
0000
,  // measure 106
0200
0000
0301
1000
0000
0001
0000
0020
,  // measure 107
0000
0000
0000
0000
0000
0230
0000
2300
,  // measure 108
0000
0000
0000
3000
,  // measure 109
0002
0000
1003
0200
0000
1300
0000
0000
,  // measure 110
0002
0000
1003
0020
0000
1030
0000
0002
,  // measure 111
0000
0000
0000
0000
,  // measure 112
0003
0000
0000
2000
0000
0000
3001
0020
,  // measure 113
0000
0000
0030
0000
,  // measure 114
0002
0000
0003
0000
,  // measure 115
2000
0000
0000
0000
3000
0002
0000
0203
,  // measure 116
0000
0000
0300
0000
,  // measure 117
0004
0000
0003
0000
,  // measure 118
4000
0000
3000
0000
,  // measure 119
0001
0010
0001
1000
,  // measure 120
0010
0000
2000
0000
3002
0000
0000
2003
,  // measure 121
0000
3020
0000
2030
0000
3002
0000
0023
,  // measure 122
0000
0130
1000
0000
1000
0000
0000
0001
,  // measure 123
0200
0000
0301
1000
0000
0000
0000
0010
,  // measure 124
2000
0000
3001
0010
0000
0000
0000
0002
,  // measure 125
0000
2003
0000
3020
0000
2030
0000
3002
,  // measure 126
0000
1003
0100
0000
0100
0000
0000
1000
,  // measure 127
0001
0000
1000
0000
0010
0000
1000
0002
,  // measure 128
0000
0000
0000
0000
0003
0000
0000
0020
,  // measure 129
0000
0000
0000
0030
,  // measure 130
0000
0001
1000
0000
0010
1000
0001
0010
;

//---------------dance-single - Easy----------------
#NOTES:
     dance-single:
     Ace Of Hearts (2010):
     Easy:
     3:
     0.183,0.000,0.000,0.168,0.000: // measure 1
0000
0000
0000
0000
,  // measure 2
0000
0000
0000
0000
,  // measure 3
0000
0000
0000
0000
,  // measure 4
0000
0000
0000
0000
,  // measure 5
0001
0000
0001
0000
,  // measure 6
0002
0000
0003
0000
,  // measure 7
1000
0000
1000
0000
,  // measure 8
2000
0000
3000
0000
,  // measure 9
0010
0000
0010
0000
,  // measure 10
1000
1000
1000
0000
,  // measure 11
0001
0000
0001
0000
,  // measure 12
0100
0100
0100
0000
,  // measure 13
0200
0000
0000
0000
,  // measure 14
0300
0000
0000
0000
,  // measure 15
0010
0000
0020
0000
,  // measure 16
0030
0000
0000
0000
,  // measure 17
1000
0000
1000
0000
,  // measure 18
0001
0001
0001
0000
,  // measure 19
1000
0000
1000
0000
,  // measure 20
0100
0100
0100
0000
,  // measure 21
0020
0000
0000
0000
,  // measure 22
0030
0000
0000
0000
,  // measure 23
0001
0000
0001
0000
,  // measure 24
0001
0000
0000
0000
,  // measure 25
0010
0000
0010
0000
,  // measure 26
0010
0000
0000
0000
,  // measure 27
0100
0000
0100
0000
,  // measure 28
1000
0000
1000
0000
,  // measure 29
0002
0000
0000
0000
,  // measure 30
0003
0000
0000
0000
,  // measure 31
1000
0000
1000
0000
,  // measure 32
0010
0010
0010
0000
,  // measure 33
0100
0000
0100
0000
,  // measure 34
0001
0000
0001
0000
,  // measure 35
1000
0000
1000
0000
,  // measure 36
0100
0100
0100
0000
,  // measure 37
0010
0000
0010
0000
,  // measure 38
0002
0000
0003
0000
,  // measure 39
2000
0000
0000
0000
,  // measure 40
0000
0000
3000
0000
,  // measure 41
0001
0000
0001
0000
,  // measure 42
1000
1000
1000
0000
,  // measure 43
0020
0000
0030
0000
,  // measure 44
0200
0000
0300
0000
,  // measure 45
0001
0000
0001
0000
,  // measure 46
0100
0100
0100
0000
,  // measure 47
0010
0000
0010
0000
,  // measure 48
0020
0000
0030
0000
,  // measure 49
1000
0000
1000
0000
,  // measure 50
0001
0001
0001
0000
,  // measure 51
0020
0000
0030
0000
,  // measure 52
0200
0000
0300
0000
,  // measure 53
1000
0000
1000
0000
,  // measure 54
0001
0000
0001
0000
,  // measure 55
0200
0000
0000
0000
,  // measure 56
0300
0000
0010
0000
,  // measure 57
1000
0000
1000
0000
,  // measure 58
1000
0000
0000
0000
,  // measure 59
0001
0000
0001
0000
,  // measure 60
0001
0000
0000
0000
,  // measure 61
0010
0000
0010
0000
,  // measure 62
0010
0000
0000
0000
,  // measure 63
0100
0000
0100
0000
,  // measure 64
0100
0000
0000
0000
,  // measure 65
0010
0000
0010
0000
,  // measure 66
0001
0001
0001
0000
,  // measure 67
1000
0000
1000
0000
,  // measure 68
0010
0010
0010
0000
,  // measure 69
0020
0000
0000
0000
,  // measure 70
0030
0000
0000
0000
,  // measure 71
1000
0000
2000
0000
,  // measure 72
3000
0000
0000
0000
,  // measure 73
0001
0000
0001
0000
,  // measure 74
0100
0100
0100
0000
,  // measure 75
0010
0000
0010
0000
,  // measure 76
1000
1000
1000
0000
,  // measure 77
0002
0000
0000
0000
,  // measure 78
0003
0000
0000
0000
,  // measure 79
1000
0000
1000
0000
,  // measure 80
1000
0000
0000
0000
,  // measure 81
0010
0000
0010
0000
,  // measure 82
0010
0000
0000
0000
,  // measure 83
1000
0000
1000
0000
,  // measure 84
0001
0000
0001
0000
,  // measure 85
0020
0000
0000
0000
,  // measure 86
0030
0000
0000
0000
,  // measure 87
0001
0000
0001
0000
,  // measure 88
0100
0100
0100
0000
,  // measure 89
0010
0000
0010
0000
,  // measure 90
1000
0000
1000
0000
,  // measure 91
0001
0000
0001
0000
,  // measure 92
0010
0010
0010
0000
,  // measure 93
0001
0000
0001
0000
,  // measure 94
2000
0000
3000
0000
,  // measure 95
0020
0000
0000
0000
,  // measure 96
0030
0000
0000
0000
,  // measure 97
1000
0000
1000
0000
,  // measure 98
0001
0001
0001
0000
,  // measure 99
0020
0000
0030
0000
,  // measure 100
0002
0000
0003
0000
,  // measure 101
1000
1000
1000
0000
,  // measure 102
0010
0010
0010
0000
,  // measure 103
0100
0000
0001
0000
,  // measure 104
0002
0000
0003
0000
,  // measure 105
0100
0100
0100
0000
,  // measure 106
0010
0010
0010
0000
,  // measure 107
2000
0000
3000
0000
,  // measure 108
0002
0000
0003
0000
,  // measure 109
0010
0010
0010
0000
,  // measure 110
0100
0100
0100
0000
,  // measure 111
2000
0000
0000
0000
,  // measure 112
3000
0000
0001
0000
,  // measure 113
0002
0000
0003
0000
,  // measure 114
2000
0000
3000
0000
,  // measure 115
0002
0000
0003
0000
,  // measure 116
0200
0000
0300
0000
,  // measure 117
0004
0000
0000
0000
,  // measure 118
0003
0000
0000
0000
,  // measure 119
4000
0000
0000
0000
,  // measure 120
3000
0000
0000
0000
,  // measure 121
0001
0000
0001
0000
,  // measure 122
0010
0010
0010
0000
,  // measure 123
0001
0000
0001
0000
,  // measure 124
1000
0000
1000
0000
,  // measure 125
0010
0000
0010
0000
,  // measure 126
0100
0100
0100
0000
,  // measure 127
0001
0000
0001
0000
,  // measure 128
0002
0000
0003
0000
,  // measure 129
0020
0000
0000
0000
,  // measure 130
0030
0001
0001
0001
;

//---------------dance-single - Novice----------------
#NOTES:
     dance-single:
     Ace Of Hearts (2010):
     Beginner:
     1:
     0.125,0.000,0.000,0.216,0.000: // measure 1
0000
0000
0000
0000
,  // measure 2
0000
0000
0000
0000
,  // measure 3
0000
0000
0000
0000
,  // measure 4
0000
0000
0000
0000
,  // measure 5
0002
0000
0000
0000
,  // measure 6
0003
0000
0000
0000
,  // measure 7
2000
0000
0000
0000
,  // measure 8
3000
0000
0000
0000
,  // measure 9
0010
0000
0000
0000
,  // measure 10
0010
0000
0000
0000
,  // measure 11
1000
0000
1000
0000
,  // measure 12
1000
0000
0000
0000
,  // measure 13
0002
0000
0000
0000
,  // measure 14
0003
0000
0000
0000
,  // measure 15
0020
0000
0030
0000
,  // measure 16
0000
0000
0000
0000
,  // measure 17
0001
0000
0000
0000
,  // measure 18
0001
0000
0000
0000
,  // measure 19
0100
0000
0100
0000
,  // measure 20
0100
0000
0000
0000
,  // measure 21
0002
0000
0000
0000
,  // measure 22
0003
0000
0000
0000
,  // measure 23
1000
0000
0000
0000
,  // measure 24
1000
0000
0000
0000
,  // measure 25
0010
0000
0000
0000
,  // measure 26
0010
0000
0000
0000
,  // measure 27
0100
0000
0000
0000
,  // measure 28
0100
0000
0000
0000
,  // measure 29
0002
0000
0000
0000
,  // measure 30
0003
0000
0000
0000
,  // measure 31
2000
0000
3000
0000
,  // measure 32
0010
0000
0010
0000
,  // measure 33
0020
0000
0030
0000
,  // measure 34
0100
0000
0000
0000
,  // measure 35
0001
0000
0001
0000
,  // measure 36
0002
0000
0003
0000
,  // measure 37
1000
0000
0000
0000
,  // measure 38
2000
0000
3000
0000
,  // measure 39
0020
0000
0000
0000
,  // measure 40
0030
0000
0000
0000
,  // measure 41
1000
0000
1000
0000
,  // measure 42
1000
0000
0000
0000
,  // measure 43
0001
0000
0000
0000
,  // measure 44
0100
0000
0000
0000
,  // measure 45
0010
0000
0010
0000
,  // measure 46
0010
0000
0000
0000
,  // measure 47
1000
0000
0000
0000
,  // measure 48
0001
0000
0000
0000
,  // measure 49
0010
0000
0010
0000
,  // measure 50
0010
0000
0000
0000
,  // measure 51
0100
0000
0000
0000
,  // measure 52
1000
0000
0000
0000
,  // measure 53
0001
0000
0001
0000
,  // measure 54
0001
0000
0000
0000
,  // measure 55
0200
0000
0000
0000
,  // measure 56
0300
0000
0000
0000
,  // measure 57
0002
0000
0000
0000
,  // measure 58
0003
0000
0000
0000
,  // measure 59
2000
0000
0000
0000
,  // measure 60
3000
0000
0000
0000
,  // measure 61
0200
0000
0000
0000
,  // measure 62
0300
0000
0000
0000
,  // measure 63
0020
0000
0000
0000
,  // measure 64
0030
0000
0000
0000
,  // measure 65
0001
0000
0000
0000
,  // measure 66
0001
0000
0000
0000
,  // measure 67
0010
0000
0010
0000
,  // measure 68
0010
0000
0000
0000
,  // measure 69
0200
0000
0000
0000
,  // measure 70
0300
0000
0000
0000
,  // measure 71
0020
0000
0030
0000
,  // measure 72
0000
0000
0000
0000
,  // measure 73
0001
0000
0000
0000
,  // measure 74
0001
0000
0000
0000
,  // measure 75
0100
0000
0100
0000
,  // measure 76
0100
0000
0000
0000
,  // measure 77
0020
0000
0000
0000
,  // measure 78
0030
0000
0000
0000
,  // measure 79
1000
0000
0000
0000
,  // measure 80
1000
0000
0000
0000
,  // measure 81
0001
0000
0000
0000
,  // measure 82
0001
0000
0000
0000
,  // measure 83
0010
0000
0000
0000
,  // measure 84
0010
0000
0000
0000
,  // measure 85
0200
0000
0000
0000
,  // measure 86
0300
0000
0000
0000
,  // measure 87
0010
0000
0010
0000
,  // measure 88
0020
0000
0030
0000
,  // measure 89
0001
0000
0000
0000
,  // measure 90
0001
0000
0000
0000
,  // measure 91
0100
0000
0100
0000
,  // measure 92
0200
0000
0300
0000
,  // measure 93
0001
0000
0000
0000
,  // measure 94
0002
0000
0003
0000
,  // measure 95
2000
0000
0000
0000
,  // measure 96
3000
0000
0000
0000
,  // measure 97
0001
0000
0001
0000
,  // measure 98
0001
0000
0000
0000
,  // measure 99
0020
0000
0030
0000
,  // measure 100
0200
0000
0300
0000
,  // measure 101
0010
0000
0010
0000
,  // measure 102
0010
0000
0000
0000
,  // measure 103
0002
0000
0003
0000
,  // measure 104
2000
0000
3000
0000
,  // measure 105
0001
0000
0001
0000
,  // measure 106
0001
0000
0000
0000
,  // measure 107
0020
0000
0030
0000
,  // measure 108
0002
0000
0003
0000
,  // measure 109
1000
0000
1000
0000
,  // measure 110
1000
0000
0000
0000
,  // measure 111
0020
0000
0000
0000
,  // measure 112
0030
0000
0000
0000
,  // measure 113
2000
0000
3000
0000
,  // measure 114
0002
0000
0003
0000
,  // measure 115
0020
0000
0030
0000
,  // measure 116
0002
0000
0003
0000
,  // measure 117
2000
0000
0000
0000
,  // measure 118
3000
0000
0000
0000
,  // measure 119
0020
0000
0000
0000
,  // measure 120
0030
0000
0000
0000
,  // measure 121
1000
0000
1000
0000
,  // measure 122
2000
0000
3000
0000
,  // measure 123
0001
0000
0000
0000
,  // measure 124
0001
0000
0000
0000
,  // measure 125
0100
0000
0100
0000
,  // measure 126
0200
0000
0300
0000
,  // measure 127
0001
0000
0000
0000
,  // measure 128
0002
0000
0003
0000
,  // measure 129
2000
0000
0000
0000
,  // measure 130
3000
0010
0000
0010
;
