#TITLE:Agony;
#SUBTITLE:;
#ARTIST:Kotoko;
#TITLETRANSLIT:;
#SUBTITLETRANSLIT:;
#ARTISTTRANSLIT:;
#GENRE:J-Pop;
#CREDIT:Ace Of Hearts;
#BANNER:Agony - bn.png;
#BACKGROUND:Agony - bg.jpg;
#LYRICSPATH:;
#CDTITLE:Ace Of Hearts.png;
#MUSIC:Agony.ogg;
#OFFSET:-0.255;
#SAMPLESTART:25.680;
#SAMPLELENGTH:12.000;
#SELECTABLE:YES;
#DISPLAYBPM:132.000;
#BPMS:0.000=132.000,214.000=264.000,216.000=132.000;
#STOPS:214.000=0.116
,214.500=0.040
,214.667=0.040
,214.833=0.156
,215.500=0.040
,215.667=0.040
,215.833=0.040
;
#BGCHANGES:;
#KEYSOUNDS:;

//---------------dance-single - Ace Of Hearts (2010)----------------
#NOTES:
     dance-single:
     Ace Of Hearts (2010):
     Challenge:
     12:
     0.987,0.430,0.714,0.782,1.000:
0000
0000
0000
0000
,
2002
0000
0000
0000
0000
0000
0000
0003
,
3010
1000
0001
1000
0100
0010
0001
2000
,
0000
3010
0200
0000
0301
1000
0100
0010
,
0100
1000
0001
0000
0010
0001
1000
0002
,
0000
1003
0100
0010
0001
1000
0010
0100
,
0002
0000
1003
0010
0000
0000
1000
0100
0020
0000
0130
1000
0000
0000
0001
1000
,
0200
0000
0310
0001
0000
0000
1000
0010
0200
0000
0301
0000
2000
0000
3100
0000
,
0020
0000
0130
1000
0000
0000
0001
0000
0200
0000
0301
1000
0000
0000
0100
0010
,
0002
0000
1003
0010
0000
0000
1000
0001
0010
0100
1000
0001
0100
0010
1000
0001
,
1000
0010
0100
0001
1000
0100
0010
0100
1000
0001
0010
0001
1000
0010
0100
0001
,
1000
0010
0100
0001
0100
0010
1000
0001
0010
0100
1000
0001
0100
0010
0100
0001
,
1000
0100
0010
0001
1000
0010
0100
0001
1000
0001
0010
0100
0010
0001
1000
0001
,
1000
0100
1000
0100
1000
0100
0010
0001
0010
0001
0010
0001
1000
0010
1000
0010
1000
0010
0100
0001
0100
0001
0100
0001
,
0200
0000
0310
1010
0000
0000
1000
0001
0021
0000
0130
1100
0000
0000
1000
0001
,
0201
0000
0310
2010
0000
0000
3001
0100
0120
0000
1030
0000
0002
0000
0103
0000
,
0120
0000
1030
1100
0000
0000
0100
0010
0012
0000
1003
1010
0000
0000
0010
0100
,
0102
0000
1003
1100
0000
0000
0100
0010
0012
0000
0103
0000
0120
0000
1030
0000
,
1002
0000
0103
0110
0000
0000
0010
1000
1200
0000
0310
0011
0000
0000
0001
1000
,
1020
0000
0130
0101
0000
0000
1000
0010
0210
0000
0301
0000
2001
0000
3100
0000
,
0010
0000
0001
0000
0010
0000
0001
0000
0010
0000
0001
0000
0010
0000
0000
0000
0000
0000
0001
0000
0000
1000
0000
0000
0010
0000
1000
0000
0010
0000
1000
0000
0010
0000
1000
0000
0010
0000
0000
0000
0000
0000
1000
0000
0000
0001
0000
0000
,
0010
0100
0010
0001
1000
0010
0100
0001
1000
0100
0010
0000
0100
0000
1000
0000
,
1002
0000
0000
0103
0000
0000
0001
0000
4000
0000
0000
0000
3000
0000
0001
0100
,
0120
0000
1030
0000
0001
0000
0400
0000
0000
0000
0301
0000
1000
0000
0100
0010
,
0002
0000
1000
0000
0100
0000
1003
0100
0020
0000
0001
0000
1000
0000
0130
0010
,
0002
0000
1000
0000
0100
0000
0013
0100
2000
0000
3001
0000
0100
0010
1000
0000
,
2010
0000
0000
0000
3001
0000
0100
0000
0010
0100
0001
0000
1000
0000
0100
0010
,
0100
1000
0001
0000
0100
0000
0010
0000
1000
0001
0010
0000
0001
0000
0100
0010
,
1000
0001
0010
0001
0000
0000
1000
0010
0100
0001
1000
0000
0100
0000
0120
0000
,
0030
0000
0000
0000
0000
0000
0011
0000
0000
0000
0000
0000
1001
0000
0000
0000
0000
0000
1000
0000
0000
0010
0000
0000
0100
0000
0001
0000
0100
0000
0001
0000
0100
0000
0001
0000
1000
0000
0000
0000
0000
0000
0100
0000
0000
0010
0000
0000
,
0011
0001
1000
0000
0010
0000
0200
0300
0101
0000
0001
0000
1000
0000
0010
0210
,
0300
0101
0000
0001
1001
0000
1000
0010
0120
0000
0130
0000
0101
0000
0001
1002
,
0000
1003
0000
0100
0110
0000
0010
0001
0201
0000
0310
0000
1020
0000
1030
1200
,
0000
0310
0000
0001
1001
0000
1000
0000
0010
1000
0100
0000
0100
1000
0001
0000
,
0201
0000
0310
1010
0000
0000
1000
0100
0120
0000
0031
0101
0000
0000
0100
0010
,
2010
0000
3001
0011
0000
0000
0010
0100
2100
0000
3001
0000
0201
0000
0310
0000
,
1000
0001
0010
0001
1000
0010
0100
0001
1000
0100
0010
0100
1000
0001
0100
0010
,
1000
0000
0010
0000
1000
0000
0010
0000
1000
0000
0010
0000
0100
0000
0001
0000
0100
0000
0001
0000
0100
0000
0001
0000
1000
0000
0000
0100
0000
0000
0010
0000
0000
0001
0000
0000
0010
0000
0000
0100
0000
0000
1000
0000
0000
0001
0000
0000
,
0201
0000
0000
0000
0310
0000
2010
0000
0000
0000
3001
0000
0010
0000
0001
0201
,
0000
0310
0000
1000
1100
0000
0100
0010
0021
0000
0031
0000
1002
0000
1003
1020
,
0000
0130
0000
0001
0011
0000
0010
0100
2100
0000
3001
0000
0101
0000
0100
0120
,
0000
1030
0000
1000
1001
0000
0001
0010
0001
1000
0010
0100
0001
1000
0100
0010
,
0012
0000
1003
1020
0000
0000
0130
0001
0021
0000
0130
2100
0000
0000
3001
0100
,
0120
0000
1030
1002
0000
0000
1003
0000
1020
0000
0130
0000
0102
0000
1003
0000
,
1200
0000
0310
0001
1001
1000
0000
0010
0110
0100
0000
0100
0101
0001
0000
0001
,
1001
0000
0000
0000
1000
0000
0010
2000
0000
0000
3200
0000
0001
0000
1000
0000
,
0001
0000
0310
0000
0001
2000
0000
3010
0000
1000
0001
0000
0001
0200
0000
0310
,
0000
1000
0001
0000
0001
0020
0000
0130
0000
1000
0001
0000
0001
0200
0000
0310
,
0000
1000
0100
0000
0100
0020
0000
0130
0000
1000
0001
0000
0001
0200
0000
0310
,
0000
1000
0010
0000
0010
0200
0000
0301
0000
1000
0100
0000
0100
0010
0001
1000
,
0001
0100
0010
1000
0001
0010
0100
0010
0001
1000
0001
0100
0010
1000
0001
0010
,
0100
1000
0100
0010
0001
1000
0001
0100
0010
1000
0100
0010
0100
1000
0001
0100
,
0010
1000
0001
0010
0001
1000
0010
0100
0001
1000
0010
1000
0001
0010
0100
1000
,
0001
0100
0001
0100
0001
0100
0010
1000
0010
1000
0010
1000
0001
0000
0000
1000
0100
1000
0000
0000
0000
0001
0100
0001
,
2001
0000
3010
0210
0000
0000
0301
1000
1200
0000
0310
0012
0000
0000
1003
0010
,
0210
0000
0301
2001
0000
0000
3010
0100
0102
0000
1003
0000
1200
0000
0310
0000
,
0012
0000
1003
1010
0000
0000
0010
0100
0102
0000
1003
1010
0000
0000
1000
0001
,
0021
0000
0130
2100
0000
0000
3001
0100
0120
0000
1030
0000
1200
0000
0310
0000
,
0012
0000
0103
0110
0000
0000
0010
1000
1200
0000
0310
0011
0000
0000
0001
0100
,
0120
0000
1030
1100
0000
0000
0100
0010
0012
0000
1003
0000
1020
0000
0130
0000
,
0001
0000
1000
0000
0001
0000
1000
0000
0001
0000
1000
0000
0100
0000
0000
0000
0000
0000
0010
0000
0000
0100
0000
0000
1000
0000
0100
0000
1000
0000
0100
0000
1000
0000
0100
0000
0010
0000
0000
0001
0000
0000
1000
0000
0000
0010
0000
0000
,
0100
0001
1000
0100
0010
0100
1000
0001
0201
0000
0310
0000
1000
0000
0100
0000
,
0120
0000
0000
0000
0031
0000
1000
0010
0200
0000
0001
0000
0301
0000
1000
0010
,
0200
0000
0301
0000
1000
0000
0100
0000
0010
0000
0100
0000
1000
0000
0001
0100
,
0020
0000
1000
0000
0001
0000
1030
0100
2000
0000
0010
0000
0100
0000
3001
0100
,
0020
0000
1000
0000
0001
0000
1030
0100
0010
0000
0001
0000
1000
0000
0010
0000
,
0220
0000
0330
0000
0100
0000
0001
0000
0100
0010
1000
0000
0001
0000
0010
0100
,
1000
0001
0100
0010
1000
0000
0002
0000
0000
0000
0013
0100
1000
0000
0001
0100
,
0010
1000
0001
0010
0100
0010
0001
1000
0010
1000
0001
0000
0010
0000
0210
0000
,
0000
0000
0000
0000
0000
0000
1300
0000
0000
0000
0000
0000
1001
0000
0000
0000
0000
0000
0001
0000
0000
0010
0000
0000
0100
0000
1000
0000
0100
0000
1000
0000
0100
0000
1000
0000
0001
0000
0010
0000
0001
0000
0010
0000
0001
0000
0010
0000
,
0100
1000
0001
0000
0100
0000
0020
0000
0000
0000
1030
0000
0001
0000
0100
0120
,
0000
1030
0000
0001
1001
0000
1000
0010
0120
0000
0130
0000
0101
0000
0001
2001
,
0000
3100
0000
0010
0011
0000
0001
1000
1020
0000
0130
0000
0201
0000
0301
2001
,
0000
3100
0000
0010
0011
0000
0001
0000
0201
0000
0310
0000
2010
0000
3100
0000
,
0120
0000
0031
1001
0000
0000
1000
0010
0210
0000
0301
1001
0000
0000
1000
0001
,
0021
0000
0130
1100
0000
0000
1000
0001
0100
0010
1000
0001
0010
0100
0010
0001
,
1000
0010
0100
0001
1000
0100
0010
0100
1000
0001
0100
0010
1000
0010
0100
0001
,
1000
0000
0010
0000
1000
0000
0010
0000
1000
0000
0010
0000
0100
0000
0001
0000
0100
0000
0001
0000
0100
0000
0001
0000
1000
0000
0000
0100
0000
0000
0010
0000
0000
0100
0000
0000
1000
0000
0000
0001
0000
0000
0100
0000
0000
0010
0000
0000
,
2000
0000
3001
0000
0010
0100
2000
0000
3001
0000
0100
0000
0010
0000
1000
1200
,
0000
0310
0000
0001
2001
0000
3010
0100
0102
0000
1003
0000
1010
0000
0010
0210
,
0000
0301
0000
1000
1200
0000
0310
0001
0201
0000
0310
0000
1010
0000
1000
1002
,
0000
0103
0000
0010
2010
0000
3001
0000
0021
0000
0130
0000
2100
0000
3010
0000
,
0210
0000
0301
1001
0000
0000
1000
0010
0210
0000
0301
0011
0000
0000
0001
1000
,
1020
0000
0130
0101
0000
0000
0001
0000
0021
0000
0130
0000
2100
0000
3010
0000
,
1000
0001
0010
0001
1000
0010
0000
1000
1001
0001
0000
0010
0110
0100
0000
0100
,
1100
0000
0000
0000
1000
0000
0001
0200
0000
0000
1000
0000
0001
0000
1000
0000
,
0002
0000
0300
0000
,
0203
0000
0320
0000
,
2030
0000
0000
0000
,
3002
0000
0000
0023
,
0230
0000
0000
0000
,
2300
0000
3020
0000
,
0230
0000
0000
0000
,
0300
0000
0000
0000
,
M1M2
0000
0000
0000
2M03
0000
320M
0000
0000
0000
M310
0000
00M1
0000
100M
0040
,
M000
0000
0000
0000
0030
0000
100M
0100
M020
0000
0M31
0000
10M0
0000
0M01
0040
,
M000
0000
0000
0000
0030
0000
01M0
1000
0M02
0000
M103
0000
001M
0000
1M00
0004
,
00M0
0000
0003
100M
M020
0M00
023M
0000
,
0301
1000
0100
0010
0100
1000
0001
0100
0010
1000
0001
0010
0100
0010
0001
1000
,
0001
1000
0010
0100
0001
0010
0100
1000
0001
0100
0010
1000
0001
1000
0100
0010
,
0001
1000
0010
0100
0001
1000
0100
0010
0100
1000
0001
0100
0010
1000
0001
0010
,
0001
1000
0010
0100
0001
1000
0100
0010
0100
1000
0001
0100
0010
1000
0001
0010
,
0001
1000
0001
1000
0001
1000
0001
1000
0001
1000
0001
1000
0001
1000
0001
1000
0001
1000
0001
1000
0001
1000
0001
1000
,
0010
0100
0001
0000
1000
0000
1200
0000
0010
0000
0310
0000
0001
0000
1000
1020
,
0000
0130
0000
0100
0102
0000
1003
0010
0210
0000
0301
0000
0011
0000
0010
0210
,
0000
1300
0000
0001
0201
0000
0310
1000
1002
0000
0013
0000
0110
0000
0100
2100
,
0000
3001
0000
0100
0120
0000
1030
0000
1200
0000
0310
0000
0012
0000
0103
0000
,
0120
0000
1030
1001
0000
0000
0001
0100
0120
0000
1030
1100
0000
0000
0100
1000
,
1002
0000
0103
0110
0000
0000
0010
1000
1002
0000
0013
0000
0210
0000
1300
0000
,
0001
0100
0010
1000
0001
0010
0100
1000
0001
0100
0010
1000
0001
0010
0001
1000
,
0010
0000
1000
0000
0010
0000
1000
0000
0010
0000
1000
0000
0001
0000
0000
0100
0000
0000
0010
0000
0000
1000
0000
0000
0001
0000
0000
0010
0000
0000
0100
0000
0000
1000
0000
0000
0001
0000
0000
0100
0000
0000
0010
0000
0000
1000
0000
0000
,
1002
0000
0013
0000
0100
0000
2000
0000
0000
0000
3001
0000
0100
0000
0010
2010
,
0000
3001
0000
0010
0110
0000
0100
1000
1002
0000
0103
0000
0110
0000
0010
2010
,
0000
3001
0000
0010
0210
0000
1300
0001
0201
0000
0310
0000
2010
0000
3001
0021
,
0000
0130
0000
1000
1002
0000
0103
0000
0120
0000
1030
0000
1200
0000
0310
0000
,
0012
0000
1003
1010
0000
0000
0010
0100
0102
0000
1003
0010
0000
0000
1000
0100
,
0010
0000
0000
0100
0000
0000
1000
0000
0000
0001
0000
0000
0100
0000
0000
0010
0000
0000
1000
0000
0000
0001
0000
0000
0010
0000
0000
0001
0000
0000
1000
0000
0000
0010
0000
0000
0100
0000
0001
0000
0100
0000
0001
0000
0100
0000
0001
0000
,
0100
0000
0010
1000
1100
0100
0000
0010
0011
0001
0000
1000
1010
0010
0000
0100
,
0101
0000
0000
0000
0001
0000
1000
0200
0000
0000
1000
0000
0001
0000
1000
0000
,
0002
0000
0000
0000
,
0003
0000
0000
0000
,
0300
0010
0001
0000
0001
2000
0000
3010
0000
0100
0010
0000
0010
2000
0000
3001
,
0000
0010
0100
0000
0100
2000
0000
3010
0000
0100
0001
0000
0001
2000
0000
3100
,
0010
0100
1000
0001
0100
0010
1000
0001
0010
0100
1000
0001
0100
0010
1000
0001
,
1000
0010
0100
0001
1000
0010
0100
0001
1000
0100
0010
0100
1000
0001
0100
0010
,
1000
0001
0010
0100
1000
0100
0010
0001
1000
0010
0100
0001
1000
0100
0010
0001
,
0010
0100
0010
0100
0010
0100
0010
0100
0010
0100
0010
0100
0010
0100
0010
0100
0010
0100
0010
0100
0010
0100
0010
0100
,
0020
0031
1000
0200
0000
0320
0000
0032
,
0000
1003
0010
0200
0000
0302
0000
2003
,
0000
3010
0100
0001
0000
1000
0000
0200
,
0000
1300
0002
0000
0023
0000
0230
0000
,
2300
0000
3001
0100
0001
1000
0000
0200
,
0000
0310
0001
0100
0000
0001
0000
0020
,
0000
0130
1000
0001
0000
1000
0000
0200
,
0000
1300
0001
0100
0010
0000
0100
0000
,
0002
0000
1003
0100
0010
0001
0000
2000
,
0000
0000
3010
0000
0100
0000
0001
0000
0000
0000
1000
0000
0001
0100
0001
1000
,
0000
0010
0100
0000
0001
1000
0000
0010
0000
1000
0100
0000
1000
0001
0000
0010
,
0000
0001
1000
0000
0010
1000
0000
0001
0000
0010
0100
0000
1000
0001
0000
0100
,
0000
0010
1000
0000
0001
0010
0000
0001
0000
1000
0010
0000
1000
0001
0000
0100
,
0000
0001
1000
0000
0100
1000
0000
0001
0000
0100
0010
0000
1000
0001
0000
0010
;

//---------------dance-single - Ace Of Hearts (2010)----------------
#NOTES:
     dance-single:
     Ace Of Hearts (2010):
     Hard:
     10:
     0.707,0.430,0.000,0.748,0.673: // measure 1
0000
0000
0000
0000
,  // measure 2
0000
0000
0000
0000
,  // measure 3
1000
0100
0010
0001
0010
0100
1000
0002
,  // measure 4
0000
1003
0200
0000
0310
0100
1000
0001
,  // measure 5
0100
0010
1000
0000
0001
0010
0100
2000
,  // measure 6
0000
3001
0100
0010
1000
0001
0010
0100
,  // measure 7
2000
0000
3001
0010
0000
0000
0001
1000
0020
0000
0130
0001
0000
0000
1000
0100
,  // measure 8
0020
0000
0130
1000
0000
0000
0001
0100
0001
0000
2000
0000
3100
0000
0010
0000
,  // measure 9
0200
0000
1300
0001
0000
0000
1000
0000
0020
0000
1030
0001
0000
0000
0010
0100
,  // measure 10
2000
0000
3001
0100
0000
0000
0010
0100
0002
0000
1003
0000
0100
0000
0010
0000
,  // measure 11
0001
1000
0010
1000
0100
0010
0100
1000
0001
0010
0100
0010
0001
1000
0010
1000
,  // measure 12
0001
0000
0010
0100
0010
0001
1000
0010
0100
0010
1000
0001
0010
0100
1000
0001
,  // measure 13
0010
0000
0001
1000
0010
0100
0001
1000
0100
1000
0001
0100
0010
1000
0001
0010
,  // measure 14
0400
4000
0000
0000
0000
0000
0000
0000
0000
0000
0000
0000
0000
0000
0000
0000
0000
0000
0000
0000
0000
3300
0000
0000
,  // measure 15
2000
0000
3001
0100
0000
0000
0010
1000
0002
0000
1003
0010
0000
0000
1000
0100
,  // measure 16
0020
0000
0130
2000
0000
0000
3001
0010
0200
0000
0310
0000
0002
0000
0103
0000
,  // measure 17
0020
0000
1030
0001
0000
0000
0010
0100
2000
0000
3001
0100
0000
0000
0010
0100
,  // measure 18
0002
0000
1003
0010
0000
0000
1000
0001
0020
0000
0031
0000
0200
0000
0310
0000
,  // measure 19
2000
0000
3100
0010
0000
0000
0100
1000
0002
0000
0103
0010
0000
0000
1000
0001
,  // measure 20
0020
0000
0130
2000
0000
0000
3001
0100
0020
0000
1030
0000
0002
0000
0103
0000
,  // measure 21
0040
0000
0000
0000
0030
0000
1000
0001
0400
0000
0000
0000
0300
0000
0100
0010
,  // measure 22
1000
0001
0010
0100
1000
0001
0100
0010
2000
0000
3001
0000
0010
0000
0001
0000
,  // measure 23
2000
0000
0000
3020
0000
0000
0130
0000
0002
0000
0000
0000
0003
0000
1000
0100
,  // measure 24
0020
0000
0130
0000
1000
0000
0002
0000
0000
0000
0103
0000
0010
0000
1000
0001
,  // measure 25
0020
0000
0001
0000
0031
0000
1000
0010
0200
0000
0001
0000
0301
0000
1000
0100
,  // measure 26
0020
0000
0000
0000
0130
0000
1000
0001
0100
0000
0010
0000
1000
0000
0001
0000
,  // measure 27
0020
0000
0000
0230
0000
0000
1300
0000
2000
0000
0000
0000
0000
0000
0000
0000
,  // measure 28
3000
0001
0100
0020
0000
1030
0001
0010
,  // measure 29
0002
0000
1003
0010
0000
0000
2000
0000
3100
0000
0010
0000
0001
0000
2000
0000
,  // measure 30
0000
0000
3010
0000
0010
0000
1000
0100
0040
0000
0000
0000
0030
0000
0001
1000
,  // measure 31
0020
0000
0000
2030
0000
0000
3002
0000
0000
0000
0103
0000
0010
0000
1000
0200
,  // measure 32
0000
0000
0000
0000
0300
0000
1000
0001
0100
0000
0010
0000
0100
0000
0001
2000
,  // measure 33
0000
0000
0000
0000
3000
0000
0001
1000
0100
0000
0010
0000
0100
0000
1000
0002
,  // measure 34
0000
0000
0003
1000
0002
0013
0020
0130
,  // measure 35
0200
0000
0310
0001
0000
0000
1000
0010
0200
0000
0310
1000
0000
0000
0001
0010
,  // measure 36
0002
0000
1003
0010
0000
0000
0100
0001
2000
0000
3100
0000
0010
0000
0100
0000
,  // measure 37
2000
0000
0000
0000
3001
0000
1000
0010
0200
0000
0000
0000
0000
0000
0000
0000
,  // measure 38
0300
0000
0000
0000
0002
0000
1003
0020
0000
0000
0130
0000
0001
0000
1000
0000
,  // measure 39
0200
0000
0000
0000
0310
0000
0002
0000
0000
0000
1003
0000
0010
0000
0100
0002
,  // measure 40
0000
0000
0000
0000
0003
0000
0010
0001
1000
0000
0010
0000
1000
0000
0001
0020
,  // measure 41
0000
0000
0000
0000
0030
0000
0001
0010
0100
0000
1000
0000
0001
0000
1000
0200
,  // measure 42
0000
0000
0300
0010
0200
1300
0002
0103
,  // measure 43
0020
0000
1030
0001
0000
0000
0010
0100
2000
0000
3001
0100
0000
0000
0010
0100
,  // measure 44
0002
0000
1003
0010
0000
0000
1000
0000
0002
0000
0103
0000
0200
0000
0310
0000
,  // measure 45
0020
0000
1030
0001
0100
0010
0000
0010
1000
0001
0000
0001
0010
0100
0000
0100
,  // measure 46
1000
0000
0000
0000
0001
0000
0100
0020
0000
0000
0100
0000
1000
0000
0100
0000
,  // measure 47
2030
0000
3001
0000
0010
0001
0000
0001
0000
1000
0010
0000
0010
0100
0000
0100
,  // measure 48
0000
0001
1000
0000
1000
0010
0000
0010
0000
1000
0001
0000
0001
0100
0000
0100
,  // measure 49
0000
0010
1000
0000
1000
0001
0000
0001
0000
1000
0100
0000
0100
0010
0000
0010
,  // measure 50
0000
0001
1000
0000
1000
0001
0000
0001
0000
0100
0010
0000
0010
1000
0000
1000
,  // measure 51
0001
1000
0010
0100
0010
1000
0001
0010
0100
0010
0001
1000
0001
0100
0010
1000
,  // measure 52
0001
0000
0010
0001
1000
0010
0100
0001
1000
0100
0010
0100
1000
0001
0100
0001
,  // measure 53
1000
0000
0100
0010
0100
1000
0001
0100
0010
1000
0001
0010
0100
1000
0001
1000
,  // measure 54
0004
0040
0000
0000
0000
0000
0000
0000
0000
0000
0000
0000
0033
0000
0000
0400
0000
0300
0000
0000
0000
4000
0000
3000
,  // measure 55
0002
0000
0103
0010
0000
0000
1000
0001
0020
0000
0130
1000
0000
0000
0001
0100
,  // measure 56
0002
0000
1003
0100
0000
0000
1000
0010
0200
0000
0301
0000
2000
0000
3100
0000
,  // measure 57
0020
0000
0031
1000
0000
0000
0010
1000
0200
0000
1300
0001
0000
0000
0100
0010
,  // measure 58
2000
0000
3001
0010
0000
0000
0001
0100
0020
0000
1030
0000
0200
0000
0310
0000
,  // measure 59
0002
0000
0103
0010
0000
0000
1000
0001
0020
0000
0130
1000
0000
0000
0001
0100
,  // measure 60
0020
0000
1030
0001
0000
0000
1000
0010
0200
0000
0310
0000
2000
0000
3100
0000
,  // measure 61
0040
0000
0000
0000
0030
0000
0001
1000
0400
0000
0000
0000
0300
0000
0010
0001
,  // measure 62
1000
0010
1000
0001
0010
0000
0001
0000
2000
0000
3010
0000
0100
0000
0001
0000
,  // measure 63
2000
0000
0000
3010
0000
0000
0100
0000
0002
0000
0000
0000
0003
0000
1000
0100
,  // measure 64
0020
0000
0130
0000
1000
0000
0002
0000
0000
0000
0103
0000
0010
0000
1000
0001
,  // measure 65
0020
0000
0100
0000
0130
0000
1000
0001
0200
0000
0010
0000
0310
0000
1000
0001
,  // measure 66
0020
0000
0100
0000
0130
0000
1000
0001
0100
0000
0010
0000
0100
0000
0001
0000
,  // measure 67
2000
0000
0000
3002
0000
0000
0103
0000
0200
0000
0000
0000
0000
0000
0000
0000
,  // measure 68
0300
0001
1000
0020
0000
1030
0001
0010
,  // measure 69
0200
0000
0310
0001
0000
0000
1000
0001
0100
0000
0010
0000
1000
0000
0002
0000
,  // measure 70
0000
0000
0010
0000
0013
0000
0100
1000
0004
0000
0000
0000
0003
0000
1000
0010
,  // measure 71
0200
0000
0000
0000
0301
0000
2000
0000
0000
0000
3100
0000
0010
0000
0001
0200
,  // measure 72
0000
0000
0000
0000
0300
0000
0010
0100
0001
0000
1000
0000
0100
0000
0010
0002
,  // measure 73
0000
0000
0000
0000
0003
0000
0100
0001
1000
0000
0100
0000
0010
0000
0100
2000
,  // measure 74
0000
0000
3000
0010
2000
3100
0020
0031
,  // measure 75
2000
0000
3001
0100
0000
0000
0010
1000
0002
0000
0013
0100
0000
0000
1000
0001
,  // measure 76
0200
0000
0310
1000
0000
0000
0001
0010
0200
0000
0310
0000
0001
0000
1000
0000
,  // measure 77
0020
0000
0000
0000
0000
0000
1030
0001
0200
0000
0000
0000
0000
0000
0000
0000
,  // measure 78
0340
0000
0000
0000
2030
0000
3001
0020
0000
0000
0130
0000
1000
0000
0001
0000
,  // measure 79
0200
0000
0000
0000
0310
0000
2000
0000
0000
0000
3010
0000
0100
0000
0001
2000
,  // measure 80
0000
0000
0000
0000
3000
0000
0001
1000
0100
0000
0010
0000
0100
0000
1000
0020
,  // measure 81
0000
0000
0000
0000
0030
0000
1000
0001
0020
0000
0031
0000
1000
0000
0010
0200
,  // measure 82
0000
0000
0300
0001
2000
3010
0020
0130
,  // measure 83
0100
0000
0001
1000
0000
0000
0100
0010
0002
0000
1003
0010
0000
0000
0100
0001
,  // measure 84
2000
0000
3100
0010
0000
0000
0100
1000
0002
0000
0103
0000
0200
0000
0310
0000
,  // measure 85
0020
0000
1030
0001
0100
0010
0000
0010
0100
0001
0000
0001
1000
0100
0000
0100
,  // measure 86
0010
0000
0000
0000
0001
0000
1000
0200
0000
0000
1000
0000
0010
0000
1000
0000
,  // measure 87
0020
0000
0300
0000
,  // measure 88
0032
0000
2003
0000
,  // measure 89
3200
0000
0000
0000
,  // measure 90
0320
0000
0000
0032
,  // measure 91
2003
0000
0000
0000
,  // measure 92
3200
0000
0320
0000
,  // measure 93
0230
0000
0000
0000
,  // measure 94
0300
0000
0000
0000
,  // measure 95
20M0
0000
0000
0000
3001
0000
0200
0000
000M
0000
0310
0000
1000
0000
0001
0020
,  // measure 96
M000
0000
0000
0000
0030
0000
0001
1000
0M20
0000
0130
0000
0001
0000
1000
0020
,  // measure 97
000M
0000
0000
0000
0030
0000
1000
0001
02M0
0000
0310
0000
1000
0000
0001
0200
,  // measure 98
M000
0000
0300
0010
2M00
0000
3002
0000
,  // measure 99
0023
0000
0130
1000
0000
0000
0001
0100
0020
0000
1030
0001
0000
0000
0010
0100
,  // measure 100
2000
0000
3001
0100
0000
0000
0010
1000
0001
0010
0001
1000
0010
0100
0001
1000
,  // measure 101
0100
0000
1000
0001
0100
0010
1000
0001
0010
0100
0010
0001
1000
0010
0100
0001
,  // measure 102
0100
0000
0010
1000
0001
1000
0100
0010
0100
1000
0001
0100
0010
1000
0001
0010
,  // measure 103
0004
4000
0000
0000
0000
0000
0000
0000
0000
0000
0000
0000
0000
0000
0000
0000
0000
0000
0000
0000
0000
0000
0000
0000
,  // measure 104
3003
0000
0000
0000
0001
0000
0200
0000
0000
0000
0310
0000
1000
0000
0001
0020
,  // measure 105
0000
0000
0000
0000
0030
0000
0001
1000
0010
0000
1000
0000
0001
0000
0010
0200
,  // measure 106
0000
0000
0000
0000
0300
0000
0010
0001
2000
0000
3010
0000
0100
0000
0001
2000
,  // measure 107
0000
0000
3000
0100
0020
0130
2000
3010
,  // measure 108
0200
0000
0301
1000
0000
0000
0100
0010
0002
0000
1003
0010
0000
0000
1000
0001
,  // measure 109
0020
0000
0031
0100
0000
0000
0001
1000
0200
0000
1300
0000
0020
0000
0130
0000
,  // measure 110
0001
0100
0010
1000
0001
0010
0100
0010
0001
1000
0010
0100
0010
1000
0001
0010
,  // measure 111
0400
0000
0000
0000
0310
0001
1000
0010
0100
0010
1000
0001
0010
0100
1000
0001
,  // measure 112
0020
0000
0000
0000
0130
0000
2000
0000
0000
0000
3001
0000
0100
0000
0010
2000
,  // measure 113
0000
0000
0000
0000
3000
0000
0001
0010
0200
0000
1300
0000
0001
0000
0100
0020
,  // measure 114
0000
0000
0000
0000
0030
0000
1000
0010
0200
0000
0301
0000
1000
0000
0100
0020
,  // measure 115
0000
0000
0030
0100
2000
3001
0200
0310
,  // measure 116
2000
0000
3001
0010
0000
0000
0001
0100
0020
0000
1030
0001
0000
0000
0010
0100
,  // measure 117
1000
0100
0010
0001
1000
0010
0100
0010
1000
0001
1000
0100
0010
0001
1000
0010
,  // measure 118
0100
0001
1000
0100
1000
0001
0000
0001
0100
0010
0000
0010
1000
0001
0000
0001
,  // measure 119
0010
0000
0000
0000
0001
0000
1000
0200
0000
0000
1000
0000
0010
0000
1000
0000
,  // measure 120
0020
0000
0000
0000
,  // measure 121
0300
0000
0000
0000
,  // measure 122
0030
0001
1000
0000
0010
0100
0000
0100
0000
0001
1000
0000
1000
0100
0000
0100
,  // measure 123
0000
1000
0001
0000
0001
0010
0000
0010
0000
0100
1000
0000
1000
0001
0000
0001
,  // measure 124
1000
0010
1000
0001
0010
0100
0010
0001
1000
0010
1000
0001
0010
0001
1000
0010
,  // measure 125
0100
0000
0010
1000
0001
0010
0100
0010
0001
1000
0010
1000
0001
0010
0100
1000
,  // measure 126
0001
0000
1000
0100
1000
0001
0100
0010
1000
0001
0010
0100
1000
0001
1000
0010
,  // measure 127
0400
0004
0000
0000
0000
0000
0000
0000
0000
0000
0000
0000
0000
0000
0000
0000
0000
0000
0000
0000
0000
0000
0000
0000
,  // measure 128
0303
0001
1000
0002
0000
0023
0000
0230
,  // measure 129
0000
1300
0001
0200
0000
0302
0000
2003
,  // measure 130
0000
3001
0010
0100
0000
0010
0000
0200
,  // measure 131
0000
1300
0002
0000
0203
0000
0302
0000
,  // measure 132
2003
0000
3100
0010
0000
0001
0000
0200
,  // measure 133
0000
0310
1000
0001
0000
0100
0000
0020
,  // measure 134
0000
0130
0001
1000
0000
0100
0000
2000
,  // measure 135
0000
3001
0010
0100
1000
0000
0001
0000
,  // measure 136
0200
0000
0310
1000
0000
0001
0000
0200
,  // measure 137
0000
0000
0310
0000
0100
0000
0001
0000
0000
0000
1000
0000
0001
0010
0001
1000
,  // measure 138
0000
0001
0100
0000
0001
1000
0000
0100
0000
1000
0001
0000
1000
0010
0000
1000
,  // measure 139
0000
0100
0010
0000
0001
1000
0000
0010
0000
1000
0001
0000
1000
0100
0000
0010
,  // measure 140
0000
0100
1000
0000
0001
0100
0000
0001
0000
1000
0100
0000
0010
0001
0000
1000
,  // measure 141
0000
0001
0100
0000
0010
1000
0000
0001
0000
1000
0100
0000
0010
0001
0000
1000
;

//---------------dance-single - Ace Of Hearts (2010)----------------
#NOTES:
     dance-single:
     Ace Of Hearts (2010):
     Medium:
     8:
     0.441,0.000,0.000,0.424,0.202:
0000
0000
0000
0000
,
0000
0000
0000
0000
,
0000
0000
0000
0000
,
0000
0000
0000
0000
,
0000
0000
0000
0000
,
0000
0000
0000
0000
,
1000
0000
0000
1000
0000
0000
0001
0000
0100
0000
0000
0100
0000
0000
0010
0000
,
1000
0000
0000
1000
0000
0000
0001
0000
0010
0000
0001
0000
1000
0000
0010
0000
,
0100
0000
0000
0100
0000
0000
0001
0000
1000
0000
0000
1000
0000
0000
0001
0000
,
0010
0000
0000
0010
0000
0000
0100
0000
1000
0000
0100
0000
0010
0000
0100
0000
,
1000
0001
0100
0010
0100
0001
1000
0100
,
0010
0000
0001
0100
0010
1000
0010
0100
,
0001
0000
1000
0100
0010
0001
0010
0100
,
4000
0000
0000
0000
,
3000
0000
0000
1000
0000
0000
0001
0000
0100
0000
0000
0100
0000
0000
0010
0000
,
1000
0000
0000
1000
0000
0000
0001
0000
0010
0000
0100
0000
0010
0000
0001
0000
,
1000
0000
0000
1000
0000
0000
0010
0000
0100
0000
0000
0100
0000
0000
0001
0000
,
1000
0000
0000
1000
0000
0000
0100
0000
0010
0000
0100
0000
1000
0000
0001
0000
,
0010
0000
0000
0010
0000
0000
0001
0000
1000
0000
0000
1000
0000
0000
0010
0000
,
0100
0000
0000
0100
0000
0000
0001
0000
0100
0000
0010
0000
0100
0000
0001
0000
,
4000
0000
3000
0001
0400
0000
0300
0010
,
1000
0001
0010
0100
1000
0001
1000
0100
,
0020
0000
0000
0031
0000
0000
1000
0000
0002
0000
0000
0000
0003
0000
1000
0000
,
0010
1000
0001
0200
0000
0310
1000
0001
,
0020
0000
0030
0001
2000
0000
3000
0100
,
0020
0000
0030
0001
1000
0010
1000
0001
,
0020
0000
0000
0031
0000
0000
1000
0000
0200
0000
0000
0000
0000
0000
0000
0000
,
0300
0010
0001
2000
0000
3001
0100
0010
,
2000
0000
0000
3001
0000
0000
0010
0000
0001
0000
1000
0000
0100
0000
0020
0000
,
0000
0000
0030
0000
0004
0000
0003
1000
,
0020
0000
0000
2030
0000
0000
3002
0000
0000
0000
1003
0000
0100
0000
0000
0020
,
0000
0000
0000
0000
0030
0000
0100
0000
1000
0000
0001
0000
1000
0000
0000
0020
,
0000
0000
0000
0000
0030
0000
1000
0000
0001
0000
0010
0000
0100
0000
0000
2000
,
0000
0000
3000
0001
0020
0000
0032
0000
,
1003
0000
0000
1000
0000
0000
0010
0000
0100
0000
0000
0100
0000
0000
0001
0000
,
1000
0000
0000
1000
0000
0000
0100
0000
0010
0000
0001
0000
0010
0000
0100
0000
,
2000
0000
0000
3001
0020
0000
0000
0000
,
0030
0000
0000
0000
0001
0000
0000
2000
0000
0000
3010
0000
0100
0000
0001
0000
,
2000
0000
0000
3200
0000
0000
0320
0000
0000
0000
0130
0000
1000
0000
0000
0002
,
0000
0000
0000
0000
0003
0000
1000
0000
0010
0000
1000
0000
0001
0000
0000
0020
,
0000
0000
0000
0000
0030
0000
0001
0000
1000
0000
0010
0000
1000
0000
0000
0002
,
0000
0000
0003
1000
0020
0000
0230
0000
,
0301
0000
0000
0001
0000
0000
1000
0000
0010
0000
0000
0010
0000
0000
1000
0000
,
0001
0000
0000
0001
0000
0000
0010
0000
0200
0000
0000
0000
2300
0000
0000
0000
,
3001
0000
0000
0100
0000
0000
0010
0000
1000
0000
0000
0001
0000
0000
1000
0000
,
0010
0000
0000
0000
1000
0000
0000
0002
0000
0000
1003
0000
0010
0000
1000
0000
,
0020
0000
0000
0000
1030
0000
0000
1000
0000
0000
0001
0000
0001
0000
0000
0001
,
0000
0000
0010
0000
0010
0000
0000
0010
0000
0000
0100
0000
0100
0000
0000
0100
,
0000
0000
1000
0000
1000
0000
0000
1000
0000
0000
0001
0000
0001
0000
0000
0001
,
0000
0000
0100
0000
0100
0000
0000
0100
0000
0000
0010
0000
0010
0000
0000
0010
,
0000
1000
0001
0100
0010
1000
0001
0010
,
0001
0000
1000
0010
0100
0010
1000
0001
,
0010
0000
0001
1000
0010
0100
0001
1000
,
0400
0000
0000
0000
0300
0010
0000
0010
,
0001
0000
0000
0001
0000
0000
1000
0000
0010
0000
0000
0010
0000
0000
1000
0000
,
0001
0000
0000
0001
0000
0000
1000
0000
0010
0000
0100
0000
0001
0000
1000
0000
,
0100
0000
0000
0100
0000
0000
0010
0000
0001
0000
0000
0001
0000
0000
1000
0000
,
0010
0000
0000
0010
0000
0000
1000
0000
0001
0000
0010
0000
0001
0000
1000
0000
,
0100
0000
0000
0100
0000
0000
0010
0000
0001
0000
0000
0001
0000
0000
1000
0000
,
0010
0000
0000
0010
0000
0000
1000
0000
0001
0000
0010
0000
0001
0000
1000
0000
,
0040
0000
0030
1000
0004
0000
0003
1000
,
0010
1000
0001
0010
0100
1000
0001
0100
,
0001
0000
0000
2000
0000
0000
3010
0000
0200
0000
0000
0000
0300
0000
0001
0000
,
1000
0100
0010
0002
0000
1003
0010
1000
,
0002
0000
0003
1000
0200
0000
0300
1000
,
0002
0000
0003
1000
0010
0100
0001
1000
,
0020
0000
0000
1030
0000
0000
0001
0000
0200
0000
0000
0000
0000
0000
0000
0000
,
0300
0010
1000
0002
0000
0013
0100
1000
,
0001
0000
0000
0001
0000
0000
0100
0000
0001
0000
1000
0000
0100
0000
0020
0000
,
0000
0000
0030
0000
0400
0000
0300
1000
,
0200
0000
0000
0000
0310
0000
0001
0000
0000
0000
1000
0000
0100
0000
0000
0020
,
0000
0000
0000
0000
0030
0000
0100
0000
1000
0000
0001
0000
1000
0000
0000
0020
,
0000
0000
0000
0000
0030
0000
1000
0000
0001
0000
0010
0000
0001
0000
0000
2000
,
0000
0000
3000
0001
0020
0000
0032
0000
,
1003
0000
0000
1000
0000
0000
0010
0000
0100
0000
0000
0100
0000
0000
0001
0000
,
1000
0000
0000
1000
0000
0000
0100
0000
0010
0000
0001
0000
0010
0000
0100
0000
,
2000
0000
0000
3001
0200
0000
0000
0000
,
0304
0000
0003
1000
0010
0100
0010
1000
,
0002
0000
0000
0000
1003
0000
0200
0000
0000
0000
1300
0000
0001
0000
0000
0020
,
0000
0000
0000
0000
0030
0000
0001
0000
1000
0000
0010
0000
1000
0000
0000
0002
,
0000
0000
0000
0000
0003
0000
0010
0000
0100
0000
1000
0000
0001
0000
0000
0200
,
0000
0000
0300
0010
2000
0000
3002
0000
,
0013
0000
0000
0010
0000
0000
0001
0000
1000
0000
0000
1000
0000
0000
0010
0000
,
0100
0000
0000
0100
0000
0000
0001
0000
2000
0000
0000
0000
3200
0000
0000
0000
,
0310
0000
0000
0001
0000
0000
1000
0000
0010
0000
0000
1000
0000
0000
0001
0000
,
0100
0000
0000
0000
0010
0000
0000
2000
0000
0000
3001
0000
0010
0000
0100
0000
,
2000
0000
0000
0000
,
3002
0000
0203
0000
,
0320
0000
0000
0000
,
2030
0000
0000
3002
,
0023
0000
0000
0000
,
0230
0000
2300
0000
,
3002
0000
0000
0000
,
0003
0000
0000
0000
,
2000
0000
0000
3001
0000
0000
0100
0000
0000
0000
0001
0000
1000
0000
0000
0020
,
0000
0000
0000
0000
0030
0000
1000
0000
0001
0000
1000
0000
0100
0000
0000
0020
,
0000
0000
0000
0000
0030
0000
0100
0000
1000
0000
0100
0000
0010
0000
0000
0002
,
0000
0000
0003
1000
0020
0000
0230
0000
,
0301
0000
0000
0001
0000
0000
1000
0000
0100
0000
0000
0100
0000
0000
0010
0000
,
0001
1000
0010
1000
0001
0010
0100
1000
,
0001
0000
1000
0010
1000
0001
0010
0100
,
1000
0000
0001
0100
0010
1000
0001
0010
,
0004
4000
0000
0000
0000
0000
0000
0000
0000
0000
0000
0000
0000
0000
0000
0000
,
3003
0000
0000
0000
1000
0000
0200
0000
0000
0000
0310
0000
0001
0000
0000
2000
,
0000
0000
0000
0000
3000
0000
0010
0000
1000
0000
0001
0000
0100
0000
0000
0020
,
0000
0000
0000
0000
0030
0000
1000
0000
0001
0000
0010
0000
0100
0000
0000
2000
,
0000
0000
3000
0001
2000
0000
3200
0000
,
0310
0000
0000
0010
0000
0000
0001
0000
1000
0000
0000
1000
0000
0000
0010
0000
,
0100
0000
0000
0100
0000
0000
0001
0000
1000
0000
0100
0000
0010
0000
0001
0000
,
1000
0010
1000
0001
1000
0100
0010
0001
,
4000
0000
0000
3000
0000
0001
0010
0001
,
2000
0000
0000
3020
0000
0000
0230
0000
0000
0000
0301
0000
1000
0000
0000
0020
,
0000
0000
0000
0000
0030
0000
1000
0000
0001
0000
0010
0000
0001
0000
0000
2000
,
0000
0000
0000
0000
3000
0000
0010
0000
0100
0000
0001
0000
1000
0000
0000
0020
,
0000
0000
0030
1000
0002
0000
0023
0000
,
0031
0000
0000
0001
0000
0000
0100
0000
0010
0000
0000
0010
0000
0000
1000
0000
,
0001
0000
0000
0001
0000
0000
1000
0000
0020
0000
0000
0000
2030
0000
0000
0000
,
3001
0000
0000
0100
0000
0000
0001
0000
1000
0000
0000
0100
0000
0000
0010
0000
,
0001
0000
0000
0000
1000
0000
0000
0020
0000
0000
1030
0000
0001
0000
0020
0000
,
0200
0000
0000
0000
,
0030
0000
0000
0000
,
0300
0000
1000
0000
0001
0000
0000
0001
0000
0000
1000
0000
0010
0000
0000
0010
,
0000
0000
1000
0000
0001
0000
0000
0001
0000
0000
1000
0000
0100
0000
0000
0000
,
0010
0001
1000
0010
0100
0001
1000
0100
,
0010
0000
0100
1000
0001
0100
0010
1000
,
0001
0000
1000
0010
0100
0001
1000
0100
,
0040
0400
0000
0000
0000
0000
0000
0000
0000
0000
0000
0000
0000
0000
0000
0000
,
0330
0100
1000
0002
0000
1003
0000
0200
,
0000
1300
0001
1000
0000
0100
0000
0020
,
0000
0031
1000
0001
0000
1000
0000
0002
,
0000
1003
0020
0000
2030
0000
3002
0000
,
0203
0000
0310
1000
0000
0001
0000
0200
,
0000
0301
0010
0001
0000
1000
0000
0020
,
0000
1030
0001
0100
0000
0010
0000
0200
,
0000
0301
1000
0001
0020
0000
0130
0000
,
2000
0000
3100
1000
0000
0001
0000
0200
,
0000
0301
1000
0001
0000
0100
0000
0000
,
0001
0000
1000
0000
0010
0000
0000
0010
0000
0000
1000
0000
0001
0000
0000
0001
,
0000
0000
1000
0000
0100
0000
0000
0100
0000
0000
0010
0000
0001
0000
0000
0001
,
0000
0000
1000
0000
0010
0000
0000
0010
0000
0000
1000
0000
0001
0000
0000
0001
,
0000
0000
0010
0000
0100
0000
0000
0100
0000
0000
1000
0000
0001
0000
0000
0001
;

//---------------dance-single - Ace Of Hearts (2010)----------------
#NOTES:
     dance-single:
     Ace Of Hearts (2010):
     Easy:
     5:
     0.249,0.000,0.000,0.343,0.002:
0000
0000
0000
0000
,
0000
0000
0000
0000
,
0000
0000
0000
0000
,
0000
0000
0000
0000
,
0000
0000
0000
0000
,
0000
0000
0000
0000
,
1000
1000
0001
0001
,
0010
0010
0100
0100
,
1000
1000
0001
0001
,
1000
1000
0010
0010
,
2000
0000
0000
0000
,
3002
0000
0000
0000
,
0203
0000
0000
0000
,
0340
0000
0000
0000
,
1030
1000
0001
0001
,
0010
0010
0001
0001
,
1000
1000
0100
0100
,
0010
0010
0100
0100
,
1000
1000
0001
0001
,
0100
0100
0010
0010
,
4000
3000
0004
0003
,
1000
0000
0010
0010
,
0020
0000
1030
0000
,
0001
0001
0001
0000
,
1000
0000
0100
0000
,
0010
0000
0001
0001
,
2000
0000
3000
0000
,
0000
0010
1000
1000
,
0001
0001
0010
0010
,
0020
0030
0004
0003
,
2000
0000
3010
0010
,
0010
0000
0100
0100
,
0100
0000
0001
0001
,
0001
0000
2000
3002
,
0013
0010
0001
0001
,
1000
1000
0010
0010
,
0200
0000
0302
0000
,
0003
1000
0010
0010
,
2000
0000
3001
0001
,
0001
0000
0100
0100
,
0100
0000
0010
0010
,
0010
0000
2000
3002
,
0013
0010
0001
0001
,
1000
1000
0010
0010
,
0020
0000
0000
0000
,
0030
1000
1000
0001
,
0002
0000
0000
0000
,
0003
2000
3000
0020
,
0030
2000
3000
0002
,
0003
0020
0030
0200
,
2300
0000
0000
0000
,
3002
0000
0000
0000
,
0023
0000
0000
0000
,
0430
0000
0300
0000
,
1000
1000
0001
0001
,
0100
0100
0010
0010
,
1000
1000
0001
0001
,
0010
0010
0100
0100
,
1000
1000
0001
0001
,
0100
0100
0010
0010
,
4000
3000
0004
0003
,
0000
0000
0100
0100
,
0002
0000
1003
0000
,
0010
0010
0010
0000
,
1000
0000
0001
0000
,
0010
0000
0100
0100
,
0200
0000
2300
0000
,
3000
0001
0002
0000
,
0103
0100
0010
0010
,
0020
0030
4000
3000
,
0001
0001
0001
0000
,
0020
0000
0130
0100
,
0100
0000
1000
1000
,
1000
0000
0002
2003
,
3010
0010
1000
1000
,
0001
0001
0100
0100
,
0020
0000
2030
0000
,
3004
0000
0003
0000
,
1000
1000
1000
0000
,
0020
0000
0130
0100
,
0100
0000
0001
0001
,
0001
0000
1000
1000
,
0010
0010
0100
0100
,
0001
0001
1000
1000
,
0020
0000
0000
0000
,
0030
1000
1000
0001
,
0002
0000
0000
0000
,
2003
0000
3020
0000
,
2030
0000
0000
0000
,
3002
0000
0000
2003
,
3200
0000
0000
0000
,
0320
0000
0032
0000
,
2003
0000
0000
0000
,
3000
0000
0000
0000
,
0001
0001
0001
0000
,
0020
0030
0100
0100
,
0200
0300
1000
1000
,
2000
3000
0002
2003
,
3010
0010
0100
0100
,
0002
0000
2003
0000
,
3020
2030
3002
0023
,
0031
1000
0001
1000
0001
1000
0001
1000
,
0004
4000
0000
0000
0000
0000
0000
0000
0000
0000
0000
0000
0000
0000
0000
0000
,
3003
1000
1000
0010
,
0010
0000
0100
0100
,
0100
0000
0001
0001
,
0001
0000
1000
1000
,
0100
0100
0010
0010
,
0001
0001
1000
1000
,
2000
0000
3020
0000
,
0430
0000
0300
0000
,
0001
1000
1000
0100
,
0100
0000
0010
0010
,
0010
0000
0001
0001
,
0001
0000
1000
1000
,
0010
0010
0100
0100
,
0001
0001
1000
1000
,
0020
0000
0000
0000
,
0030
0000
1000
0000
0001
1000
0001
1000
,
0002
0000
0000
0000
,
0000
0000
0000
0000
,
0003
2000
3000
0020
,
0030
0200
0300
0002
,
2003
0000
3020
0000
,
0230
0000
0302
0000
,
2003
0000
3200
0000
,
0340
0000
0000
0000
,
0032
1003
1000
0000
,
0020
1030
1000
0000
,
0002
0013
0010
0000
,
0200
1300
1000
0000
,
0002
1003
1000
0000
,
0020
1030
1000
0000
,
0020
0130
0100
0000
,
0002
1003
1000
0000
,
0002
0013
0010
0000
,
0200
1300
1000
0000
,
0001
0002
0003
2000
,
3000
0020
0030
0200
,
0300
0002
0003
2000
,
3000
0200
0300
0020
,
0030
0000
0000
0000
;

//---------------dance-single - Ace Of Hearts (2010)----------------
#NOTES:
     dance-single:
     Ace Of Hearts (2010):
     Beginner:
     2:
     0.135,0.000,0.000,0.141,0.002:
0000
0000
0000
0000
,
0000
0000
0000
0000
,
0000
0000
0000
0000
,
0000
0000
0000
0000
,
0000
0000
0000
0000
,
0000
0000
0000
0000
,
0001
0000
0001
0000
,
0001
0000
0001
0000
,
1000
0000
1000
0000
,
1000
0000
1000
0000
,
0002
0000
0003
0000
,
2000
0000
3000
0000
,
0200
0000
0300
0000
,
0040
0000
0030
0000
,
0001
0000
0001
0000
,
0001
0000
0001
0000
,
1000
0000
1000
0000
,
1000
0000
1000
0000
,
0010
0000
0010
0000
,
0010
0000
0010
0000
,
4000
3000
4000
0000
,
3000
0000
0000
0000
,
0001
0000
0001
0000
,
1000
0000
1000
0000
,
0010
0000
0010
0000
,
0010
0000
0010
0000
,
2000
0000
3000
0000
,
0000
0000
0001
0000
,
0001
0000
0001
0000
,
0002
0000
0003
0000
,
1000
0000
1000
0000
,
1000
0000
0010
0000
,
0010
0000
0100
0000
,
0100
0000
0001
0000
,
0001
0000
0001
0000
,
1000
0000
1000
0000
,
0020
0000
0000
0000
,
0030
0000
1000
0000
,
1000
0000
1000
0000
,
1000
0000
0001
0000
,
0001
0000
0010
0000
,
0010
0000
0010
0000
,
0100
0000
0100
0000
,
0100
0000
1000
0000
,
2000
0000
0000
0000
,
3000
0000
0001
0000
,
0002
0000
0000
0000
,
0000
0000
0000
0000
,
0000
0000
0000
0000
,
0003
0000
0000
0000
,
2000
0000
3000
0000
,
0020
0000
0030
0000
,
2000
0000
3000
0000
,
0004
0000
0003
0000
,
1000
0000
1000
0000
,
1000
0000
1000
0000
,
0010
0000
0010
0000
,
0010
0000
0010
0000
,
0100
0000
0100
0000
,
0100
0000
0100
0000
,
0004
0003
0004
0000
,
0003
0000
0000
0000
,
1000
0000
1000
0000
,
0010
0000
0010
0000
,
0100
0000
0100
0000
,
0100
0000
0001
0000
,
0002
0000
0003
0000
,
0000
0000
1000
0000
,
1000
0000
0010
0000
,
0020
0000
0030
0000
,
1000
0000
1000
0000
,
1000
0000
0001
0000
,
0001
0000
0010
0000
,
0010
0000
0100
0000
,
0010
0000
0010
0000
,
0001
0000
0001
0000
,
2000
0000
3000
0000
,
0040
0000
0030
0000
,
1000
0000
1000
0000
,
1000
0000
0010
0000
,
0010
0000
0100
0000
,
0100
0000
0001
0000
,
1000
0000
1000
0000
,
0100
0000
0100
0000
,
0020
0000
0000
0000
,
0030
0000
0001
0000
,
0002
0000
0000
0000
,
0000
0000
0000
0000
,
0003
0000
0000
0000
,
2000
0000
3000
0000
,
0002
0000
0003
0000
,
0200
0000
0300
0000
,
0002
0000
0000
0000
,
0003
0000
0000
0000
,
1000
0000
1000
0000
,
1000
0000
0001
0000
,
0001
0000
0100
0000
,
0100
0000
0010
0000
,
1000
0000
1000
0000
,
0001
0000
0001
0000
,
2000
0000
3002
0000
,
1003
0001
1000
0001
,
4000
0004
0000
0000
0000
0000
0000
0000
0000
0000
0000
0000
0000
0000
0000
0000
,
3003
0000
1000
0000
,
1000
0000
0010
0000
,
0010
0000
0100
0000
,
0100
0000
0001
0000
,
1000
0000
1000
0000
,
0100
0000
0100
0000
,
0010
0000
0010
0000
,
0000
0000
0001
0000
,
1000
0000
1000
0000
,
1000
0000
0010
0000
,
0010
0000
0100
0000
,
0100
0000
0001
0000
,
1000
0000
1000
0000
,
0001
0000
0001
0000
,
0020
0000
0000
0000
,
0030
0001
1000
0001
,
2000
0000
0000
0000
,
0000
0000
0000
0000
,
3000
0001
0000
0001
,
0000
0100
0000
0100
,
0002
0000
0003
0000
,
2000
0000
3000
0000
,
0020
0000
0030
0000
,
0400
0000
0000
0000
,
0302
0000
0000
0000
0003
0000
0000
2000
,
0000
0000
0000
0000
3000
0000
0000
0020
,
0000
0000
0000
0000
0030
0000
0000
0200
,
0000
0000
0300
0000
,
0002
0000
0000
0000
0003
0000
0000
0020
,
0000
0000
0000
0000
0030
0000
0000
0002
,
0000
0000
0000
0000
0003
0000
0000
2000
,
0000
0000
3000
0000
,
0020
0000
0000
0000
0030
0000
0000
2000
,
0000
0000
3000
0000
,
0001
0000
0001
0000
,
1000
0000
0010
0000
,
1000
0000
0001
0000
,
1000
0000
0100
0000
,
0010
0000
0000
0000
;
