#TITLE:Work Guy!!;
#SUBTITLE:;
#ARTIST:Yoshiki Fukuyama;
#TITLETRANSLIT:;
#SUBTITLETRANSLIT:;
#ARTISTTRANSLIT:;
#GENRE:J-Rock;
#CREDIT:Ace Of Hearts;
#BANNER:Work Guy - Bn.png;
#BACKGROUND:Work Guy - Bg.png;
#LYRICSPATH:;
#CDTITLE:Ace Of Hearts.png;
#MUSIC:Work Guy!!.ogg;
#OFFSET:0.760;
#SAMPLESTART:16.200;
#SAMPLELENGTH:12.000;
#SELECTABLE:YES;
#DISPLAYBPM:120.000:240.000;
#BPMS:0.000=240.000,64.000=120.000,77.000=240.000,116.000=120.000,129.000=240.000,166.000=120.000,182.000=240.000,238.000=480.000,246.000=240.000;
#STOPS:238.000=0.070
,238.500=0.070
,239.000=0.070
,239.500=0.140
,241.000=0.070
,241.500=0.070
,242.000=0.070
,242.500=0.140
,244.000=0.070
,244.500=0.070
,245.000=0.070
,245.500=0.070
;
#BGCHANGES:3.333=Work Guy!! Video.avi=1.000=0=0=1=====,
99999=-nosongbg-=1.000=0=0=0 // don't automatically add -songbackground-
;
#KEYSOUNDS:;

//---------------dance-single - Ace Of Hearts (2010)----------------
#NOTES:
     dance-single:
     Ace Of Hearts (2010):
     Hard:
     9:
     0.690,0.000,0.145,1.000,0.156: // measure 1
0000
0000
0000
0000
,  // measure 2
0000
0000
0000
0000
,  // measure 3
0000
0000
0000
0000
,  // measure 4
0000
0000
0000
0000
,  // measure 5
0000
0000
0000
0000
,  // measure 6
0000
0000
0000
0000
,  // measure 7
0001
0010
0001
1000
0001
0100
0001
2000
,  // measure 8
0000
3020
0230
0302
,  // measure 9
1003
0100
1000
0001
1000
0010
0100
0002
,  // measure 10
0000
0043
0000
0030
,  // measure 11
0100
1000
0001
1000
0001
0100
0010
2000
,  // measure 12
0000
3002
0203
0320
,  // measure 13
1030
0001
1000
0100
0010
0001
1000
0000
,  // measure 14
2100
0000
0000
3002
0000
0003
0201
0000
,  // measure 15
0000
0320
0000
0030
0220
0000
0330
2002
,  // measure 16
0000
0000
0000
0000
,  // measure 17
0000
0000
0000
0000
0000
0000
0000
0000
0000
3003
0000
0000
2000
0000
0000
3001
0000
0000
0200
0000
0301
1000
0000
0000
,  // measure 18
0100
0000
0000
0000
0000
0000
0020
0000
0000
0000
0000
0000
0030
0000
0000
0200
0000
0000
0000
0000
0000
0300
1000
0000
0002
0000
0000
0000
0000
0000
2003
0000
0000
0000
0000
0000
3200
0000
0000
0000
1300
0000
0001
0000
0000
0000
0020
0000
,  // measure 19
0000
0000
0000
0000
0000
0000
0030
0000
0001
1000
0000
0001
0020
0000
0000
0032
0000
0000
2003
0000
0000
3020
0000
0000
,  // measure 20
0230
0000
0000
0000
0000
0000
0000
0000
0000
0000
0000
0000
0000
0000
0000
0000
0000
0000
0301
0000
0000
0000
0000
0000
0000
0000
0000
0000
0000
0000
0000
0000
0000
0000
0000
0000
0000
0000
0000
0000
0000
0000
1000
0000
0000
0000
0000
0000
0000
0000
0000
0000
0000
0000
0000
0000
0000
0000
0000
0000
0000
0000
0000
0000
0000
0000
0000
0000
0000
0000
0000
0000
0000
0000
0000
0000
0000
0000
0000
0000
0001
0000
0000
0000
0000
0000
0000
0000
0000
0000
0000
0000
0000
0000
0000
0000
0100
0000
0000
0000
0000
0000
0000
0000
0000
0000
0000
0000
0000
0000
0000
0000
0000
0000
0000
0000
0000
0000
0000
0000
0000
0000
0000
0000
0000
0000
0000
0000
0001
0000
0000
0000
0000
0000
0000
0000
0000
0000
0000
0000
0000
0000
0000
0000
0000
0000
0000
0000
0000
0000
0000
0000
2000
0000
0000
0000
0000
0000
0000
0000
0000
0000
0000
0000
0000
0000
0000
0000
0000
0000
0000
0000
0000
0000
0000
0000
0000
0000
0000
0000
0000
0000
0000
0000
0000
0000
0000
0000
0000
0000
0000
0000
,  // measure 21
3001
0000
0000
0000
0000
0000
0000
0100
0000
0000
0000
0000
0000
0000
0000
0000
0000
0000
0000
0000
0001
0000
0000
0000
2000
0000
0000
0000
0000
0000
0000
0000
0000
0000
0000
0000
0000
0000
0000
0000
0000
0000
0000
0000
0000
0000
0000
0000
,  // measure 22
0000
0000
3000
0000
0000
0000
0001
0010
,  // measure 23
0100
1000
0100
0010
0001
2000
0000
0000
,  // measure 24
3020
0000
0230
0000
0302
0000
1003
0100
,  // measure 25
1000
0001
0100
0010
1000
0200
0000
0310
,  // measure 26
0001
1000
0002
0000
2003
0000
3010
1000
,  // measure 27
0001
0010
0100
1000
0001
0200
0000
0000
,  // measure 28
0320
0000
2030
0000
3002
0000
1003
0100
,  // measure 29
0010
0100
1000
0001
0100
0020
0000
0000
,  // measure 30
0000
0000
0000
0000
0030
0000
2000
0000
3002
0000
1003
0100
0020
0000
0230
0000
,  // measure 31
1300
0000
0000
0002
0000
0000
0000
0000
0000
0003
1000
0000
0010
0000
0000
0000
1000
0000
0002
0000
0000
0000
0000
0000
0023
0000
0000
0000
0000
0000
0031
0000
0000
0000
1000
0000
0100
0000
0000
0000
0020
0000
0000
0000
0000
0000
0000
0000
,  // measure 32
0000
0000
0000
0030
0000
0100
1000
0000
0001
0020
0000
0000
0032
0000
0000
2003
0000
0000
3020
0000
0000
2030
0000
3001
,  // measure 33
0100
0000
0002
0000
0000
1003
0100
0000
0000
0000
1000
0000
0002
0000
0000
0000
0000
0000
1003
0000
0000
0200
0000
0000
,  // measure 34
0000
0320
0000
0000
,  // measure 35
0000
0000
0030
0000
0100
1000
0001
0100
,  // measure 36
0010
0100
0001
2000
0000
0000
3200
0000
,  // measure 37
0320
0000
0032
0000
1003
0010
1000
0001
,  // measure 38
0010
0100
1000
0002
0000
0000
1003
0010
,  // measure 39
1000
0001
0010
0100
2000
0000
3001
0100
,  // measure 40
0010
0100
0001
2000
0000
3100
0010
0100
,  // measure 41
1000
0001
0020
0000
0031
1000
0001
0100
,  // measure 42
0010
1000
0001
2002
0000
0000
0000
0000
,  // measure 43
0000
0000
0000
0000
,  // measure 44
0000
0000
0000
0000
,  // measure 45
0000
0000
0000
0000
,  // measure 46
0000
0000
0000
3003
0000
0000
0002
0000
,  // measure 47
0000
0000
0013
0000
0200
0000
1300
0002
,  // measure 48
0000
0003
0000
0000
2000
0000
3002
0000
,  // measure 49
1003
0020
0000
0230
0000
0000
0000
0300
,  // measure 50
0000
0000
0000
0020
,  // measure 51
0000
0000
1030
0000
0002
0000
0000
0203
,  // measure 52
0000
0300
0020
0230
,  // measure 53
0301
2000
0000
3020
0000
0000
0000
0000
,  // measure 54
0000
0030
0000
0000
0000
0000
0200
0000
,  // measure 55
0000
0000
0302
0000
2003
0000
3001
0020
,  // measure 56
0000
0030
0000
0000
0002
0000
2003
0000
,  // measure 57
3020
0230
0000
0302
0000
0000
0000
0003
,  // measure 58
0000
0000
0000
0200
,  // measure 59
0301
2000
0000
3002
0000
0203
0000
0320
,  // measure 60
0000
0000
0000
0030
1000
0010
1000
0010
,  // measure 61
0000
0000
1000
0001
1000
0001
0000
0000
,  // measure 62
0100
0001
0100
0001
2000
0000
0000
0000
,  // measure 63
0000
0000
3200
0000
,  // measure 64
0300
0000
2000
0000
3002
0000
0000
2003
,  // measure 65
0000
0000
3002
0000
0023
0000
0000
0230
,  // measure 66
0000
0000
0000
0000
2300
0000
0000
3000
1002
0000
0000
0000
0000
0000
0000
0000
,  // measure 67
0000
0000
0203
0000
,  // measure 68
0300
0000
0002
0000
0023
0000
0000
0032
,  // measure 69
0000
2003
3200
0000
,  // measure 70
0300
0000
0120
0000
,  // measure 71
0000
0000
0032
0000
,  // measure 72
0003
0000
2000
0000
3020
0000
1030
0002
,  // measure 73
0000
0000
0013
0000
0210
0000
0000
1300
,  // measure 74
0000
0001
2001
0000
,  // measure 75
0000
0000
3200
0000
,  // measure 76
0300
0000
0010
0000
0012
0000
0000
2003
,  // measure 77
0000
0000
3010
0000
0210
0000
0000
0302
,  // measure 78
0000
1003
1020
0000
,  // measure 79
0000
0000
0000
0000
0000
0000
0130
0001
0100
0001
0000
0000
,  // measure 80
2002
0000
3003
0000
;

//---------------dance-single - Ace Of Hearts (2010)----------------
#NOTES:
     dance-single:
     Ace Of Hearts (2010):
     Challenge:
     11:
     1.000,0.000,0.849,1.000,0.223:
0000
0000
0000
0000
,
0000
0000
0000
0000
,
0000
0000
0000
0000
,
0000
0000
0000
0000
,
0MM0
M00M
0MM0
M00M
,
0MM0
M00M
0MM0
0000
,
0012
0013
0100
1000
0001
0100
0010
2000
,
0000
0000
0000
0000
3002
0000
0000
0003
0021
0000
0000
0000
0230
0000
0000
0300
,
1200
1300
0001
0100
0010
1000
0010
0200
,
0300
0M00
M440
000M
M000
000M
M330
00M0
,
1020
1030
0100
0010
0001
0100
0010
2000
,
0000
0000
0000
3000
1200
0000
0000
0000
0320
0000
0000
0000
0032
0000
0000
0003
,
2001
3010
0100
0001
1000
0100
0010
0001
,
0202
0000
0303
2020
0000
3030
2200
0000
,
3300
0022
0000
0033
0220
0000
0330
2002
,
0000
0000
0000
0000
0000
0000
0000
0003
,
3001
0100
0001
0100
0000
0000
0010
0000
0000
0100
0000
0000
0001
0000
0000
1000
0000
0000
0100
0000
0000
0010
0000
0000
M012
0000
0000
0000
0000
0000
2003
0000
0000
0000
0000
0000
301M
0000
0000
0000
0010
0000
0100
0000
0000
0000
0000
0000
,
01M1
0000
0000
0000
0000
0000
0002
0000
0000
0000
0000
0000
0M00
0000
0000
2003
0000
0000
0000
0000
0000
0000
3010
0000
011M
0000
0000
0000
0000
0000
0100
0000
0000
0000
0000
0000
01M2
0000
0000
0000
1003
0000
0100
0000
0000
0000
0020
0000
,
000M
0000
0000
0000
0000
0000
M000
0000
0130
1000
0000
0001
2M01
0000
0000
3020
0000
0000
023M
0000
0000
0302
0000
0003
,
0M21
0000
0000
0000
0000
0000
0000
0000
0000
0000
0000
0000
0000
0000
0000
0000
0000
0000
0130
0000
0000
0000
0000
0000
0000
0000
0000
0000
0000
0000
0000
0000
0000
0000
0000
0000
0000
0000
0000
0000
0000
0000
1000
0000
0000
0000
0000
0000
000M
0000
0000
0000
0000
0000
0000
0000
0000
0000
0000
0000
0000
0000
0000
0000
0000
0000
0000
0000
0000
0000
0000
0000
0000
0000
0000
0000
0000
0000
0000
0000
0001
0000
0000
0000
0000
0000
0000
0000
0000
0000
0000
0000
0000
0000
0000
0000
0010
0000
0000
0000
0000
0000
0000
0000
0000
0000
0000
0000
0000
0000
0000
0000
0000
0000
0000
0000
0000
0000
0000
0000
0000
0000
0000
0000
0000
0000
0000
0000
0001
0000
0000
0000
0000
0000
0000
0000
0000
0000
0000
0000
0000
0000
0000
0000
0000
0000
0000
0000
0000
0000
0000
0000
0201
0000
0000
0000
0000
0000
0000
0000
0000
0000
0000
0000
0000
0000
0000
0000
0000
0000
0000
0000
0000
0000
0000
0000
0000
0000
0000
0000
0000
0000
0000
0000
0000
0000
0000
0000
0000
0000
0000
0000
,
0310
0000
0000
0000
0000
0000
0000
2010
0000
0000
0000
0000
0000
0000
0000
0000
0000
0000
0000
0000
3001
0000
0000
0000
0021
0000
0000
0000
0000
0000
0000
0000
0000
0000
0000
0000
0000
0000
0000
0000
0000
0000
0000
0000
0000
0000
0000
0000
,
0130
1000
0001
0100
0010
1000
1200
0310
,
0001
1000
0010
0100
0001
2000
0000
0000
,
3020
0000
0000
0030
0210
0000
0000
0000
0302
0000
0000
0003
0021
0000
0130
0000
,
1000
0000
0001
0000
0100
0000
0010
0000
1000
0000
0002
0000
0000
0000
1003
0010
,
0100
0001
1000
0100
0010
0100
2100
3001
,
0100
0010
1000
0100
0010
0002
0000
0000
,
0203
0000
0000
0300
0120
0000
0000
0000
2030
0000
0000
3000
1200
0000
0310
0000
,
0001
0100
0010
1000
0100
0220
0300
0000
,
0031
0000
1000
0000
0010
0000
M110
0000
0200
0000
03M1
1000
0100
0000
M110
0000
,
0100
0000
0000
2000
0000
0000
0M00
0000
0000
0000
3001
0000
0100
0000
0000
0000
0001
0000
M010
0000
0000
0000
0000
0000
0100
0000
0000
0000
0000
0000
11M0
0000
0000
0000
1000
0000
0001
0000
0000
0000
0020
0000
000M
0000
0000
0000
0000
0000
,
0000
0000
0000
M030
0000
0001
1000
0000
0100
012M
0000
0000
0032
0000
0000
02M3
0000
0000
0310
0000
0000
2M10
0000
3001
,
0100
0000
0020
000M
0000
1030
0100
0000
0000
0000
0100
0000
0120
0000
0000
0000
0000
0000
0031
0000
0000
2002
0000
0000
,
0000
0000
3003
0000
2020
0000
0000
0000
0030
0000
3001
0010
0100
0000
1000
0000
,
0001
1000
0100
0010
0012
1003
0010
0100
,
0001
0000
0010
0000
0100
0000
2000
0000
0000
0000
0000
0000
3020
0000
0000
0030
,
0210
0000
0000
0000
0302
0000
0000
0003
0021
0000
0130
0000
1000
0000
0001
0000
,
0100
0010
1000
0002
0000
0000
2003
3010
,
0110
0100
0001
1000
1200
0310
0001
1000
,
0010
0100
0001
0021
0000
0031
0100
0010
,
2010
3001
0010
0001
M201
0310
2000
3001
,
02M1
0310
1000
2MM2
00M0
0M00
00M0
0000
,
0M00
00M0
0M00
00M0
,
0M00
0000
00M0
0000
,
0M00
0000
00M0
0000
,
0000
0000
0000
0000
0000
0000
3003
0202
0000
0000
0303
0000
0140
0000
0000
0000
,
0000
0000
1030
0000
1100
0100
0010
0002
,
0000
0103
0010
1000
1200
0310
0001
0000
,
0200
0000
0310
0000
1000
0000
0200
0000
0000
0000
0310
0001
1000
0000
0010
0000
,
0100
0001
0100
0010
1000
0000
1400
0000
,
0010
0000
1300
0000
1002
0103
0010
2000
,
0000
3001
0010
0001
0201
0310
1000
0000
,
0001
0000
0010
0000
0001
0000
0200
0000
0000
0000
0310
1000
0001
0000
0010
0000
,
0100
0010
0001
0202
0000
0003
0340
0000
,
1000
0000
0130
0000
0102
1003
0100
0020
,
0000
0130
1000
0001
0021
0130
1000
0000
,
0001
0000
0100
0000
0010
0000
0200
0000
0000
0000
0301
1000
0010
0000
1000
0000
,
0100
0010
0001
2002
0000
0003
3010
0000
,
0110
0100
0000
0101
0000
0001
0000
0040
,
0000
0000
0130
0000
110M
10M0
0M01
M100
,
0MM0
0000
M110
0M10
10M0
010M
M00M
0000
,
011M
0M10
00M1
M100
012M
1M30
00M1
M010
,
010M
10M0
0M01
01M0
M002
0000
0013
0001
,
1000
0000
0010
0000
0210
0000
0301
1000
,
0000
1000
0100
0000
0110
0010
0001
1000
,
0000
0001
0010
0000
012M
M031
1M00
001M
,
M100
00M1
1M00
010M
20M0
0000
3010
0100
,
0001
0000
1000
0000
1002
0000
0103
0010
,
0000
0000
0010
0000
1000
0000
0000
0000
0100
0010
0001
0000
1000
0000
0001
0000
,
0201
0000
0310
0000
201M
3M01
M010
010M
,
0M10
M001
010M
0M10
M200
0000
0301
0010
,
0100
0000
1000
0000
1002
0013
0001
1000
,
0000
0010
0100
0000
0102
0000
1003
0100
,
0000
0100
0010
0000
M012
1M03
001M
M100
,
00M1
001M
M100
10M0
M002
0000
0103
0010
,
1000
0000
0001
0000
0021
0000
0130
1000
,
0000
1000
0001
0000
0201
0310
1000
0002
,
0000
0013
0001
1000
0020
0000
1000
0000
,
0100
0000
0000
0000
1030
0000
0000
0000
0001
0010
0001
0000
1000
0000
0010
0000
,
2002
0000
3003
0000
;

//---------------dance-single - Ace Of Hearts (2010)----------------
#NOTES:
     dance-single:
     Ace Of Hearts (2010):
     Medium:
     7:
     0.340,0.000,0.022,0.413,0.028:
0000
0000
0000
0000
,
0000
0000
0000
0000
,
0000
0000
0000
0000
,
0000
0000
0000
0000
,
0000
0000
0000
0000
,
0000
0000
0000
0000
,
0001
0000
1000
0000
0001
0000
0000
0010
,
0000
0001
1000
0001
,
0010
0000
0001
0000
1000
0000
0000
0001
,
0000
0040
0000
0030
,
0001
0000
0010
0000
0001
0000
0000
1000
,
0000
0010
0100
0001
,
1000
0010
1000
0000
,
0002
0000
0000
1003
0000
0000
0002
0000
,
0000
0013
0000
0000
0002
0000
0000
2000
,
0000
0000
0000
0000
,
0000
0000
3003
0000
0001
0010
0001
0000
,
1000
0000
0001
0000
0000
0000
1000
0000
0010
0000
1000
0000
0001
0000
0000
0001
,
0000
0000
0000
0010
0001
0010
0100
0000
,
0010
0000
0000
0010
0000
0000
0000
0000
0000
0000
0000
0000
0001
0000
0000
0000
,
0000
1000
0000
0000
0020
0000
0000
0000
,
0000
0030
0000
1000
,
0010
0000
1000
0000
0000
0001
0000
0000
,
0010
0001
0010
0001
,
1000
0000
0001
0000
0000
0100
0000
0000
,
0002
0000
0003
1000
,
0100
0000
1000
0000
0000
0001
0000
0000
,
0010
0001
0010
0001
,
1000
0000
0010
0000
0000
0200
0000
0000
,
0000
0300
0000
0001
0100
0001
0000
1000
,
0000
1000
0000
0000
0000
0000
0001
0000
1000
0000
0001
0000
0000
0020
0000
0000
,
0030
0000
0001
0010
0001
1000
0000
0010
,
0000
0010
0000
0000
0000
0000
0000
0000
1000
0000
0000
0000
0000
0000
0001
0000
,
0000
0020
0000
0000
,
0030
0000
0001
1000
,
0001
0000
0000
0100
0000
0000
0010
0000
,
1000
0010
1000
0001
,
1000
0000
0000
0100
0000
0000
0020
0000
,
0030
0000
0001
1000
,
0001
0000
0000
0200
0000
0000
0310
0000
,
0100
0001
1000
0010
,
1000
0000
0000
2002
0000
0000
0000
0000
,
0000
0000
0000
0000
,
0000
0000
0000
0000
,
0000
0000
0000
0000
,
0000
3003
0000
0002
,
0000
0000
1003
0000
0010
0000
0000
1000
,
0000
0000
0010
0100
,
0001
0000
0000
0200
0000
0000
0000
0000
,
0300
0000
0000
0020
,
0000
0000
1030
0000
0002
0000
0000
0013
,
0000
0000
0001
1000
,
0100
0000
0000
0020
0000
0000
0000
0000
,
0030
0000
0000
0002
,
0000
0000
0000
0000
1003
0000
0000
1000
,
0000
0000
0010
1000
,
0001
0000
0000
0200
0000
0000
0000
0000
,
0300
0000
0000
0001
,
1000
0000
0000
0100
0000
0000
0000
0000
,
0010
0000
0004
0000
,
0003
4000
0000
3000
,
0400
0000
0320
0000
,
0000
0000
0030
0000
,
0000
0000
0001
0000
2000
0000
0000
3020
,
0000
0000
1030
0000
0002
0000
0000
2003
,
0000
3010
0200
0000
,
0000
0000
0300
0000
,
0000
0000
0001
0000
2000
0000
0000
3002
,
0000
0013
0100
0000
,
0000
0000
2000
0000
,
0000
0000
3000
0000
,
0000
0000
0010
0000
2000
0000
0000
3002
,
0000
0000
0013
0000
0002
0000
0000
2003
,
0000
3010
0200
0000
,
0000
0000
0300
0000
,
0000
0000
0001
0000
1000
0000
0000
0020
,
0000
0000
1030
0000
0001
0000
0000
2000
,
0000
3100
0020
0000
,
0030
0000
0001
0000
,
1001
0000
0000
0000
;

//---------------dance-single - Ace Of Hearts (2010)----------------
#NOTES:
     dance-single:
     Ace Of Hearts (2010):
     Easy:
     4:
     0.219,0.000,0.078,0.291,0.000:
0000
0000
0000
0000
,
0000
0000
0000
0000
,
0000
0000
0000
0000
,
0000
0000
0000
0000
,
0000
0000
0000
0000
,
0000
0000
0000
0000
,
0001
0000
0001
0000
,
0001
0000
0000
0000
,
0010
0000
0010
0000
,
0020
0000
0030
0000
,
0001
0000
0001
0000
,
0001
0000
0000
0000
,
1000
0000
1000
0000
,
2002
0000
0000
3003
0000
0000
0220
0000
,
0000
0330
0000
0000
2002
0000
0000
0000
,
0000
0000
0000
0000
,
3003
0000
1000
1000
,
1000
0000
0010
0010
,
0010
0000
0100
0100
,
0100
0000
0000
2002
,
0000
0000
3003
0000
,
0000
0000
0000
1000
,
0000
1000
0000
1000
,
0000
0000
0000
0100
,
0000
0100
0000
0200
,
0000
0300
0000
0010
,
0000
0010
0000
0010
,
0000
0000
0000
0001
,
0000
0001
0000
0002
,
0003
0000
0000
0100
0000
0100
0000
0100
,
0000
0000
0000
0001
0000
0001
0000
0001
,
0000
0000
0000
0010
0000
0010
0000
0010
,
0000
0000
0220
0000
,
0000
0330
0000
0000
,
0000
0000
0100
0000
,
0100
0000
0100
0000
,
0000
0000
1000
0000
,
1000
0000
1000
0000
,
0000
0000
0010
0000
,
0010
0000
1000
0000
,
1000
0000
0001
0000
,
0001
0000
2002
0000
,
0000
0000
0000
0000
,
0000
0000
0000
0000
,
0000
0000
0000
0000
,
3003
0000
0000
0002
,
0000
0000
1003
0000
,
1000
0000
0010
0000
,
0010
0000
0010
0000
,
0000
0000
0000
2000
,
0000
0000
3001
0000
,
0001
0000
0100
0000
,
0100
0000
0100
0000
,
0000
0000
0000
0020
,
0000
0000
1030
0000
,
1000
0000
0001
0000
,
0001
0000
0001
0000
,
0000
0000
0000
0000
,
1000
0000
0001
0000
,
0001
0000
2000
0000
,
0000
3002
0000
0000
,
2003
0000
3020
0000
,
0000
0000
0030
0000
,
0000
0000
1000
0000
,
1000
0000
0010
0000
,
0010
0000
0200
0000
,
0000
0000
0300
0000
,
0000
0000
0010
0000
,
0010
0000
0010
0000
,
0000
0000
2000
0000
,
0000
0000
3000
0000
,
0000
0000
0001
0000
,
0001
0000
0010
0000
,
0010
0000
0002
0000
,
0000
0000
0003
0000
,
0000
0000
1000
0000
,
1000
0000
0001
0000
,
0001
0000
0020
0000
,
0000
0000
0030
0000
,
1001
0000
0000
0000
;

//---------------dance-single - Ace Of Hearts (2010)----------------
#NOTES:
     dance-single:
     Ace Of Hearts (2010):
     Beginner:
     2:
     0.145,0.000,0.056,0.313,0.000:
0000
0000
0000
0000
,
0000
0000
0000
0000
,
0000
0000
0000
0000
,
0000
0000
0000
0000
,
0000
0000
0000
0000
,
0000
0000
0000
0000
,
0002
0000
0000
0000
0000
0000
0000
0003
,
0000
0000
0000
0000
,
2000
0000
0000
0000
0000
0000
0000
3000
,
0000
0000
0000
0000
,
0020
0000
0000
0000
0000
0000
0000
0030
,
0000
0000
0000
0000
,
0200
0000
0300
0000
,
1001
0000
0000
1001
,
0000
0000
2002
0000
,
0000
0000
0000
0000
,
3003
0000
1000
0000
,
1000
0000
0010
0000
,
0010
0000
0100
0000
,
0100
0000
0000
0002
,
0000
0000
0003
0000
,
0000
0000
0000
2000
,
0000
0000
0000
0000
0000
3000
0000
0000
,
0000
0000
0000
0002
,
0000
0000
0000
0000
0000
0003
0000
0000
,
0000
0000
0000
0200
,
0000
0000
0000
0000
0000
0300
0000
0000
,
0000
0000
0000
0020
,
0000
0000
0000
0000
0000
0030
0000
0000
,
0000
0000
0000
1000
0000
0000
0000
1000
,
0000
0000
0000
0001
0000
0000
0000
0001
,
0000
0000
0000
0100
0000
0000
0000
0100
,
0000
0000
0020
0000
,
0000
0030
0000
0000
,
0000
0000
0200
0000
,
0000
0000
0000
0300
0000
0000
0000
0000
,
0000
0000
0002
0000
,
0000
0000
0000
0003
0000
0000
0000
0000
,
0000
0000
2000
0000
,
3000
0000
0020
0000
,
0030
0000
2000
0000
,
3000
0000
2002
0000
,
0000
0000
0000
0000
,
0000
0000
0000
0000
,
0000
0000
0000
0000
,
3003
0000
0000
0002
,
0000
0000
0003
0000
,
0000
0000
1000
0000
,
0000
0000
1000
0000
,
0000
0000
0000
0020
,
0000
0000
0030
0000
,
0000
0000
0100
0000
,
0000
0000
0100
0000
,
0000
0000
0000
0002
,
0000
0000
0003
0000
,
0000
0000
1000
0000
,
0000
0000
1000
0000
,
0000
0000
0000
0000
,
0020
0000
0000
0000
,
0030
0000
0100
0000
,
0000
0100
0000
0000
,
0100
0000
0002
0000
,
0000
0000
0003
0000
,
0000
0000
1000
0000
,
0000
0000
1000
0000
,
0000
0000
0020
0000
,
0000
0000
0030
0000
,
0000
0000
1000
0000
,
0000
0000
1000
0000
,
0000
0000
0002
0000
,
0000
0000
0003
0000
,
0000
0000
0010
0000
,
0000
0000
0010
0000
,
0000
0000
0200
0000
,
0000
0000
0300
0000
,
0000
0000
1000
0000
,
0000
0000
1000
0000
,
0000
0000
0002
0000
,
0003
0000
0000
0000
,
1001
0000
0000
0000
;
