#TITLE:Sweet Bitter Beauty Song;
#SUBTITLE:;
#ARTIST:Ho-kago Tea Time;
#TITLETRANSLIT:;
#SUBTITLETRANSLIT:;
#ARTISTTRANSLIT:;
#GENRE:;
#CREDIT:Ace Of Hearts;
#BANNER:Sweet Bitter Beauty Song - bn.png;
#BACKGROUND:Sweet Bitter Beauty Song - bg.png;
#LYRICSPATH:;
#CDTITLE:Ace Of Hearts.png;
#MUSIC:Sweet Bitter Beauty Song.ogg;
#OFFSET:-0.040;
#SAMPLESTART:73.200;
#SAMPLELENGTH:12.000;
#SELECTABLE:YES;
#BPMS:0.000=133.000;
#STOPS:;
#BGCHANGES:;
#KEYSOUNDS:;

//---------------dance-single - Ace Of Hearts (2009)----------------
#NOTES:
     dance-single:
     Ace Of Hearts (2009):
     Hard:
     7:
     0.516,0.214,0.041,0.730,0.020:
0000
0000
0000
0000
,
0002
1003
0000
1000
0002
1003
0000
1000
,
0020
1030
0020
0130
0000
0100
0000
0100
,
0001
0000
1000
0000
0100
0000
1000
0000
0010
0000
0000
0010
0000
0000
0010
0000
,
0000
0010
1000
0001
0010
0001
1000
0100
,
0020
0000
0000
0000
,
0030
0100
1000
0001
0010
0001
1000
0010
,
2000
3100
0000
1000
0002
0103
0000
0001
,
2000
3010
2000
3001
0000
0001
0000
1000
,
0002
0000
0000
0000
,
0003
1000
0001
0100
0010
0100
0001
1000
,
0200
0310
0000
0001
2000
3010
0000
1000
,
0002
0103
0002
1003
0100
0010
0001
1000
,
0200
0310
0002
1003
,
0001
0100
0000
0002
0003
0000
0000
2000
,
0000
3010
0100
0001
2000
0000
3020
0000
,
0230
0301
0000
2000
0000
3000
0000
0001
,
0020
0000
0230
0000
2300
0000
3001
0100
,
0010
0100
0000
0020
0000
0030
0000
1000
,
0002
0000
1003
0020
0000
1030
0001
0100
,
0010
0100
0001
1000
0000
0000
0000
0000
,
2020
0000
0000
0000
,
3030
1000
0001
0100
0001
1000
0100
0010
,
0200
1300
0000
0100
0020
0031
0000
1000
,
0020
1030
0020
0130
0000
0100
0000
0100
,
0002
0000
1003
0000
0100
0010
0100
1000
,
0001
0100
0000
0002
0000
0003
0000
0020
,
0000
0031
1000
0010
0100
0000
0010
1000
,
0001
0100
0000
0002
0000
0003
0000
0000
,
2000
0000
3002
0000
0103
0010
1000
0001
,
0010
0001
0000
0200
0000
0300
0000
0001
,
2000
0000
3100
0010
0000
0100
1000
0001
,
0010
0001
1000
0100
0000
1000
0010
0000
,
0220
0000
0000
0000
,
0330
0100
0001
1000
0010
1000
0100
0010
,
0002
1003
0000
0010
0200
0301
0000
1000
,
0020
0130
0020
1030
0000
1000
0001
0000
,
0020
0000
0000
0000
0000
0000
0000
0031
,
2000
0000
3200
0000
0320
0031
0020
0031
,
2000
0000
3020
0000
1030
0001
0100
0001
,
1000
0100
0100
0000
0000
1000
0001
0020
,
0000
0000
0130
0000
1000
0001
0000
0020
,
0000
0130
0100
0000
1000
0001
0000
2000
,
0000
3010
0100
0001
1000
0100
0010
0100
,
0020
0000
0031
0100
0020
0000
1030
0002
,
0000
1003
0100
0000
0010
0100
1000
0002
,
0000
0000
0013
0000
0001
1000
0000
0020
,
0000
0130
0001
1000
0010
1000
0001
0020
,
0000
0031
1000
0100
0010
0001
1000
0010
,
2000
3001
0000
0001
2000
3001
0000
0001
,
0020
0031
2000
3100
0000
0100
0000
0000
,
1000
0100
1000
0000
0001
0000
0100
0000
0010
0000
0000
0010
0000
0000
0010
0000
,
0000
0000
1000
0000
0001
0000
1000
0000
0001
0010
0001
0000
1000
0000
0001
0000
,
0022
0000
0000
0000
,
0033
0001
1000
0010
0100
0001
1000
0100
,
0020
0130
0000
1000
0002
0103
0000
0001
,
2000
3100
2000
3001
0010
0001
0100
0010
,
2020
0000
0000
0000
,
3030
1000
0100
0010
0001
0010
0100
1000
,
0002
0103
0000
0100
0020
1030
0000
1000
,
0002
0013
0002
0103
0000
0100
0001
0010
,
0220
0000
0000
0000
,
0330
0100
1000
0001
0100
0010
0100
0001
,
2000
3100
0000
0020
0000
0031
1000
0001
,
0100
0010
1000
0001
0010
0100
1000
0000
,
0002
0000
0000
0000
2003
0000
3200
0000
0320
0000
0032
0000
2003
0000
3001
0010
;

//---------------dance-single - Ace Of Hearts (2009)----------------
#NOTES:
     dance-single:
     Ace Of Hearts (2009):
     Medium:
     5:
     0.291,0.107,0.000,0.138,0.000:
0000
0000
0000
0000
,
0001
0000
0000
1000
0010
0000
0000
1000
,
0001
0000
1000
0001
0000
0000
0000
0000
,
1000
0010
1000
0000
0001
0000
0001
0000
,
1000
1000
2000
3000
,
0020
0000
0000
0000
,
0030
1000
0001
0000
1000
0000
1000
0000
,
0010
0000
0000
1000
0001
0000
0000
0100
,
0001
0000
0100
0001
0000
0000
0000
0000
,
2000
0000
0000
0000
,
3000
0001
0010
0000
0001
0000
1000
0000
,
0001
0000
0000
1000
0001
0000
0000
1000
,
0100
0000
1000
0100
0000
0000
0000
0000
,
1000
1000
0001
0001
,
1000
0010
0000
1000
0000
0000
0000
0000
,
0001
0001
0100
0100
,
0010
1000
0000
0001
0000
0000
0000
0000
,
1000
1000
0001
0001
,
0010
0001
0000
1000
0000
0000
0000
0000
,
0010
0010
0100
0100
,
0001
0000
1000
0100
0000
0000
0000
0000
,
2000
0000
0000
0000
,
3000
0001
0100
0000
0100
0000
0001
0000
,
1000
0000
0000
0001
0010
0000
0000
0001
,
1000
0000
0001
1000
0000
0000
0000
0000
,
0001
0010
0001
0010
,
0001
1000
0000
0200
0000
0000
0300
0000
,
1000
0100
1000
0100
,
1000
0001
0000
0020
0000
0030
0000
0000
,
0001
1000
0001
1000
,
0001
0100
0000
0020
0000
0030
0000
0000
,
0100
0000
0001
1000
0000
0001
1000
0000
,
0001
0000
1000
0100
0000
0000
0000
0000
,
0020
0000
0000
0000
,
0030
0001
1000
0000
0001
0000
0001
0000
,
1000
0010
0000
1000
0001
0000
0000
1000
,
0010
0000
1000
0001
0000
0000
0000
0000
,
2000
0000
0000
3000
,
0001
0001
0100
0100
,
0010
0010
1000
0001
,
1000
0010
1000
0000
0000
0001
0000
0002
,
0000
0000
1003
0000
0010
0000
0000
2000
,
0000
3001
0100
0000
0001
1000
0000
1000
,
0000
0001
0100
0100
,
0010
0000
0010
0000
1000
0000
1000
0002
,
0000
1003
0010
0000
1000
0000
1000
0002
,
0000
0013
0100
0000
,
1000
0100
1000
0000
0001
0000
0001
0000
,
0010
0001
0010
0000
0001
0000
1000
0000
,
0010
1000
0000
0001
1000
0001
0000
1000
,
0010
0000
1000
0001
0000
0000
0000
0000
,
0010
0001
0010
0000
0100
0000
0100
0000
,
1000
0000
1000
0000
0001
1000
0001
0000
,
0020
0000
0000
0000
,
0030
0001
1000
0000
0001
0000
0001
0000
,
0100
0001
0000
1000
0001
1000
0000
0001
,
0100
0000
0001
1000
0000
0000
0000
0000
,
0002
0000
0000
0000
,
0003
1000
0010
0000
1000
0000
1000
0000
,
0001
0100
0000
0001
1000
0001
0000
1000
,
0100
0000
1000
0001
0000
0000
0000
0000
,
2000
0000
0000
0000
,
3000
0001
0010
0000
0001
0000
0001
0000
,
1000
0010
0000
2000
0000
0000
3001
0000
,
0100
0010
0100
0000
0001
0000
1000
0000
,
0100
0000
0100
0000
1000
0000
0001
0010
;

//---------------dance-single - Ace Of Hearts (2009)----------------
#NOTES:
     dance-single:
     Ace Of Hearts (2009):
     Challenge:
     9:
     0.696,0.273,0.406,0.479,0.203:
0000
0000
0000
0000
,
1002
0103
0000
0100
0120
1030
0000
1000
,
1200
0310
0002
1003
0000
1010
0000
1000
,
0001
0010
0100
0000
0010
0000
0001
0000
1000
0000
0010
0100
0000
0100
0001
1000
,
0100
0000
0010
0000
0100
0000
1000
0000
0001
0010
0100
0010
0001
0000
1000
0000
,
1020
0100
0000
0100
0001
0100
0000
1030
,
0100
0010
0001
0010
0100
1000
0001
0100
,
0120
1030
0000
1000
1200
0310
0000
0010
,
0012
0000
1003
0000
0200
0000
0310
0000
0001
0010
0100
0010
0001
0000
1000
0000
,
1200
0010
0000
0001
1000
0001
0000
0310
,
0001
1000
0010
0100
0001
1000
0010
0100
,
0102
1003
0000
1000
1020
0130
0000
0100
,
0102
0000
1003
0000
0100
0000
0010
0000
0100
1000
0100
0010
0001
0000
1000
0000
,
1200
0310
0001
0000
0201
0310
1000
0000
,
1002
0013
0000
0110
0000
0100
1000
1002
,
0103
0010
1000
0100
0010
0100
1000
0001
,
0100
0000
0001
0000
1000
0000
0010
0000
0000
0000
2000
0000
3020
0000
0230
0300
,
1001
1000
0100
0010
0100
1000
0001
0100
,
0010
1000
0000
2100
0000
3002
0023
0130
,
1000
0001
0100
0010
0100
0001
1000
0100
,
0110
0011
1001
1010
0000
2000
3100
0010
,
0012
1000
0000
0100
0010
0100
0000
1003
,
0010
0100
0001
1000
0010
0001
0010
1000
,
1002
0013
0000
0010
0210
1300
0000
1000
,
1002
0000
0203
0000
0320
0000
1030
0000
0001
0100
0010
0100
0001
0000
1000
0000
,
1010
0010
0100
0001
0010
1000
0010
0001
,
0100
0010
1000
0002
0000
1003
0010
0100
,
0001
1000
0100
0001
0100
1000
0001
0100
,
0010
0100
0001
2000
0000
3001
0010
0001
,
0100
0010
0001
0010
1000
0100
0010
0001
,
1000
0010
0100
0002
0000
1003
0100
0010
,
0022
0033
0000
0000
,
4000
0000
0000
0000
3000
0001
0101
0100
,
0120
1000
0000
0001
0100
0001
0000
1030
,
0100
0010
0001
0010
1000
0010
0001
0100
,
0120
1030
0000
1000
1200
0310
0000
0010
,
0210
2300
3002
0103
0000
0001
1000
0000
,
2020
0000
0000
0000
0000
0000
3030
0010
,
0100
0001
0010
0100
1000
0001
1000
0001
,
0010
0001
0100
0010
0001
0010
1000
0100
,
0110
0110
1001
0000
0000
0001
1000
1020
,
0130
0001
0010
1000
0010
0001
0100
0120
,
0031
0010
1000
0100
0010
0001
0100
0010
,
0100
0001
1000
0100
0010
0100
1000
0001
,
0100
1000
0100
0001
1000
0100
0010
0012
,
1003
0010
0100
0001
1000
0010
0100
0102
,
1003
0100
0001
0100
1000
0010
0100
0001
,
1000
0010
0100
0010
1000
0100
0010
0100
,
1000
0001
0100
0010
0100
0001
1000
0100
,
0120
0031
0000
1000
1020
0130
0000
0001
,
0021
0230
2300
3001
0000
0101
0000
0001
,
1000
0010
0100
0000
0001
0000
1000
0000
0100
0000
0010
0001
0000
0001
1000
0010
,
0100
0000
0001
0000
1000
0000
0100
0000
0010
0100
1000
0100
0010
0000
0001
0000
,
0201
0010
0000
0001
1000
0001
0000
0310
,
1000
0100
0010
0001
1000
0010
0001
0010
,
1000
0100
0010
0000
0001
0000
0100
0000
0010
0000
1000
0001
0000
0001
0100
0010
,
1000
0000
0001
0000
0010
0000
0100
0000
0010
0001
1000
0010
0100
0000
0001
0000
,
0021
0100
0000
1000
0001
1000
0000
0031
,
1000
0010
0100
0001
0010
0100
1000
0010
,
0100
0001
1000
0000
0100
0000
1000
0000
0001
0000
1000
0010
0000
0010
0100
0001
,
1000
0000
0100
0000
0010
0000
0001
0000
1000
0001
0100
0001
0010
0000
0100
0000
,
2100
0010
0000
0001
0100
0001
0000
3010
,
0100
0001
1000
0100
1000
0001
0100
0001
,
1000
0001
0100
0000
0001
0000
2000
0000
0000
0000
3010
0000
0100
0000
0001
1000
,
0100
1000
0010
0100
0001
1000
0010
0100
0002
0000
1003
0100
0020
0000
0130
0000
,
2100
0000
3001
0000
0000
0000
0001
0000
1000
0100
0010
0000
0001
0000
1000
0010
,
0000
M00M
0000
M0M0
0000
MM00
0000
M0M0
0000
M00M
0000
0M00
M0M0
M0M0
M0M0
0M00
,
0000
0M0M
0MMM
0MMM
0MMM
0M0M
0000
0000
0000
0000
0000
0000
0000
0000
0000
0000
;

//---------------dance-single - Ace Of Hearts (2009)----------------
#NOTES:
     dance-single:
     Ace Of Hearts (2009):
     Easy:
     3:
     0.219,0.053,0.041,0.195,0.000:
0000
0000
0000
0000
,
0001
0000
0001
0000
,
0001
0001
0001
0000
,
1000
1000
1000
0000
,
0010
0010
0010
0000
,
2000
0000
0000
0000
,
3000
0001
0001
0001
,
1000
0000
1000
0000
,
0010
0010
0010
0000
,
0200
0000
0000
0000
,
0300
0001
0001
0001
,
1000
0000
1000
0000
,
0100
0100
0100
0000
,
0010
0010
0001
0001
,
2000
0000
3000
0000
,
0010
0010
1000
1000
,
0002
0000
0003
0000
,
1000
1000
0100
0100
,
0020
0000
0030
0000
,
0001
0000
0001
0000
,
0001
0001
0001
0000
,
2002
0000
0000
0000
,
3003
0000
1000
0000
,
0010
0000
0010
0000
,
0100
0100
0100
0000
,
0001
0001
0001
0000
,
1000
0000
2000
3000
,
0010
0010
0010
0000
,
0100
0000
0200
0300
,
0001
0001
0001
0000
,
1000
0000
2000
3000
,
0100
0000
0100
0000
,
0010
0010
0010
0000
,
0022
0000
0000
0000
,
0033
0000
0001
0000
,
1000
0000
1000
0000
,
0100
0100
0100
0000
,
0020
0000
0030
0000
,
0001
0001
1000
1000
,
0010
0010
0100
0100
,
0002
0003
0000
0000
,
1000
1000
0001
0001
,
0010
0010
0001
0001
,
1000
1000
0010
0010
,
0100
0000
0100
0000
,
0001
0001
1000
1000
,
0020
0030
1000
1000
,
0001
0001
0010
0010
,
0001
0001
1000
0000
,
0001
0000
0001
0000
,
0100
0100
0100
0000
,
0010
0010
0020
0030
,
1000
1000
2000
3000
,
2002
0000
0000
0000
,
3003
0000
0001
1000
,
1000
0000
0010
0000
,
0100
0100
0100
0000
,
0202
0000
0000
0000
,
0303
0000
0100
0100
,
0100
0000
0010
0000
,
1000
1000
1000
0000
,
2200
0000
0000
0000
,
3300
0000
0100
0010
,
0010
0000
0001
0000
,
1000
1000
1000
0000
,
0001
0000
0001
0000
2000
0000
0000
3010
;

//---------------dance-single - Ace Of Hearts (2009)----------------
#NOTES:
     dance-single:
     Ace Of Hearts (2009):
     Beginner:
     1:
     0.131,0.053,0.008,0.146,0.000: // measure 1
0000
0000
0000
0000
,  // measure 2
0001
0000
0001
0000
,  // measure 3
0002
0000
0003
0000
,  // measure 4
1000
0000
1000
0000
,  // measure 5
1000
0000
0000
0000
,  // measure 6
0020
0000
0000
0000
,  // measure 7
0030
0000
1000
0000
,  // measure 8
1000
0000
1000
0000
,  // measure 9
2000
0000
3000
0000
,  // measure 10
0002
0000
0000
0000
,  // measure 11
0003
0000
0100
0000
,  // measure 12
0100
0000
0100
0000
,  // measure 13
0200
0000
0300
0000
,  // measure 14
0010
0000
0010
0000
,  // measure 15
0010
0000
0000
0000
,  // measure 16
1000
0000
1000
0000
,  // measure 17
1000
0000
0000
0000
,  // measure 18
0001
0000
0001
0000
,  // measure 19
0001
0000
0000
0000
,  // measure 20
0100
0000
0100
0000
,  // measure 21
0100
0000
0000
0000
,  // measure 22
0020
0000
0000
0000
,  // measure 23
0030
0000
1000
0000
,  // measure 24
1000
0000
1000
0000
,  // measure 25
2000
0000
3000
0000
,  // measure 26
0001
0000
0001
0000
,  // measure 27
0001
0000
0000
0000
,  // measure 28
0100
0000
0100
0000
,  // measure 29
0100
0000
0000
0000
,  // measure 30
0010
0000
0010
0000
,  // measure 31
0010
0000
0000
0000
,  // measure 32
1000
0000
1000
0000
,  // measure 33
1000
0000
0000
0000
,  // measure 34
0002
0000
0000
0000
,  // measure 35
0003
0000
0100
0000
,  // measure 36
0100
0000
0100
0000
,  // measure 37
0200
0000
0300
0000
,  // measure 38
0020
0000
0030
0000
,  // measure 39
1000
0000
1000
0000
,  // measure 40
1000
0000
1000
0000
,  // measure 41
1001
0000
0000
0000
,  // measure 42
0001
0000
1000
0000
,  // measure 43
1000
0000
0010
0000
,  // measure 44
0010
0000
0100
0000
,  // measure 45
0100
0000
0000
0000
,  // measure 46
0100
0000
0001
0000
,  // measure 47
0001
0000
1000
0000
,  // measure 48
1000
0000
1000
0000
,  // measure 49
0010
0000
0010
0000
,  // measure 50
0100
0000
0100
0000
,  // measure 51
0200
0000
0300
0000
,  // measure 52
0001
0000
0001
0000
,  // measure 53
0002
0000
0003
0000
,  // measure 54
2000
0000
0000
0000
,  // measure 55
3000
0000
0010
0000
,  // measure 56
0010
0000
0010
0000
,  // measure 57
0020
0000
0030
0000
,  // measure 58
0200
0000
0000
0000
,  // measure 59
0300
0000
0001
0000
,  // measure 60
0001
0000
0001
0000
,  // measure 61
0002
0000
0003
0000
,  // measure 62
0020
0000
0000
0000
,  // measure 63
0030
0000
0001
0000
,  // measure 64
0001
0000
2000
0000
,  // measure 65
0000
0000
3000
0000
,  // measure 66
0010
0000
0000
0000
0010
0000
0000
0010
;
