#TITLE:Sailor Star Song;
#SUBTITLE:;
#ARTIST:Kae Hanazawa;
#TITLETRANSLIT:;
#SUBTITLETRANSLIT:;
#ARTISTTRANSLIT:;
#GENRE:J-Pop;
#CREDIT:Ace Of Hearts;
#BANNER:Sailor Star Song - bn.png;
#BACKGROUND:Sailor Star Song - bg.jpg;
#LYRICSPATH:;
#CDTITLE:Ace Of Hearts.png;
#MUSIC:Sailor Star Song.ogg;
#OFFSET:2.280;
#SAMPLESTART:63.400;
#SAMPLELENGTH:12.000;
#SELECTABLE:YES;
#DISPLAYBPM:142.000;
#BPMS:0.000=142.000,152.000=141.700;
#STOPS:;
#BGCHANGES:4.000=Sailor Star Song Video.avi=1.000=0=0=1=====,
99999=-nosongbg-=1.000=0=0=0 // don't automatically add -songbackground-
;
#KEYSOUNDS:;

//---------------dance-single - Ace Of Hearts (2010)----------------
#NOTES:
     dance-single:
     Ace Of Hearts (2010):
     Hard:
     7:
     0.473,0.000,0.021,0.726,0.000:
0000
0000
0000
0000
,
0000
0000
0000
0000
,
0000
0000
0000
0000
0000
0000
0000
1000
,
0100
0020
0000
0030
0100
1000
0001
0010
,
0000
0002
0000
1003
0200
0000
0000
0310
,
0001
1000
0000
1000
0010
0100
0001
1000
,
0000
0020
0000
1030
0004
0000
0003
1000
,
0001
0200
0000
0301
4000
0000
3000
0100
,
0010
0002
0000
0003
0000
2000
0000
3001
,
0100
0020
0000
0000
0000
0000
0000
0000
,
0000
0000
0000
0000
0000
0000
0000
1030
,
0001
2000
0000
3200
0000
0320
0000
0031
,
1000
0010
0000
0010
0000
1000
0001
0000
,
0000
0000
0020
0000
0031
1000
0010
1000
,
0001
0020
0000
0031
0000
4000
0000
3000
,
0001
0000
0020
0000
0031
2000
0000
3020
,
0000
0430
0000
0000
0300
0000
0000
0000
,
0002
0000
2003
0000
3100
0020
0000
0032
,
0000
2003
0000
0000
3004
0000
0203
0000
,
0320
0000
2030
0000
3100
0020
0000
0032
,
0000
1003
0010
0100
0020
0000
1030
0001
,
0020
0000
0230
0000
1300
0002
0000
1003
,
0010
0200
0000
0302
0000
0403
0000
0310
,
1000
0001
0010
0100
1000
0002
0000
1003
,
0010
0400
0000
0300
0000
0000
0000
0001
,
0100
0020
0000
1030
0001
1000
0010
0100
,
0001
2000
0000
3002
0000
0203
0000
0320
,
0000
2030
0000
0000
3001
0010
0001
1000
,
0001
0010
0100
0010
0001
1000
0010
1000
,
0001
0020
0000
0030
0000
0001
1000
0000
,
0010
4000
0000
0000
3000
0000
0000
0000
,
0001
0100
0010
1000
0001
0020
0000
0031
,
1000
0200
0000
0300
0000
0000
0000
0010
,
0001
1000
0002
0000
0003
1000
0010
0000
,
0100
0004
0000
0000
0003
0000
0000
1000
,
2000
0000
3010
0100
0001
4000
0000
0000
,
0000
3000
0000
0000
0001
0100
0010
1000
,
0002
0000
0203
0000
0301
2000
0000
0000
,
0000
0000
0000
3100
0010
0002
0000
1003
,
0100
0020
0000
0130
1000
0001
0100
0010
,
0000
2000
0000
3001
0400
0000
0300
0010
,
1000
0002
0000
0013
0100
0010
0001
1000
,
0000
0020
0000
1030
0004
0000
0003
1000
,
0010
0200
0000
0301
2000
0000
0000
0000
,
0000
3000
0000
0000
0200
0000
2300
0000
,
3002
0000
0023
0000
0130
2000
0000
3002
,
0000
0203
0000
0301
1000
0010
0000
1000
,
0001
0010
0000
0000
0001
1000
0010
1000
,
0000
0002
0000
1003
0400
0000
0300
1000
,
0100
0020
0000
0031
1000
0100
1000
0001
,
0000
0020
0000
0031
4000
0000
3000
0001
,
1000
0002
0000
0043
0000
0000
0030
0001
,
1000
0020
0000
1030
0001
0010
0100
0010
,
0001
2000
0000
0000
0000
0000
0000
0000
,
0000
0000
0000
0000
0000
0000
0000
3100
,
0010
0002
0000
2003
0000
3020
0000
1030
,
0001
0101
0000
0010
0000
1000
1001
0000
;

//---------------dance-single - Ace Of Hearts (2010)----------------
#NOTES:
     dance-single:
     Ace Of Hearts (2010):
     Challenge:
     9:
     0.859,0.059,0.238,1.000,0.342: // measure 1
0000
0000
0000
0000
,  // measure 2
0000
0000
0000
0000
0000
0000
0000
0000
0000
0000
0000
0000
0000
0000
0000
0000
0000
0000
0004
0040
0000
0000
0000
0000
,  // measure 3
0000
0000
0000
0000
0000
0033
0000
0001
,  // measure 4
0100
0000
0010
0000
1000
0000
0001
0100
0001
0000
1000
0000
0010
0000
0100
0000
,  // measure 5
0001
1000
0020
0000
1030
0000
0100
0000
0020
0000
0000
0000
0031
0000
1000
0000
,  // measure 6
0010
0000
0210
0000
0000
0000
0301
1000
0200
0000
0320
0000
0031
0000
0100
0000
,  // measure 7
0010
2010
3001
0010
0400
0000
0300
0010
,  // measure 8
0001
2000
0000
3001
0040
0000
0031
0100
,  // measure 9
0010
2000
3000
1001
0001
0020
0130
1000
,  // measure 10
0002
0023
0100
0000
0001
0001
0000
0000
,  // measure 11
0000
0100
0000
1000
0000
0100
0032
2003
,  // measure 12
3020
0230
0000
0302
0000
2003
0000
3001
,  // measure 13
0100
0101
0000
1100
0000
1010
0101
0000
,  // measure 14
0000
0000
0000
0000
0012
0000
1003
0000
0020
0000
1030
0100
2000
0000
3002
0000
,  // measure 15
0203
0000
0320
1030
0001
0000
0200
0000
0301
0000
2000
3001
0010
0000
0100
0000
,  // measure 16
0020
0000
0031
1000
0002
0000
0103
0000
0020
0000
2030
3001
0100
0000
0020
0000
,  // measure 17
1030
0000
0002
0013
0100
0000
1000
0000
0001
0000
1000
0010
0100
0000
0001
0000
,  // measure 18
0200
0000
0310
1000
0002
0000
0013
0000
0100
0000
0020
0031
1000
0000
0002
0000
,  // measure 19
0103
0000
0020
1030
0001
0000
0010
0000
0200
0000
1300
0001
0020
0000
0130
0000
,  // measure 20
2000
0000
3001
0100
0020
0000
1030
0000
0002
0000
2003
3010
0100
0000
0002
0000
,  // measure 21
1003
0000
0010
0100
0001
0000
1000
0000
1200
0000
0310
0001
1000
0000
0010
0000
,  // measure 22
0220
0000
0330
0000
0201
0000
0310
0000
2000
0000
3002
0013
0100
0000
2000
0000
,  // measure 23
3002
0000
0023
0130
1000
0000
0002
0000
1003
0000
0020
1030
0001
0000
0200
0000
,  // measure 24
0302
0000
1003
0100
0020
0000
0032
0000
0203
0000
0320
0130
0001
0000
2000
0000
,  // measure 25
3200
0000
0320
0031
1000
0000
0001
0000
0100
0000
0010
1000
0001
0000
0020
0000
,  // measure 26
0230
0000
2300
3001
0100
0000
0002
0000
2003
0000
3200
0310
0002
0000
2003
0000
,  // measure 27
3010
0000
0200
0301
1000
0000
0200
0000
0310
0000
0002
1003
0010
0000
0200
0000
,  // measure 28
0301
0000
2000
3100
0010
0000
0100
0000
1000
0000
0002
0103
0020
0000
1030
0000
,  // measure 29
0002
0000
0023
0130
1000
0000
0001
0000
0100
0000
0010
1000
0001
0000
1000
0000
,  // measure 30
0010
1000
2002
3003
0000
0002
0200
0000
,  // measure 31
0010
0303
0100
0000
0000
0002
2000
0010
,  // measure 32
0010
3003
1000
0000
0000
0002
0200
0000
,  // measure 33
0010
0303
0002
2003
3200
0320
0032
0203
,  // measure 34
0340
4000
0000
0000
0000
0000
0000
0000
0000
3030
0000
0000
0000
0000
0000
2000
0000
0000
0200
0000
0000
0000
0000
0000
,  // measure 35
0001
3300
0100
0000
0000
2000
0002
0010
,  // measure 36
0010
0000
3003
0000
0001
0000
0100
0000
0110
0000
0010
1000
0001
0000
1000
0000
,  // measure 37
1100
0000
0100
0000
0010
0000
0001
0000
0101
0000
0100
0010
1000
0000
0100
0000
,  // measure 38
0110
0000
0010
0000
0001
1000
0010
0100
0010
1000
0001
0010
0100
1000
0001
0100
,  // measure 39
0001
1000
0100
0010
0200
0000
2300
0000
3002
0000
0203
0000
0000
0000
0310
0000
,  // measure 40
1000
0000
0001
0000
0010
0000
0100
1000
0001
0000
0100
0000
0010
0000
1000
0001
,  // measure 41
0010
0200
1300
0001
0400
0000
0300
0001
,  // measure 42
1000
0000
0020
0000
1030
0000
0001
1000
0100
0000
0010
0000
0100
0000
1000
0001
,  // measure 43
0100
0020
1030
0001
0040
0000
0030
0001
,  // measure 44
1000
0000
0200
0000
0000
0000
0310
0000
0002
0000
1003
0100
1000
0000
0001
0100
,  // measure 45
0001
0000
1000
0010
1000
0000
0001
1000
0001
0000
0010
0001
0010
0000
0001
1000
,  // measure 46
0001
0000
0100
0001
0200
0000
0310
1000
0010
0000
0200
0000
0000
0000
0301
1000
,  // measure 47
0001
0020
0000
0031
0100
0110
0000
0010
,  // measure 48
1000
0000
0002
0000
0000
0000
1003
0010
0100
0000
0001
0000
1000
0000
0100
0010
,  // measure 49
0001
2000
3010
0100
0004
0000
0003
0100
,  // measure 50
0010
0000
2000
0000
0000
0000
3010
0100
0001
0000
1000
0000
0100
0010
0001
0000
,  // measure 51
1000
0200
0310
0001
4000
0000
3000
0001
,  // measure 52
0100
0000
0002
0000
0000
0000
0023
0000
0130
0000
1000
0100
1000
0000
0001
0010
,  // measure 53
0001
0000
2000
0000
0000
3000
1010
0000
1001
0000
0001
0000
1000
0000
0001
0000
,  // measure 54
0200
0320
1000
0000
0100
0100
0000
0001
,  // measure 55
0000
1000
0000
1000
0000
0230
0302
2003
,  // measure 56
3200
0000
0320
0000
0000
0000
0130
1000
0001
0000
0100
0000
0010
1000
0001
0000
,  // measure 57
1000
1100
0000
0011
0000
1001
1011
0000
;

//---------------dance-single - Ace Of Hearts (2010)----------------
#NOTES:
     dance-single:
     Ace Of Hearts (2010):
     Medium:
     5:
     0.299,0.000,0.000,0.415,0.000:
0000
0000
0000
0000
,
0000
0000
0000
0000
,
0000
0000
0000
0000
0000
0000
0000
1000
,
0000
1000
0000
0000
0001
0010
0000
0001
,
0000
2000
0000
3001
0200
0000
0300
0001
,
0000
0001
0000
1000
0000
1000
0000
0010
,
0000
2000
0000
3001
0020
0000
0030
0001
,
0000
0001
0000
1000
0020
0000
0000
1030
,
0000
1000
0000
0000
0000
0001
0000
1000
,
0010
2000
0000
0000
0000
0000
0000
0000
,
0000
0000
0000
0000
,
0000
3020
0000
0030
0000
0100
0000
0000
,
0000
0001
0000
0001
0000
1000
0001
0000
,
0000
0000
1000
1000
,
0001
0020
0000
0031
0000
2000
0000
0000
,
3001
0000
0002
0000
0000
0103
0000
0100
,
0000
0200
0000
0300
0000
0000
0000
0000
,
0010
0000
0020
0000
0000
1030
0000
0001
,
0000
2000
0000
0000
3001
0000
0100
0000
,
0100
0000
0100
0000
0001
1000
0000
0001
,
0000
0010
0002
0000
1003
0000
0002
0000
,
1003
0000
0010
0010
,
1000
0002
0000
1003
0000
0010
0000
1000
,
0000
0000
0020
0000
0000
0130
0000
0100
,
0000
0100
0000
0000
0000
0000
0000
0000
,
0001
0002
1003
1000
,
0000
0010
0000
0010
0000
0010
0000
0000
,
0000
2000
0000
0000
3001
0000
0001
0000
,
0000
0020
0000
0000
0000
0030
0000
0000
,
0001
0002
0000
1003
,
0000
0001
0000
0000
,
0100
0000
0200
0000
0000
0301
0000
0001
,
0000
0002
0000
0003
0000
0000
0000
0000
,
1000
2000
0000
3100
,
0000
0100
0000
0000
0000
0000
0000
0000
,
1000
0000
1000
0000
0001
0020
0000
0000
,
0000
0030
0000
0000
0001
0000
0001
0000
,
1000
0000
2000
0000
3001
0200
0000
0000
,
0000
0000
0000
0300
0000
0000
0000
0010
,
0000
0010
0000
1000
0000
1000
0000
1000
,
0000
0002
0000
1003
0020
0000
0000
1030
,
0000
1000
0000
0001
0000
0001
0000
0001
,
0000
1000
0000
0001
0020
0000
0000
0031
,
0000
0001
0000
1000
0020
0000
0000
0000
,
0000
0030
0000
0000
1000
0000
1000
0000
,
1000
0000
0002
0000
1003
0020
0000
2030
,
0000
3002
0000
0000
0000
0003
0000
0010
,
0000
0010
0000
0000
0000
0001
0000
0001
,
0000
0001
0000
1000
0200
0000
0000
0310
,
0000
0010
0000
0001
0000
0001
0000
0001
,
0000
1000
0000
0001
0200
0000
0000
0310
,
0000
0010
0000
0020
0000
0030
0000
1000
,
0000
1000
0000
0000
0000
0001
0000
0010
,
0001
0020
0000
0000
0000
0000
0000
0000
,
0000
0000
0000
0000
,
0000
0032
0000
0000
0000
0003
0000
0000
,
0000
1000
0000
0010
0000
1000
0001
0000
;

//---------------dance-single - Ace Of Hearts (2010)----------------
#NOTES:
     dance-single:
     Ace Of Hearts (2010):
     Easy:
     4:
     0.215,0.000,0.000,0.135,0.000:
0000
0000
0000
0000
,
0000
0000
0000
0000
,
0000
0000
0000
0000
0000
0000
0000
0001
,
0000
0001
0000
0000
0000
1000
0000
1000
,
0000
0010
0000
0000
0010
0000
0000
1000
,
0000
1000
0000
0000
0000
0001
0000
0001
,
0000
0100
0000
0000
0100
0000
0000
0010
,
0000
0020
0000
0000
0000
0030
0000
1000
,
0000
1000
0000
0000
0000
0001
0000
0001
,
0000
0002
0000
0000
0000
0000
0000
0000
,
0000
0000
0000
0000
,
0000
0003
0000
0000
0000
0000
0000
0000
,
0000
1000
0000
1000
0000
1000
0000
0000
,
0000
0000
0010
0010
,
0000
1000
0000
1000
0000
1000
0000
0000
,
0001
0000
0001
0000
0000
0100
0000
0100
,
0000
0200
0000
0300
0000
0000
0000
0000
,
0010
0000
0010
0000
0000
1000
0000
1000
,
0000
1000
0000
0000
0001
0000
0001
0000
,
0000
0010
0010
0010
,
0000
0002
0003
2000
,
3000
0000
0010
0010
,
0000
1000
0000
1000
0000
1000
0000
0000
,
0000
0001
0001
0001
,
0000
0200
0000
0300
0000
0000
0000
0000
,
0000
0010
0010
0010
,
0000
1000
0000
1000
0000
1000
0000
0000
,
0000
0001
0000
0000
0000
0000
0001
0000
,
0000
0002
0000
0000
0000
0003
0000
0000
,
0000
1000
0000
0001
,
0001
0001
0000
0100
,
0100
0100
0000
0010
,
0010
0010
0000
1000
,
1000
1000
0000
0001
,
0001
0001
0000
0010
,
0010
0000
0010
0000
0000
0002
0000
0000
,
0000
0003
0000
0000
1000
0000
1000
0000
,
0000
0000
0010
0000
0000
0020
0000
0000
,
0000
0000
0000
0030
0000
0000
0000
1000
,
0000
1000
0000
0000
0000
0001
0000
0001
,
0000
0100
0000
0000
0100
0000
0000
0010
,
0000
0010
0000
0000
0000
1000
0000
1000
,
0000
0001
0000
0000
0001
0000
0000
0100
,
0000
0100
0000
0000
0200
0000
0000
0000
,
0000
0300
0000
0000
0010
0000
0010
0000
,
0010
0000
1000
0000
0000
0001
0000
0001
,
0000
0002
0000
0000
0000
0003
0000
0010
,
0000
0010
0000
0000
0000
0001
0000
0001
,
0000
1000
0000
0000
1000
0000
0000
0010
,
0000
0010
0000
0000
0000
1000
0000
1000
,
0000
0100
0000
0000
0100
0000
0000
1000
,
0000
1000
0000
2000
0000
3000
0000
0001
,
0000
0001
0000
0000
0000
0010
0000
0010
,
0000
0020
0000
0000
0000
0000
0000
0000
,
0000
0000
0000
0000
,
0000
0030
0000
0000
0000
0000
0000
0000
,
0000
0001
0000
1000
0000
0010
0010
0000
;

//---------------dance-single - Ace Of Hearts (2010)----------------
#NOTES:
     dance-single:
     Ace Of Hearts (2010):
     Beginner:
     2:
     0.118,0.000,0.000,0.073,0.000:
0000
0000
0000
0000
,
0000
0000
0000
0000
,
0000
0000
0000
0000
,
0000
0001
0000
0000
0000
0001
0000
0000
,
0000
0001
0000
0000
0000
0000
0000
0000
,
0000
1000
0000
0000
0000
1000
0000
0000
,
0000
1000
0000
0000
0000
0000
0000
0000
,
0000
0010
0000
0000
0000
0000
0000
0000
,
0000
0010
0000
0000
0000
0000
0000
0000
,
0000
0020
0000
0000
0000
0000
0000
0000
,
0000
0000
0000
0000
,
0000
0030
0000
0000
0000
0000
0000
0000
,
0000
1000
0000
0000
0000
1000
0000
0000
,
0000
0000
0000
0001
,
0000
0001
0000
0001
,
0000
0100
0000
0100
,
0000
0100
0000
0000
,
0000
0010
0000
0010
,
0000
0010
0000
0000
,
0000
1000
0000
1000
,
0000
2000
0000
3000
,
0000
0000
0000
0001
,
0000
0001
0000
0001
,
0000
0010
0000
0010
,
0000
0010
0000
0000
,
0000
0001
0000
0001
,
0000
0001
0000
0000
,
0000
0010
0000
0010
,
0000
0010
0000
0000
,
0000
0100
0000
0100
,
0000
0100
0000
0000
,
0000
0001
0000
0001
,
0000
0001
0000
0000
,
0000
1000
0000
1000
,
0000
1000
0000
0000
,
0000
0200
0000
0300
,
0000
0000
0000
0010
,
0000
0020
0000
0000
,
0000
0030
0000
0000
,
0000
0001
0000
0000
0000
0001
0000
0000
,
0000
0001
0000
0000
0000
0000
0000
0000
,
0000
0010
0000
0000
0000
0010
0000
0000
,
0000
0010
0000
0000
0000
0000
0000
0000
,
0000
0002
0000
0000
0000
0000
0000
0000
,
0000
0003
0000
0000
0000
0000
1000
0000
,
0000
0100
0000
0100
,
0000
0200
0000
0300
,
0000
0010
0000
0000
0000
0010
0000
0000
,
0000
0010
0000
0000
0000
0000
0000
0000
,
0000
0100
0000
0000
0000
0100
0000
0000
,
0000
0100
0000
0000
0000
0000
0000
0000
,
0000
1000
0000
0000
0000
1000
0000
0000
,
0000
0001
0000
0000
0000
0001
0000
0000
,
0000
0002
0000
0000
0000
0000
0000
0000
,
0000
0000
0000
0000
,
0000
0003
0000
0000
0000
0000
0000
0000
,
0000
1000
0000
1000
0000
0010
0010
0000
;
