#TITLE:Pokemon Theme;
#SUBTITLE:;
#ARTIST:Jason Paige;
#TITLETRANSLIT:;
#SUBTITLETRANSLIT:;
#ARTISTTRANSLIT:;
#GENRE:Cartoon Theme;
#CREDIT:Ace Of Hearts;
#BANNER:Pokemon Theme - bn.png;
#BACKGROUND:Pokemon Theme - bg.jpg;
#LYRICSPATH:Pokemon Theme Lyrics.lrc;
#CDTITLE:Ace Of Hearts.png;
#MUSIC:Pokemon Theme.ogg;
#OFFSET:1.320;
#SAMPLESTART:29.500;
#SAMPLELENGTH:12.000;
#SELECTABLE:YES;
#BPMS:0.000=145.000;
#STOPS:;
#BGCHANGES:3.000=Pokemon Theme Video.avi=1.000=0=0=1=====,
99999=-nosongbg-=1.000=0=0=0 // don't automatically add -songbackground-
;
#KEYSOUNDS:;

//---------------dance-single - Expert----------------
#NOTES:
     dance-single:
     Ace Of Hearts (2010):
     Challenge:
     9:
     0.776,0.000,0.646,1.000,0.075: // measure 1
0000
0000
0000
0000
,  // measure 2
0000
0000
0000
0000
,  // measure 3
0000
0000
0000
0000
0000
1000
0100
0110
,  // measure 4
0000
0100
1000
0001
0400
0000
0301
1000
,  // measure 5
2001
3100
0010
0011
0000
0002
0103
0010
,  // measure 6
1010
0000
2000
0000
3001
0100
0002
0000
,  // measure 7
1003
0010
0100
0202
0303
2002
3003
1000
,  // measure 8
2100
3100
0010
0000
0020
0000
0130
1100
,  // measure 9
0000
2000
3001
0100
0000
0010
0100
0001
,  // measure 10
2001
0000
3010
0100
0010
0000
2010
0000
3001
0010
0001
0000
0140
0000
0000
0000
,  // measure 11
0000
0000
0000
0030
0001
2000
3001
0011
,  // measure 12
0000
0010
0100
1000
0001
0200
0310
1000
,  // measure 13
1002
0013
0100
4000
0000
3002
0103
0010
,  // measure 14
2010
3002
0000
1003
0020
1030
0100
0020
,  // measure 15
0000
0130
1000
2002
3003
0202
0303
0100
,  // measure 16
0210
0310
0100
0010
0100
0001
1000
0010
,  // measure 17
0200
0000
0310
0000
1000
0000
0001
0010
0200
0000
1300
0000
0001
0000
0100
0000
,  // measure 18
0120
0000
1030
0001
0100
0000
1200
0000
0310
0001
1000
0000
2020
0000
0000
0000
,  // measure 19
0000
0000
0000
0000
3030
0001
0100
0010
,  // measure 20
2010
0000
3001
0010
0001
0100
0010
2000
,  // measure 21
0001
0000
3001
0000
0100
0000
0010
1000
0002
0000
1003
0000
0001
0000
0010
0000
,  // measure 22
0220
0030
0300
1000
0002
0103
0010
2010
,  // measure 23
0000
3002
0103
0010
0200
0301
1000
1010
,  // measure 24
0000
0000
0040
0000
0000
0000
0030
1000
,  // measure 25
0001
0000
0010
0000
0000
0000
0100
1000
0002
0000
0000
0000
1003
0000
0010
0000
,  // measure 26
0210
0301
1000
1200
0310
0001
4002
0000
,  // measure 27
0000
0000
0000
0000
3003
0002
0103
0110
,  // measure 28
0000
0100
0002
1003
0100
0010
0000
0012
,  // measure 29
1003
0000
0020
0000
0000
0000
0230
0000
0000
0000
0301
1000
0002
0000
0000
0000
,  // measure 30
0013
0000
0100
1000
0002
0103
0010
2010
,  // measure 31
0000
3002
0013
0200
0000
1300
1000
0001
,  // measure 32
0100
0010
0000
2010
0000
3001
0100
0120
,  // measure 33
0000
1030
0100
0120
0000
0031
1000
0001
,  // measure 34
0021
0000
0130
2100
0000
3001
0021
0200
,  // measure 35
0000
0030
2300
3001
0200
0310
0000
1020
,  // measure 36
0130
0000
0001
0000
2000
0000
3100
0000
0020
0000
0032
0000
1003
0010
0200
0000
,  // measure 37
0302
0000
0000
0003
2001
0000
3010
0000
0220
0000
0000
0000
0330
0000
0000
0000
;

//---------------dance-single - Hard----------------
#NOTES:
     dance-single:
     Ace Of Hearts (2010):
     Hard:
     7:
     0.485,0.000,0.116,0.878,0.000:
0000
0000
0000
0000
,
0000
0000
0000
0000
,
0000
0000
0000
0000
0000
2000
3100
0010
,
0000
0001
1000
0001
0040
0000
0030
0001
,
2000
0000
3001
0100
0000
0000
0000
0001
,
2000
0000
3200
0000
0310
0001
0020
0000
,
0030
0000
0000
0011
0000
0001
0000
2000
,
3001
0010
0001
0000
2000
0000
3001
0100
,
0000
0010
0100
0010
0000
0000
0000
1000
,
0200
0000
1300
0002
0000
1003
0020
0000
,
0000
0000
0000
0030
0000
1000
0100
0010
,
0000
0000
0001
1000
0010
0020
0000
1030
,
0100
0000
0010
0002
0000
1003
0010
0000
,
1000
0002
0000
0000
0023
0000
0031
2000
,
0000
0000
3000
1001
0000
0001
0000
0200
,
0310
1000
0010
1000
0010
0000
0000
1000
,
0002
0000
1003
0200
0000
0300
0000
1000
,
0002
0000
0103
0020
0000
2030
0002
0000
,
0000
0000
0000
0000
3003
0001
0100
0010
,
0000
0000
2000
3001
0200
0301
0000
1000
,
0002
1003
0000
0200
0000
0000
0300
0000
,
0220
0000
0330
0010
0001
1000
0001
0020
,
0000
0230
0000
2300
0000
3001
0100
0010
,
0000
0000
4000
0000
0000
0000
3000
0001
,
0010
0001
0000
2000
0000
3000
0001
0010
,
0002
0000
1003
0020
0000
1030
0002
0000
,
0000
0000
0000
0003
0000
1000
0100
0010
,
0000
0000
0002
1003
0010
1000
0000
0002
,
0000
2003
0000
3020
0000
0000
0030
0000
,
0000
0000
0000
1000
0002
0013
0001
2000
,
0000
3020
0000
0230
0000
0300
0000
0000
,
0001
1000
0000
0020
0000
1030
0000
0002
,
0000
0013
0000
0200
0000
0300
0000
0000
,
2100
0000
0000
3002
0000
0003
0202
0000
,
0000
0003
0310
1000
0001
0010
0000
0210
,
0000
0000
1300
0001
0100
0001
0000
0020
,
0000
0030
0002
1003
1001
0000
0000
0000
;

//---------------dance-single - Medium----------------
#NOTES:
     dance-single:
     Ace Of Hearts (2010):
     Medium:
     5:
     0.369,0.000,0.017,0.597,0.000:
0000
0000
0000
0000
,
0000
0000
0000
0000
,
0000
0000
0000
0000
,
0000
0001
1000
0000
2000
0000
3000
0001
,
0020
0000
0031
1000
0000
0000
0000
0001
,
0020
0000
0032
0000
1003
0010
2000
0000
,
3000
0000
0000
0001
0000
0001
0000
0000
,
0001
1000
0001
0000
1000
0000
0001
0010
,
0000
0002
0000
1003
0000
0000
0000
0010
,
2000
0000
3001
1000
0000
0001
0020
0000
,
0000
0000
0000
0030
0000
0000
0000
0000
,
0000
0000
0001
1000
0001
0000
0000
1000
,
0010
0000
1000
0001
0000
0000
0000
0000
,
2000
0000
0000
0000
3002
0000
1003
0020
,
0000
0000
0030
1000
0000
1000
0000
0000
,
1000
0001
1000
0000
1000
0000
0000
0001
,
0200
0000
0301
0001
0000
0000
0000
1000
,
0020
0000
1030
0001
0000
1000
0020
0000
,
0000
0000
0000
0000
0030
2000
0000
3000
,
0000
0000
0001
0010
0001
0000
0000
1000
,
0002
0000
0000
0203
0000
0300
0000
0000
,
2002
3003
0000
1000
0100
0000
1000
0002
,
0000
2003
0000
3200
0000
0320
0000
0030
,
0000
0000
0004
0000
0000
0000
0003
1000
,
0010
0000
0000
0010
0000
0000
1000
0001
,
2000
0000
3001
0020
0000
0031
2000
0000
,
0000
0000
0000
0000
3000
0001
0010
0001
,
0000
0000
1000
0001
1000
0000
0000
0010
,
0000
1000
0000
0020
0000
0000
0030
0000
,
0000
0000
0000
1000
0001
0000
1000
0020
,
0000
2030
0000
3002
0000
0003
0000
0000
,
1000
0010
0000
0020
0000
1030
0000
0001
,
0000
1000
0000
0002
0000
0003
0000
0000
,
2000
0000
0000
3020
0000
0000
0230
0000
,
0000
0000
0301
0100
0001
0000
0000
0001
,
0000
0000
1000
0010
1000
0001
0000
0020
,
0000
0000
0031
1000
0001
0000
0000
0000
;

//---------------dance-single - Easy----------------
#NOTES:
     dance-single:
     Ace Of Hearts (2010):
     Easy:
     3:
     0.192,0.000,0.000,0.249,0.000:
0000
0000
0000
0000
,
0000
0000
0000
0000
,
0000
0000
0000
0000
,
0000
0001
0001
0000
,
1000
0000
1000
0000
,
0010
0010
0020
0030
,
0000
0000
1000
1000
,
1000
0000
1000
0000
,
2000
0000
3000
0000
,
0010
0000
0000
0010
0000
0000
0020
0000
,
0000
0030
0000
0000
,
0000
1000
1000
0000
,
0002
0000
0003
0000
,
0010
0000
0010
0010
,
0010
0000
0001
0001
,
0001
0000
1000
0000
,
2000
0000
3000
0000
,
0100
0000
0000
0100
0000
0000
0200
0000
,
0000
0300
0000
0000
,
0000
0000
1000
0000
,
2000
0000
3000
0000
,
0002
0003
0100
0100
,
0200
0000
0300
0000
,
0000
0020
0000
0030
,
0010
0000
0010
0000
,
1000
0000
0000
1000
0000
0000
2000
0000
,
0000
0000
3000
0000
,
0000
0000
0001
0000
,
0001
0001
0002
0000
,
0003
0000
0010
0000
,
0010
0010
0010
0000
,
0001
0000
0001
0000
,
1000
0000
1000
0000
,
0002
0000
0000
2003
0000
0000
3002
0000
,
0000
0000
1003
0000
1000
0000
0000
1000
,
0000
0000
0010
0000
0010
0000
0000
0010
,
0000
0000
1000
1000
1000
0000
0000
0000
;

//---------------dance-single - Novice----------------
#NOTES:
     dance-single:
     Ace Of Hearts (2010):
     Beginner:
     1:
     0.144,0.000,0.000,0.249,0.000:
0000
0000
0000
0000
,
0000
0000
0000
0000
,
0000
0000
0000
0000
,
0000
0000
0001
0000
,
0002
0000
0003
0000
,
1000
0000
2000
0000
,
3000
0000
0000
0000
,
0000
0000
0010
0000
,
0020
0000
0030
0000
,
1000
0000
0000
1000
0000
0000
2000
0000
,
0000
3000
0000
0000
,
0000
0000
0001
0000
,
0002
0000
0003
0000
,
1000
0000
1000
0000
,
1000
0000
0000
0000
,
0000
0000
0001
0000
,
0001
0000
0000
0000
,
0010
0000
0000
0010
0000
0000
0020
0000
,
0000
0000
0030
0000
,
0000
0000
0001
0000
,
0002
0000
0003
0000
,
0000
0000
0100
0000
,
0100
0000
0200
0000
,
0300
0002
0000
0003
,
0001
0000
0001
0000
,
0010
0000
0000
0010
0000
0000
0020
0000
,
0000
0000
0030
0000
,
0000
0000
0001
0000
,
0001
0000
0002
0000
,
0003
0000
1000
0000
,
1000
0000
1000
0000
,
0020
0000
0030
0000
,
0100
0000
0100
0000
,
0001
0000
0000
0001
0000
0000
0002
0000
,
0000
0000
0003
0000
2000
0000
0000
3000
,
0000
0000
0000
0000
0002
0000
0000
0003
,
0000
0010
0010
0000
;
