#TITLE:My Soul, Your Beats!;
#SUBTITLE:;
#ARTIST:Lia;
#TITLETRANSLIT:;
#SUBTITLETRANSLIT:;
#ARTISTTRANSLIT:;
#GENRE:J-Pop;
#CREDIT:Ace Of Hearts;
#BANNER:My Soul, Your Beats - bn.png;
#BACKGROUND:My Soul, Your Beats - bg.jpg;
#LYRICSPATH:My Soul, Your Beats Lyrics.lrc;
#CDTITLE:Ace Of Hearts.png;
#MUSIC:My Soul, Your Beats.ogg;
#OFFSET:0.780;
#SAMPLESTART:53.800;
#SAMPLELENGTH:12.000;
#SELECTABLE:YES;
#BPMS:0.000=145.000;
#STOPS:;
#BGCHANGES:0.000=1.000=0.000=0=0=0=StretchNoLoop====,
2.500=My Soul^ Your Beats Video.avi=1.000=0=0=1=====,
99999=-nosongbg-=1.000=0=0=0 // don't automatically add -songbackground-
;
#KEYSOUNDS:;

//---------------dance-single - Hard----------------
#NOTES:
     dance-single:
     Ace Of Hearts (2010):
     Hard:
     7:
     0.412,0.270,0.011,0.847,0.011: // measure 1
0000
0000
0000
0000
0000
0000
0000
1000
,  // measure 2
0002
0023
0230
2300
,  // measure 3
0000
0000
3000
0000
0000
0000
0000
0010
,  // measure 4
2000
3002
2003
3200
,  // measure 5
0000
0000
0300
0000
0000
0000
0000
0010
,  // measure 6
0002
0000
2003
0000
3020
0000
2030
3000
,  // measure 7
2002
0000
0000
0000
3003
0000
0000
1000
,  // measure 8
0020
2030
3200
0320
,  // measure 9
0000
0000
0000
0200
,  // measure 10
0000
0000
0000
0030
,  // measure 11
1300
0010
1000
0001
1000
0000
1000
0010
,  // measure 12
1000
0000
0001
0000
1000
0100
2000
0000
0000
0000
3000
0000
0002
0000
0013
0000
,  // measure 13
0000
0000
0001
0000
1000
0000
0000
0000
0040
4000
0000
0000
0000
0000
0000
0030
,  // measure 14
3001
0100
0001
2000
0000
3001
0200
0000
,  // measure 15
0301
1000
0100
2000
0000
3000
0000
0001
,  // measure 16
0010
0001
1000
0020
0000
1030
0004
0000
,  // measure 17
0000
0000
0003
0000
0000
0000
0000
1000
,  // measure 18
0020
2030
3200
0320
,  // measure 19
0430
0000
0300
2000
,  // measure 20
3002
0203
0320
4030
,  // measure 21
0000
0000
0000
3000
0000
0000
0000
0000
,  // measure 22
0001
1000
0010
2000
0000
3001
0010
0001
,  // measure 23
1000
0100
0010
0400
0000
0300
0000
0000
,  // measure 24
0010
0001
1000
0002
0000
1003
0040
0000
,  // measure 25
0000
0000
0030
0000
0000
0000
0000
0100
,  // measure 26
0002
2003
3002
0023
,  // measure 27
0430
0000
0300
2000
,  // measure 28
3002
0203
0320
2030
,  // measure 29
3004
0000
0003
0200
,  // measure 30
0310
2000
0000
3002
0000
1003
0020
0000
,  // measure 31
0430
0000
0300
0002
,  // measure 32
1003
0020
0000
2030
0000
3100
0020
0000
,  // measure 33
0032
0000
0000
0000
0000
0000
0000
0000
0000
0000
0000
0000
0000
0000
0000
0003
0004
0000
0000
0000
0000
0000
0000
0000
0003
0000
0000
0000
0000
0000
0000
0000
,  // measure 34
1000
0010
1000
0002
0000
0000
1003
0020
,  // measure 35
0000
0000
1030
0004
0000
0000
0003
0000
,  // measure 36
1000
0001
1000
0400
0000
0300
1000
0002
,  // measure 37
0000
0000
1003
0020
0000
0000
1030
0002
,  // measure 38
0000
0000
0000
0000
0000
0000
0000
0000
0000
0000
0000
0000
0000
0000
0000
0000
0000
0000
0000
0000
0000
0000
0000
0000
0000
0000
0000
0000
0000
0000
0000
0003
,  // measure 39
0004
0000
0000
0000
0003
1000
0010
1000
,  // measure 40
0001
0020
0000
0000
0030
0001
1000
0010
,  // measure 41
0200
0302
2003
3200
,  // measure 42
0310
0100
1000
0004
0000
0000
1003
0020
,  // measure 43
0000
0000
1030
0004
0000
0000
0003
0000
,  // measure 44
0100
0010
1000
0400
0000
0000
1300
0002
,  // measure 45
0000
0000
1003
0200
0000
0000
1300
0004
,  // measure 46
0000
0000
0000
0000
0000
0003
0000
1000
,  // measure 47
0010
0100
0020
0000
0000
0000
1030
0400
,  // measure 48
0000
0000
0000
0000
0000
0300
0000
0010
,  // measure 49
0002
0203
0320
4030
,  // measure 50
0000
0000
0000
0000
3000
0000
0000
0001
,  // measure 51
0200
0320
2030
3004
,  // measure 52
0000
0000
0000
0003
0000
0000
0000
1000
,  // measure 53
0200
2300
3002
0043
,  // measure 54
0000
0000
0000
0000
0000
0000
0000
0030
;

//---------------dance-single - Expert----------------
#NOTES:
     dance-single:
     Ace Of Hearts (2010):
     Challenge:
     9:
     0.718,0.390,0.201,1.000,0.145:
0000
0000
0000
0000
0000
0000
0000
0001
,
2001
3010
0200
0301
2000
3010
0200
0000
,
0000
0000
0000
0000
0300
0000
0000
0100
,
0102
1003
0200
0310
0002
1003
0200
0000
,
0000
0000
0000
0000
0300
0000
0000
0010
,
0012
1003
0020
0130
0002
2003
0200
0000
,
0010
0000
0000
0000
3300
0000
0000
1000
,
1002
0103
0020
1030
0200
0310
0002
0000
,
0000
0000
0000
0000
0000
0000
2000
0003
,
0010
0001
0100
0001
,
3010
0010
0100
0100
0001
0001
1000
0100
,
0010
0000
0100
0000
1000
0100
0020
0000
0030
0000
0000
0000
0012
0000
1003
0000
,
0000
0000
0010
0000
0110
0000
0000
0000
0100
0001
1000
0100
0010
0001
1000
0010
,
0200
0301
1000
0040
0000
1030
0002
1003
,
0010
0000
0100
0000
0001
0000
0020
0000
0130
0000
1000
0000
0001
0010
0100
0000
,
1000
0001
0100
0020
0130
0001
4000
0010
,
0000
0000
3001
0000
0101
0000
0000
0000
0100
0010
1000
0000
0000
0000
0001
0000
,
0021
0130
2000
3001
0200
0310
2000
3100
,
0020
0130
1002
0103
0000
0010
2000
3100
,
0020
0000
0031
0000
0200
0000
0310
0000
2000
0000
3001
0000
0400
0000
0000
0300
,
0120
0000
1030
0000
0000
0000
0001
0000
0011
0000
0000
0000
0001
1000
0010
1000
,
0001
0100
0010
2000
3100
0010
0002
0103
,
1000
0000
0200
0000
0310
0000
0200
0000
0301
1000
0010
0000
0210
0000
0301
0000
,
1000
0010
1000
0200
0310
0001
0200
0310
,
2010
3002
0200
0000
0010
0000
0303
0100
,
0020
1030
0002
0013
0200
1300
0020
0130
,
0001
1000
0100
0000
0000
0000
1000
0000
1001
0000
0000
0000
0002
0000
0103
0000
,
0020
1030
0002
0013
0200
1300
0002
0103
,
0040
1000
0000
0130
0101
0000
0002
0013
,
0100
0020
0000
0130
2000
3001
0020
0130
,
400M
0000
00M0
0000
3M00
0000
0020
0130
,
0002
2003
3100
0020
0030
0010
0200
1300
,
0002
0000
0000
0000
0000
0000
0000
0000
00M0
0000
0000
0000
0000
0000
0000
0003
0M04
0000
0000
0000
0000
0000
0000
0000
M000
0000
0000
0000
0003
0000
0000
0000
,
2001
0000
3010
0000
0100
0000
0002
0000
1003
0000
0100
0000
0010
0001
2000
0000
,
3010
0100
0001
4000
0000
3001
0100
0010
,
1000
0001
0010
0000
0001
0000
2000
0000
3010
0000
0100
0001
1000
0000
0200
0000
,
0310
0000
0001
0100
0010
0000
2000
0000
3100
0000
0010
0000
0001
1000
0200
0000
,
00M0
0000
0000
0000
0000
0000
0000
0000
000M
0000
0000
0000
0000
0000
0000
0000
00M0
0000
0000
0000
0000
0000
0000
0000
M000
0000
0000
0000
0000
0000
0000
0300
,
04M0
0000
000M
0000
M300
0010
0002
1003
,
0200
0340
0000
0000
0031
2000
3001
0100
,
0020
1030
0002
0013
0200
0310
0002
1003
,
1020
0000
0130
0000
0001
0000
2000
0000
3100
0000
0010
0001
2000
0000
3010
0000
,
0200
0000
0301
1000
0100
0000
0040
0000
0000
0000
0031
0000
1000
0000
0010
0000
,
1000
0001
0020
0000
0031
0000
2000
0000
3020
0000
0130
0001
1000
0000
0002
0000
,
0013
0000
0100
1000
0001
0000
0200
0000
0310
0000
1000
0100
0010
0000
0M04
0000
,
0M00
0000
0M00
M000
0M00
00M0
0M00
0000
0M00
0000
0M03
0000
0000
0000
1000
0000
,
0020
1030
0200
0000
0000
0310
0001
40M0
,
00M0
0000
00M0
0M00
00M0
000M
00M0
0000
00M0
0000
30M0
0000
0000
0000
0001
0000
,
0200
0310
2000
0000
3100
0010
0004
0000
,
1003
0010
1000
0100
0010
0000
0010
0001
,
2000
3010
1000
0000
1000
0010
0400
0000
,
0310
1000
0100
0010
0001
0000
0001
1000
,
0020
0130
0002
0000
1003
0000
0040
0000
,
0130
0001
1000
0100
1000
0001
1000
1100
;

//---------------dance-single - Medium----------------
#NOTES:
     dance-single:
     Ace Of Hearts (2010):
     Medium:
     5:
     0.311,0.180,0.011,0.435,0.006:
0000
0000
0000
0000
0000
0000
0000
1000
,
0001
1000
0001
0200
,
0000
0000
0300
0000
0000
0000
0000
0001
,
1000
0100
1000
0002
,
0000
0000
0003
0000
0000
0000
0000
1000
,
0001
1000
0100
0010
,
2002
0000
0000
0000
3003
0000
0000
1000
,
0001
1000
0010
0200
,
0000
0000
0000
0302
,
0000
0000
0000
0000
,
4003
0000
0000
0000
,
0000
3000
0001
0100
0000
0000
0010
0100
,
0000
0000
0001
0000
0100
0000
0000
0000
0004
4000
0000
0000
0000
0000
3003
0000
,
1000
0000
0001
0020
0000
0031
2000
0000
,
3001
0100
0000
0002
0000
0003
0000
1000
,
0100
0000
1000
0001
0000
1000
0040
0000
,
0000
0000
0030
0000
0000
0000
0000
1000
,
0002
1003
0010
1000
,
0004
0000
0003
2000
,
3100
0010
0100
4000
,
0000
3000
0000
0000
,
0001
0000
1000
0020
0000
1030
0001
0000
,
1000
0010
0000
0200
0000
0300
0000
0000
,
0001
0000
1000
0010
0000
1000
0004
0000
,
0000
0000
0003
0000
0000
0000
0000
1000
,
0020
1030
0001
1000
,
0400
0000
0300
1000
,
0002
0103
0001
1000
,
0040
0000
0030
2000
,
3000
0002
0000
2003
0000
3001
0020
0000
,
0430
0000
0300
1000
,
0001
1000
0000
0010
0000
1000
0001
0000
,
0020
0000
0000
0030
,
0001
0000
1000
0200
0000
0000
1300
0002
,
0000
0000
1003
0020
0000
0000
0030
0000
,
1000
0000
0001
0020
0000
0000
0031
2000
,
0000
0000
3001
0200
0000
0000
0000
0302
,
0000
0000
0000
0000
,
0000
0000
0003
0000
0000
1000
0200
0000
,
1300
0001
0000
0000
0000
1000
0010
0000
,
2000
3001
2000
3100
,
0010
0000
0001
2000
0000
0000
3010
0200
,
0000
0000
0310
4000
0000
0000
3000
0000
,
0001
0000
1000
0200
0000
0000
1300
0002
,
0000
0000
1003
0020
0000
0000
1030
0004
,
0000
0000
0000
0000
0003
0000
0000
1000
,
0001
0000
0200
0000
0300
0000
0001
4000
,
0000
0000
0000
0000
3000
0000
0000
0001
,
0020
0031
1000
0400
,
0000
0000
0000
0000
0300
0000
0000
1000
,
0002
1003
0010
4000
,
0000
0000
3000
0000
0000
0000
0000
0001
,
0020
0031
1000
0040
,
0000
0000
0000
0000
0000
0000
0000
0030
;

//---------------dance-single - Easy----------------
#NOTES:
     dance-single:
     Ace Of Hearts (2010):
     Easy:
     3:
     0.194,0.120,0.011,0.223,0.000:
0000
0000
0000
0000
,
0001
0000
0001
0002
,
0000
0003
0000
0000
,
1000
0000
1000
2000
,
0000
3000
0000
0000
,
0010
0000
0010
0000
,
2002
0000
3003
0000
,
1000
0000
1000
2000
,
0000
0000
3000
0002
,
0000
0000
0000
0003
,
0040
0000
0000
0000
,
0030
0001
0000
1000
,
0000
0001
0002
0000
,
0013
0010
0010
0000
,
0100
0100
0100
0000
,
1000
0000
1000
2000
,
0000
3000
0000
0000
,
0010
0010
0010
0000
,
0200
0000
0300
0001
,
0000
0001
0001
0002
,
0000
0003
0000
0000
,
2000
0000
3000
0001
,
0001
0001
0000
0000
,
0010
0000
0010
0020
,
0000
0030
0000
0000
,
0001
0000
1000
1000
,
2000
0000
3000
0100
,
0100
0100
0000
0010
,
0020
0000
0030
0001
,
0000
0001
0000
0002
,
0000
0000
0003
1000
,
0000
1000
0000
1000
,
2000
0000
0000
3000
,
0001
0001
0001
0000
,
0010
0000
0020
0030
,
0001
0001
0001
0000
,
1000
0000
1000
0000
,
2000
0000
0000
0000
,
3000
0000
0000
0010
,
0010
0000
0000
0100
,
0100
0000
0001
0001
,
0001
0000
0001
0000
,
1000
0000
1000
0000
,
0100
0100
0100
0000
,
0010
0000
0010
0000
,
0002
0000
0003
0000
,
1000
1000
0000
0100
,
0200
0000
0300
0000
,
0010
0010
0010
0040
,
0000
0030
0000
0000
,
0001
0001
0001
0004
,
0000
0003
0000
0000
,
1000
1000
1000
4000
,
0000
0000
0000
3000
;

//---------------dance-single - Novice----------------
#NOTES:
     dance-single:
     Ace Of Hearts (2010):
     Beginner:
     1:
     0.139,0.060,0.000,0.189,0.000:
0000
0000
0000
0000
,
0002
0000
0000
0003
,
0000
0000
0000
0000
,
2000
0000
0000
3000
,
0000
0000
0000
0000
,
0020
0000
0000
0000
,
0030
0000
0000
0000
,
2000
0000
0000
3000
,
0000
0000
0000
0000
,
0000
0000
0000
0000
,
0020
0000
0000
0000
,
0000
0030
0000
1000
,
0000
1000
0000
0000
,
0010
0000
0010
0000
,
0020
0000
0030
0000
,
1000
0000
1000
0000
,
1000
0000
0000
0000
,
0001
0000
0001
0000
,
0002
0000
0003
0000
,
0010
0000
0010
0000
,
0010
0000
0000
0000
,
0001
0000
0001
0000
,
1000
0000
1000
0000
,
0010
0000
0010
0000
,
0010
0000
0000
0000
,
1000
0000
1000
0000
,
2000
0000
3000
0000
,
0001
0000
0001
0000
,
0002
0000
0003
0000
,
0100
0000
0100
0000
,
0200
0000
0300
0000
,
0010
0000
0010
0000
,
0020
0000
0030
0000
,
1000
0000
1000
0000
,
1000
0000
1000
0000
,
0001
0000
0001
0000
,
0010
0000
0010
0000
,
0020
0000
0000
0000
,
0030
0000
0000
0000
,
0001
0000
0000
0000
,
1000
0000
0000
0000
,
0010
0000
0010
0000
,
0100
0000
0100
0000
,
0001
0000
0001
0000
,
1000
0000
1000
0000
,
2000
0000
3000
0000
,
0010
0000
0010
0000
,
0020
0000
0030
0000
,
1000
0000
1000
2000
,
0000
3000
0000
0000
,
0001
0000
0001
0002
,
0000
0003
0000
0000
,
0100
0000
0100
0200
,
0000
0000
0000
0300
;
