#TITLE:My Kitten;
#SUBTITLE:;
#ARTIST:Thyme;
#TITLETRANSLIT:;
#SUBTITLETRANSLIT:;
#ARTISTTRANSLIT:;
#GENRE:J-Rock;
#CREDIT:Ace Of Hearts;
#BANNER:My Kitten - bn.png;
#BACKGROUND:My Kitten - bg.jpg;
#LYRICSPATH:;
#CDTITLE:Ace Of Hearts.png;
#MUSIC:My Kitten.ogg;
#OFFSET:-0.620;
#SAMPLESTART:40.000;
#SAMPLELENGTH:12.000;
#SELECTABLE:YES;
#BPMS:0.000=204.000,94.000=407.998,95.000=204.000,128.500=407.998,132.500=204.000,259.500=101.999,261.500=204.000,292.000=408.000,293.000=204.000,326.500=408.000,330.500=204.000,412.500=408.000,414.000=204.000,428.500=408.000,430.000=204.000,444.500=408.000,446.000=204.000,462.000=102.000,478.000=204.000,603.000=408.000,606.000=204.000;
#DISPLAYBPM:102.000:204.000;
#STOPS:94.000=0.150
,128.500=0.150
,129.500=0.150
,130.500=0.150
,131.500=0.150
,292.000=0.150
,326.500=0.150
,327.500=0.150
,328.500=0.150
,329.500=0.150
,412.500=0.225
,428.500=0.225
,444.500=0.225
,603.000=0.225
,604.500=0.225
;
#BGCHANGES:;
#KEYSOUNDS:;

//---------------dance-single - Hard----------------
#NOTES:
     dance-single:
     Ace Of Hearts (2009):
     Challenge:
     9:
     0.785,0.000,0.427,1.000,0.024: // measure 1
0000
0000
0000
0000
,  // measure 2
0000
0000
0000
0000
,  // measure 3
0000
0000
0000
0000
,  // measure 4
0000
0000
0000
0000
,  // measure 5
0001
0010
0001
1000
0010
0000
0010
0100
,  // measure 6
0000
0100
0001
1000
0001
0010
0100
1000
,  // measure 7
0001
0100
0010
0100
0001
0000
0001
1000
,  // measure 8
0200
0000
0000
0000
0300
1000
0001
0010
,  // measure 9
0110
0000
0200
0000
0300
0010
0001
0100
,  // measure 10
0000
0010
0000
1020
0000
0130
0001
1000
,  // measure 11
1100
0000
0200
0000
0300
1000
0000
0020
,  // measure 12
0000
0030
2002
0000
3003
0220
0000
0330
,  // measure 13
0000
1000
0001
0010
0200
0000
0310
0001
,  // measure 14
0000
0200
0300
0110
0000
0010
1000
0100
,  // measure 15
0020
0000
0130
1000
0001
0010
0000
2200
,  // measure 16
0000
0000
3300
0000
,  // measure 17
2002
3003
0002
0000
0013
0100
1000
1002
,  // measure 18
0000
0023
0000
0430
0000
1300
0001
0100
,  // measure 19
0002
0000
0023
0000
0130
1000
0000
0002
,  // measure 20
0000
0003
2002
0000
3003
0220
0000
0330
,  // measure 21
0000
0010
0100
1000
0002
0000
0103
0010
,  // measure 22
0000
2000
0000
3002
0000
0103
0010
1000
,  // measure 23
0002
0000
2003
0000
3100
0010
0000
0001
,  // measure 24
1000
0020
0000
0030
0110
0000
0100
0000
,  // measure 25
0102
0000
0000
0000
,  // measure 26
0000
0000
0000
0000
0003
0000
2000
3000
,  // measure 27
1100
0020
0000
0031
0000
1000
0000
0200
,  // measure 28
0310
0001
0000
4000
0000
3001
0100
0010
,  // measure 29
2000
0000
3002
0000
0023
0000
0032
1003
,  // measure 30
0000
0200
0000
0310
0000
0001
1000
0000
,  // measure 31
1020
0000
1030
0002
0000
0013
0100
1000
,  // measure 32
0020
0200
0000
0000
,  // measure 33
0330
0101
0000
0011
0000
1001
0000
1100
,  // measure 34
0000
0022
0000
0033
0001
0000
2000
3000
,  // measure 35
1001
0000
0002
0000
0003
0000
0200
0300
,  // measure 36
0110
0020
0030
1000
,  // measure 37
1020
0000
0130
0002
0000
0000
0023
0000
,  // measure 38
0230
0000
1300
0001
1000
0100
2000
3000
,  // measure 39
1010
0000
0020
0000
0030
0000
2000
3000
,  // measure 40
1001
0000
0002
0000
0003
0000
0020
0030
,  // measure 41
0110
0000
0100
2000
0000
0000
3001
0000
,  // measure 42
0202
0303
0002
1003
,  // measure 43
1100
0000
0200
0000
0300
0000
0020
0030
,  // measure 44
0011
0000
0002
0000
0003
0000
2000
3000
,  // measure 45
1001
0000
0000
0002
0000
0000
0203
0000
,  // measure 46
0300
0000
0020
0000
1030
0001
1000
0100
,  // measure 47
0010
0001
0100
0001
0010
0001
0100
0001
,  // measure 48
0010
0100
0000
2000
0000
3001
0100
0010
,  // measure 49
1000
0100
1000
0010
1000
0100
1000
0010
,  // measure 50
1000
0100
0000
0020
0030
0001
0000
0202
,  // measure 51
0000
0000
0303
0000
0110
0000
0010
1000
,  // measure 52
0001
0000
0001
1000
0001
0100
0001
1000
,  // measure 53
0010
1000
0000
0001
0100
0010
0100
0001
,  // measure 54
1000
0100
0220
0000
0330
2002
0000
3003
,  // measure 55
1000
0010
1000
0001
1000
0010
0100
0010
,  // measure 56
1000
0000
1000
0100
0010
0001
0010
0100
,  // measure 57
1000
0001
0100
0010
0100
0001
1000
0100
,  // measure 58
0020
0000
0000
0000
0030
0001
1000
0010
,  // measure 59
0100
0000
0002
0000
0103
0010
0100
0001
,  // measure 60
0000
0010
0000
0200
0000
1300
0001
0100
,  // measure 61
0002
0000
0013
0000
0100
1000
0000
0002
,  // measure 62
0000
0003
0101
0000
0000
2020
0000
3030
,  // measure 63
0000
1000
0001
0010
0001
0000
0100
0010
,  // measure 64
0000
1000
0000
0002
0000
0103
0010
0100
,  // measure 65
0001
0010
0100
1000
0001
1000
0000
0200
,  // measure 66
0000
0000
0000
0300
0000
0000
0000
0000
0000
0000
0000
0000
0010
0000
0000
0000
,  // measure 67
0100
1000
0001
0100
0000
0020
0000
0430
,  // measure 68
0000
0301
1000
0100
0020
0000
0130
1000
,  // measure 69
0010
0100
0000
0002
0000
0003
0011
0000
,  // measure 70
0000
2200
0000
3300
0000
1000
0001
0100
,  // measure 71
0020
0000
1030
0002
0000
0103
0000
0020
,  // measure 72
0000
1030
0001
0010
0100
0010
0001
0100
,  // measure 73
0010
1000
0000
0002
0000
0203
0000
0300
,  // measure 74
0110
0010
2020
0000
,  // measure 75
0000
0000
0000
0000
,  // measure 76
3030
0000
0002
0003
0101
2000
0000
3100
,  // measure 77
0000
0010
0000
0200
0000
0310
0000
0002
,  // measure 78
0000
1003
0010
1000
0200
0000
0320
0000
,  // measure 79
0032
0000
1003
0010
0000
2000
0000
3100
,  // measure 80
0000
0010
0001
1000
0020
0030
0010
0200
,  // measure 81
0300
0100
0001
1000
0100
0010
0002
0000
,  // measure 82
0000
0000
0000
0000
0003
0101
0000
1100
,  // measure 83
0000
0011
0000
0101
0000
2020
0000
0030
,  // measure 84
3002
0000
0203
0300
0110
0000
0020
0000
,  // measure 85
0030
0000
2000
3000
1100
0000
0200
0000
,  // measure 86
0300
0000
0010
0000
0200
0000
1300
0002
,  // measure 87
0000
0000
1003
0000
1020
0000
1030
0001
,  // measure 88
0010
0100
0020
0030
0011
0000
0002
0000
,  // measure 89
0003
0000
2000
3000
1010
0000
0020
0000
,  // measure 90
0030
0000
2000
3000
1001
0000
0001
0200
,  // measure 91
0000
0310
2020
3030
,  // measure 92
2000
3001
0011
0020
,  // measure 93
0030
0000
0200
0300
1100
0000
2000
0000
,  // measure 94
3000
0000
0001
0000
0012
0000
0000
2003
,  // measure 95
0000
3020
0000
2030
,  // measure 96
3001
0010
0100
1000
0001
0100
1000
0100
,  // measure 97
0001
0100
1000
0100
0001
0010
0000
0210
,  // measure 98
0000
1300
0001
1000
0001
0010
1000
0010
,  // measure 99
0001
0010
1000
0010
0001
0100
0000
0110
,  // measure 100
0000
0010
0000
1000
1002
0013
0000
0010
,  // measure 101
0200
1300
0000
1000
0002
0103
0010
1000
,  // measure 102
0100
0010
0001
0010
0200
1300
0000
1000
,  // measure 103
0020
0130
0000
0100
0002
1003
0100
0010
,  // measure 104
0200
1300
0000
0000
1002
0103
0000
0100
,  // measure 105
0020
1030
0000
1000
0200
0310
0001
1000
,  // measure 106
0020
1030
0001
0010
0002
1003
0000
1000
,  // measure 107
0020
0130
0000
0100
0002
1003
0100
0010
,  // measure 108
0002
1003
0000
0000
1020
0130
0000
0100
,  // measure 109
0002
0013
0000
0010
0200
1300
0001
1000
,  // measure 110
0020
0130
0001
1000
0200
0310
0000
0001
,  // measure 111
2000
3010
0000
0010
0200
0301
1000
0010
,  // measure 112
0200
0301
0000
0000
0021
0130
0000
0100
,  // measure 113
2000
3001
0000
0001
0200
0310
1000
0001
,  // measure 114
0020
0000
0130
0000
0010
0000
0001
0000
2000
0000
3010
0000
0000
0000
1000
0001
,  // measure 115
1000
0010
1000
0100
0010
0100
1000
0001
,  // measure 116
0100
0010
1000
0001
0200
0320
0030
1000
,  // measure 117
0002
0000
0023
0000
0030
0000
0001
0000
2000
0000
3001
0200
0000
0000
0320
0000
,  // measure 118
2030
0000
3001
0100
0010
0100
0001
0000
2000
0000
3020
0000
0030
0000
1000
0000
,  // measure 119
0200
0000
1300
0100
0010
0100
1000
0000
0001
0010
0100
0010
0001
0000
1000
0010
,  // measure 120
1000
0000
0002
1003
1010
0000
0020
0000
,  // measure 121
0030
0000
2000
3000
1001
0000
0002
0000
,  // measure 122
0003
0000
1000
0000
1020
0000
0000
0230
,  // measure 123
0000
0000
0302
0000
0000
0003
2000
0000
,  // measure 124
3100
0010
0100
1000
0001
0100
1000
0100
,  // measure 125
0001
1000
0010
0001
0010
1000
0000
0002
,  // measure 126
0000
1003
0100
0010
1000
0010
0001
1000
,  // measure 127
0001
0100
1000
0100
0001
0010
0000
0000
,  // measure 128
0002
0000
2003
3000
1010
0000
0020
0000
,  // measure 129
0030
0000
2000
3000
1100
0000
0200
0000
,  // measure 130
0300
0000
0010
0000
0012
0000
1003
0020
,  // measure 131
0000
0000
1030
0000
1002
0000
0103
0010
,  // measure 132
0100
0001
2000
3000
1010
0000
0020
0000
,  // measure 133
0030
0000
0200
0300
0101
0000
0002
0000
,  // measure 134
0003
0000
1000
0000
1002
0000
0103
0020
,  // measure 135
0000
1030
2200
3300
,  // measure 136
0200
0000
0320
0030
0011
0000
0002
0000
,  // measure 137
0003
0000
2000
3000
1010
0000
0020
0000
,  // measure 138
0030
0000
0200
0300
0120
0000
0000
2030
,  // measure 139
0000
3002
0000
2003
,  // measure 140
3100
0010
0001
1000
0001
0100
1000
0100
,  // measure 141
0001
0010
1000
0010
0001
0100
0000
0020
,  // measure 142
0000
0130
0001
1000
0001
0010
1000
0010
,  // measure 143
0001
0100
1000
0100
0010
1000
0000
0002
,  // measure 144
0000
0013
0000
0100
2100
3001
0100
0010
,  // measure 145
2000
0000
3001
0100
0010
0100
0001
1000
,  // measure 146
0100
0010
0100
1000
0001
0010
0001
1000
,  // measure 147
0010
1000
0001
0010
0001
1000
2020
0000
,  // measure 148
3030
0202
0000
0303
0100
0010
1000
0100
,  // measure 149
0020
0000
0130
1000
0001
0100
0010
1000
,  // measure 150
0001
0010
0001
1000
0010
0100
0001
1000
,  // measure 151
0100
0010
0100
1000
0001
0010
0110
0000
,  // measure 152
0000
0110
0000
0000
0000
0000
0000
0000
;

//---------------dance-single - Hard----------------
#NOTES:
     dance-single:
     Ace Of Hearts (2009):
     Hard:
     7:
     0.549,0.000,0.058,0.616,0.008:
0000
0000
0000
0000
,
0000
0000
0000
0000
,
0000
0000
0000
0000
,
0000
0000
0000
0000
,
0001
1000
0000
0010
2000
0000
3001
0010
,
0000
0001
1000
0010
1000
0000
0001
0000
,
1000
0010
0000
1000
0001
0000
0010
0100
,
2000
0000
0000
0000
3000
0001
0100
0000
,
0020
0000
1030
0000
0000
0001
0010
0001
,
0000
2000
0000
3010
0000
1000
0001
0000
,
1000
0000
0010
0000
0000
0010
0000
1000
,
0000
0000
0001
0000
0000
0022
0000
0033
,
0000
0010
0100
0000
0020
0000
0031
1000
,
0000
0001
0000
0100
0000
0010
0100
0000
,
0001
0000
1000
0000
0010
1000
0000
0002
,
0000
0000
0003
0000
,
0000
0000
1000
0000
0010
0000
1000
0001
,
0000
0010
0000
0200
0000
0310
0001
1000
,
0001
0000
0100
0000
0010
1000
0000
0002
,
0000
0000
1003
0000
0000
2020
0000
3030
,
0000
0000
0010
1000
0002
0000
1003
0100
,
0000
1000
0000
0001
0000
1000
0010
1000
,
0001
0000
0010
0001
1000
0010
0000
0100
,
0000
0002
0000
0000
1003
0000
0200
0000
,
0320
0000
0000
0000
,
0000
0000
0030
0200
,
1300
0001
0000
1000
0000
0010
0000
1000
,
0001
0010
0000
0002
0000
1003
0010
1000
,
0002
0000
2003
0000
3020
0000
1030
0001
,
0000
0200
0000
0310
0000
1000
0001
0000
,
0020
0000
0031
1000
0000
0010
1000
0001
,
0010
0200
0000
0000
,
0300
0010
0000
0001
0000
1000
0000
0001
,
0000
0020
0000
0000
0032
0000
1003
0000
,
0200
0310
0000
0001
,
2000
3010
0000
1000
,
0200
0000
0310
0002
0000
0003
2000
0000
,
3010
0000
1000
0001
1000
0100
0010
0000
,
0002
1003
0000
0010
,
0200
0301
0000
1000
,
0002
0000
1003
0010
0000
0000
0100
0000
,
0202
0303
0001
1000
,
0200
0310
0000
0100
,
2000
3001
0000
1000
,
0020
0000
0000
2030
0000
0000
3002
0000
,
0003
0000
1000
0000
0010
1000
0001
0000
,
1000
0010
1000
0010
1000
0000
0001
0000
,
1000
0010
0000
0200
0000
0301
1000
0000
,
0001
0100
0001
0100
0001
0000
1000
0000
,
0100
0010
0000
0001
0000
1000
0000
1020
,
0000
0000
0000
0000
0130
0000
0001
1000
,
0001
0000
1000
0000
0000
0010
0000
0000
,
1000
0000
0001
0100
0001
0000
1000
0001
,
1000
0000
0020
0000
0000
0230
0000
0000
,
0301
0000
1000
0001
0010
0000
0001
0000
,
1000
0000
0010
1000
0010
0000
1000
0000
,
0001
0000
0010
0001
0010
0000
0100
1000
,
0200
0000
0000
0000
0300
0010
0001
0000
,
1000
0000
0020
0000
0030
1000
0001
1000
,
0000
0020
0000
0130
0000
0001
0100
0001
,
2000
0000
3001
0000
0010
0001
0000
2000
,
0000
0000
3001
0000
0000
0022
0000
0033
,
0000
0000
0001
1000
0002
0000
1003
0010
,
0000
0100
0000
0010
0000
1000
0001
0000
,
0010
0000
0001
1000
0010
1000
0000
0002
,
0000
0000
0000
0003
0000
0000
0000
0000
0000
0000
0000
0000
1000
0000
0000
0000
,
0020
0000
1030
0001
0000
0010
0000
0002
,
0000
1003
0010
0000
1000
0000
0001
0000
,
0010
0100
0000
2000
0000
0000
3001
0000
,
0000
0202
0000
0303
0000
0000
0100
0010
,
0200
0000
0301
1000
0000
0010
0000
1000
,
0000
0001
0010
0000
0001
0000
1000
0010
,
1000
0001
0000
1000
0000
0002
0000
0000
,
0013
0100
2000
0000
,
0000
0000
0000
0000
,
3000
0000
0001
0000
1000
0010
0000
1000
,
0000
0001
0000
0010
0000
0001
0000
2000
,
0000
3001
0100
0000
0010
0000
0010
0000
,
0010
0000
1000
0001
0000
0001
0000
0001
,
0000
1000
0010
0000
2000
0000
3001
0010
,
0000
0001
1000
0000
0001
1000
0020
0000
,
0000
0000
0000
0000
0030
1000
0000
0001
,
0000
0010
0000
0100
0000
0020
0000
0000
,
0032
1003
0200
0310
,
0000
0100
2000
3001
,
0000
0000
0100
0000
0020
0000
1030
0002
,
0000
0000
1003
0000
0100
0000
0010
0100
,
1000
0001
1000
0000
0002
0000
0103
0000
,
0000
0010
2000
3001
,
0000
0000
0010
0000
0002
0000
1003
0010
,
0000
1000
0200
0300
,
0010
0001
2000
3010
,
0000
1000
0002
0013
,
0000
0000
0100
0000
0020
0000
0000
0031
,
0000
2000
0000
3010
,
1000
0001
0010
0000
0001
1000
0001
1000
,
0010
0000
1000
0000
0001
0010
0000
0002
,
0000
0000
1003
0000
0010
0100
0010
0100
,
0001
0000
1000
0000
0001
0010
0000
0001
,
0000
1000
0000
1200
0000
0300
0000
1000
,
0001
0000
0000
1000
0010
0000
1000
0000
,
0002
0000
1003
0000
0100
0000
0000
0010
,
0001
0000
0000
1000
0010
0000
1000
0001
,
1000
0000
0000
0000
0010
0000
0000
1000
,
0001
0000
0000
1000
0100
0000
0010
0000
,
0100
0000
1000
0000
0001
0000
0000
1000
,
0010
0000
0000
1000
0001
0000
0010
0100
,
1000
0000
0000
0000
0001
0000
0000
0100
,
0010
0000
0000
0100
0001
0000
1000
0000
,
0010
0000
1000
0000
0001
0000
0000
0010
,
0100
0000
0000
0010
0001
0000
1000
0010
,
0100
0000
0000
0000
0010
0000
0000
1000
,
0001
0000
0000
1000
0010
0000
0100
0000
,
0001
0000
1000
0000
0100
0000
0000
1000
,
0001
0000
0000
1000
0010
0000
0100
0000
,
0001
0000
1000
0000
0002
0013
0000
0001
,
2000
0000
3010
0000
0000
0000
1000
0000
0002
0000
1003
0100
0000
0000
0010
0000
,
0200
0000
1300
0001
1000
0000
0100
0000
0020
0000
0031
0000
0000
0000
1000
0000
,
0020
0000
0130
0000
0000
0000
0001
0000
2000
0000
3001
0010
0000
0000
0002
0000
,
0103
0000
0020
1030
0002
0000
0013
0000
,
0000
0001
2000
3010
,
0000
0000
0100
0000
0020
0000
0000
2030
,
0000
3002
0003
1000
,
0001
0010
0001
0000
1000
0010
1000
0010
,
0100
0000
0001
0000
1000
0100
0000
0020
,
0000
0130
1000
0000
0001
0010
0001
0010
,
0100
0000
1000
0000
0001
0010
0000
0000
,
0002
1003
0020
0130
,
0000
0001
2000
3100
,
0000
0000
0010
0000
0002
0000
1003
0020
,
0000
0000
2030
0000
3001
0000
0010
0001
,
1000
0010
1000
0000
0002
0000
0013
0000
,
0000
0001
2000
3010
,
0000
0000
0100
0000
0002
0000
0103
0010
,
0000
1000
2002
3003
,
0002
1003
0200
0310
,
0000
0100
2000
3001
,
0000
0000
0100
0000
0010
0000
0000
1000
,
0000
0002
0000
1003
,
0010
1000
0001
0000
0010
0001
0010
0100
,
1000
0000
0001
0000
1000
0010
0000
2000
,
0000
3001
0100
0000
0001
1000
0100
0010
,
0001
0000
1000
0000
0001
0010
0000
0001
,
0000
0100
0000
0220
0000
0330
0000
0000
,
0010
0000
1000
0010
1000
0000
0001
0000
,
0000
0010
0000
0000
0001
0000
1000
0100
,
1000
0001
0010
0100
,
0000
2200
0000
3300
0100
0000
0010
0001
,
0010
0100
1000
0001
,
0000
0100
0000
0000
0010
0000
1000
0001
,
0100
0000
0010
0100
0001
0000
1000
0000
,
0000
1001
0000
0000
0000
0000
0000
0000
;

//---------------dance-single - Medium----------------
#NOTES:
     dance-single:
     Ace Of Hearts (2009):
     Medium:
     5:
     0.387,0.000,0.016,0.332,0.008: // measure 1
0000
0000
0000
0000
,  // measure 2
0000
0000
0000
0000
,  // measure 3
0000
0000
0000
0000
,  // measure 4
0000
0000
0000
0000
,  // measure 5
1000
0001
1000
0000
,  // measure 6
0010
1000
0000
0001
,  // measure 7
0010
0001
1000
0010
,  // measure 8
2000
0000
3000
0001
,  // measure 9
0010
0000
0001
0000
0000
0000
0000
1000
,  // measure 10
0000
0010
0000
1000
0000
0000
0001
0000
,  // measure 11
1000
0000
0010
0000
0000
1000
0000
0002
,  // measure 12
0000
0000
0013
0000
0000
0010
0000
0000
,  // measure 13
0000
0000
0001
0000
1000
0000
0000
0010
,  // measure 14
0000
1000
0000
0010
0000
0000
1000
0000
,  // measure 15
0001
0000
0100
0000
0010
0000
0000
0200
,  // measure 16
0000
0000
0300
0000
,  // measure 17
0000
0000
0001
0000
1000
0000
0000
0100
,  // measure 18
0000
0010
0000
0001
0000
0000
1000
0000
,  // measure 19
0010
0000
1000
0000
0001
0000
0000
0200
,  // measure 20
0000
0000
0310
0000
0000
0010
0000
0000
,  // measure 21
0000
0000
1000
0000
0001
0000
0000
0010
,  // measure 22
0000
0001
0000
1000
0000
0000
0010
0000
,  // measure 23
1000
0000
0001
0000
0100
0000
0000
0020
,  // measure 24
0000
0000
0030
1000
,  // measure 25
0002
0000
0000
0000
,  // measure 26
0000
0000
0003
0010
,  // measure 27
0001
0000
0000
1000
0000
0010
0000
0100
,  // measure 28
0000
0010
0000
1000
0000
0000
0001
0000
,  // measure 29
0010
0000
0001
0000
1000
0000
0000
0001
,  // measure 30
0000
1000
0000
0010
0000
0000
1000
0000
,  // measure 31
0001
0000
0000
0100
0000
0000
0001
0000
,  // measure 32
1000
0200
0000
0000
,  // measure 33
0000
0310
0000
0001
0000
0010
0000
0001
,  // measure 34
0000
2000
0000
0000
3001
0000
0100
0000
,  // measure 35
0002
1003
0000
0010
,  // measure 36
2000
3001
0000
0010
,  // measure 37
0200
0000
0000
1300
0000
0000
0001
0000
,  // measure 38
0100
0000
0010
1000
,  // measure 39
0002
0013
0000
0001
,  // measure 40
2000
3010
0000
0100
,  // measure 41
0020
0000
0000
1030
0000
0000
0001
0000
,  // measure 42
0100
0000
0010
0100
,  // measure 43
0002
1003
0000
0100
,  // measure 44
0020
0031
0000
1000
,  // measure 45
0010
0000
0000
1000
0000
0000
0002
0000
,  // measure 46
0000
1003
0010
0000
,  // measure 47
1000
0001
0100
0010
,  // measure 48
1000
0000
0000
0200
0000
0300
0010
0000
,  // measure 49
0001
1000
0001
0100
,  // measure 50
0001
0000
0000
1000
0000
0010
0000
0200
,  // measure 51
0000
0300
0001
0000
,  // measure 52
1000
0010
0000
1000
,  // measure 53
0001
0010
0001
1000
,  // measure 54
0010
0000
1000
0000
0000
1001
0000
0000
,  // measure 55
0001
0100
0010
0000
,  // measure 56
1000
0001
0010
0100
,  // measure 57
1000
0001
0100
0010
,  // measure 58
0200
0000
0300
0001
,  // measure 59
1000
0000
0100
0000
0000
0000
0000
0010
,  // measure 60
0000
0100
0000
1000
0000
0000
0001
0000
,  // measure 61
0100
0000
0001
0000
1000
0000
0000
0002
,  // measure 62
0000
0000
1003
0000
0000
0010
0000
0000
,  // measure 63
0000
0000
1000
0000
0001
0000
0000
0010
,  // measure 64
0000
0001
0000
1000
0000
0000
0000
0000
,  // measure 65
0010
0000
1000
0000
0001
0000
0000
0200
,  // measure 66
0000
0000
0000
0300
0000
0000
0000
0000
0000
0000
0000
0000
0001
0000
0000
0000
,  // measure 67
1000
0000
0000
0001
0000
0010
0000
0001
,  // measure 68
0000
1000
0010
0100
,  // measure 69
0001
0000
0000
2000
0000
0000
3100
0000
,  // measure 70
0000
0010
0000
0000
0000
0000
0001
0000
,  // measure 71
1000
0000
0000
0010
0000
1000
0000
0001
,  // measure 72
0000
0010
0100
1000
,  // measure 73
0001
0000
0000
2000
0000
0000
0000
0000
,  // measure 74
3000
0001
0020
0000
,  // measure 75
0000
0000
0000
0000
,  // measure 76
0030
0000
0001
0000
1000
0000
0000
0010
,  // measure 77
0000
1000
0000
0001
0000
0010
0000
0100
,  // measure 78
0000
0010
0001
1000
,  // measure 79
0001
0000
0000
1000
0000
0010
0000
0100
,  // measure 80
0000
0000
0010
0000
2000
0000
0000
3002
,  // measure 81
0000
0013
0001
2000
,  // measure 82
0000
0000
0000
0000
0000
3001
0000
1000
,  // measure 83
0000
0010
0000
1000
0000
0002
0000
0000
,  // measure 84
1003
0010
2000
3001
,  // measure 85
0000
0010
0200
1300
,  // measure 86
0000
0000
0100
0000
0020
0000
0000
0031
,  // measure 87
0000
1000
0010
0000
,  // measure 88
1000
0001
0200
0310
,  // measure 89
0000
0100
0002
1003
,  // measure 90
0000
0000
0100
0000
0020
0000
0000
0031
,  // measure 91
0000
1000
0100
0000
,  // measure 92
1000
0001
0200
0310
,  // measure 93
0000
0100
0020
1030
,  // measure 94
0000
0000
0001
0000
1000
0000
0000
0010
,  // measure 95
0000
0200
0000
0301
,  // measure 96
1000
0000
0001
0010
,  // measure 97
0001
0000
1000
0000
0010
0000
0000
0200
,  // measure 98
0000
0301
0100
0010
,  // measure 99
1000
0000
0001
0000
0010
0000
0000
0001
,  // measure 100
0000
1000
0000
0020
0000
0000
0030
0000
,  // measure 101
1000
0000
0001
0010
,  // measure 102
0001
1000
0010
0000
,  // measure 103
0100
0000
0010
1000
,  // measure 104
0001
0000
0010
0000
,  // measure 105
0001
0000
1000
0010
,  // measure 106
1000
0001
0100
0000
,  // measure 107
0010
0000
1000
0001
,  // measure 108
0010
0000
0001
0000
,  // measure 109
0100
0000
0010
1000
,  // measure 110
0001
0010
0100
0000
,  // measure 111
0010
0000
0001
1000
,  // measure 112
0001
0000
0100
0000
,  // measure 113
0010
0000
1000
0001
,  // measure 114
0010
0001
1000
0000
,  // measure 115
0010
0000
0100
0001
,  // measure 116
2000
0000
3100
0000
0020
0031
0000
1000
,  // measure 117
0002
0000
1003
0000
0000
0000
0010
0000
0100
0000
0000
0100
0000
0000
0100
0000
,  // measure 118
0001
0000
0000
0001
0000
0000
0001
0000
2000
0000
3100
0000
0000
0000
0010
0000
,  // measure 119
0002
0000
0013
0000
0000
0000
0100
0000
1000
0000
0000
1000
0000
0000
1000
0000
,  // measure 120
0001
0000
2000
3010
0200
0000
0301
0000
,  // measure 121
0000
1000
0020
0130
,  // measure 122
0000
0000
0001
0000
1000
0000
0000
0001
,  // measure 123
0000
2000
0000
3010
,  // measure 124
0100
0000
0001
0100
,  // measure 125
0010
0000
0100
0000
0001
0000
0000
2000
,  // measure 126
0000
3010
1000
0001
,  // measure 127
0010
0001
1000
0000
,  // measure 128
0010
0100
0002
1003
,  // measure 129
0000
0100
0020
0031
,  // measure 130
0000
0000
1000
0000
0020
0000
0000
0130
,  // measure 131
0000
0010
2000
0000
,  // measure 132
3001
0100
0020
1030
,  // measure 133
0000
0001
0020
0130
,  // measure 134
0000
0000
0010
0000
0001
0000
0000
1000
,  // measure 135
0000
0010
0200
0300
,  // measure 136
0001
0100
0020
1030
,  // measure 137
0000
0001
0020
0130
,  // measure 138
0000
0000
1000
0000
0001
0000
0000
0100
,  // measure 139
0000
0020
0030
1000
,  // measure 140
0100
0000
0010
0100
,  // measure 141
1000
0000
0001
0000
1000
0000
0000
0020
,  // measure 142
0000
1030
0001
0010
,  // measure 143
0100
0000
0010
0000
0001
0000
0000
0100
,  // measure 144
0000
0010
0000
0220
0000
0000
0330
0000
,  // measure 145
0010
0000
0100
0001
,  // measure 146
0000
1000
0010
1000
,  // measure 147
0001
0010
0001
1000
,  // measure 148
0000
1000
0000
0000
0010
0000
0100
0000
,  // measure 149
0001
0000
1000
0100
,  // measure 150
0000
0010
0100
1000
,  // measure 151
0001
0100
0010
1000
,  // measure 152
0000
1001
0000
0000
0000
0000
0000
0000
;

//---------------dance-single - Easy----------------
#NOTES:
     dance-single:
     Ace Of Hearts (2009):
     Easy:
     3:
     0.226,0.000,0.011,0.147,0.000: // measure 1
0000
0000
0000
0000
,  // measure 2
0000
0000
0000
0000
,  // measure 3
0000
0000
0000
0000
,  // measure 4
0000
0000
0000
0000
,  // measure 5
0001
0001
0001
0000
,  // measure 6
0001
0000
0001
0000
,  // measure 7
1000
1000
1000
0000
,  // measure 8
0200
0000
0300
0000
,  // measure 9
0010
0000
0000
0000
,  // measure 10
0001
0001
0001
0000
,  // measure 11
1000
0000
1000
0000
,  // measure 12
2000
3000
0000
0000
,  // measure 13
0000
0000
0010
0000
,  // measure 14
0010
0000
0010
0000
,  // measure 15
0100
0100
0100
0000
,  // measure 16
0002
0000
0003
0000
,  // measure 17
0000
0000
1000
0000
,  // measure 18
1000
0000
1000
0000
,  // measure 19
0010
0010
0010
0000
,  // measure 20
0200
0300
0000
0000
,  // measure 21
0000
0000
0001
0000
,  // measure 22
0001
0000
0001
0000
,  // measure 23
1000
0000
1000
0000
,  // measure 24
2000
0000
3000
0000
,  // measure 25
2002
0000
0000
0000
,  // measure 26
0000
0000
3003
0000
,  // measure 27
0001
0000
0001
0000
,  // measure 28
0010
0010
0010
0000
,  // measure 29
0001
0000
0001
0000
,  // measure 30
1000
0000
1000
0000
,  // measure 31
0100
0100
0100
0000
,  // measure 32
0020
0000
0000
0000
,  // measure 33
0030
0000
0000
0000
,  // measure 34
0000
0000
1000
1000
,  // measure 35
1000
0000
0000
0010
,  // measure 36
0010
0010
0000
1000
,  // measure 37
1000
0000
1000
0000
,  // measure 38
0001
0000
0001
0001
,  // measure 39
0001
0001
0000
0010
,  // measure 40
0010
0010
0000
0000
,  // measure 41
0001
0000
0001
0000
,  // measure 42
0001
0000
1000
1000
,  // measure 43
1000
0000
0000
0010
,  // measure 44
0010
0010
0000
1000
,  // measure 45
2000
0000
0000
3000
,  // measure 46
0000
0000
0001
0000
,  // measure 47
0004
0000
0000
0000
,  // measure 48
0003
0000
0000
0000
,  // measure 49
4000
0000
0000
0000
,  // measure 50
3000
0000
0000
0010
0000
0000
0000
0020
,  // measure 51
0000
0030
0000
0000
,  // measure 52
1000
0000
1000
0000
,  // measure 53
0001
0001
0001
0000
,  // measure 54
2000
3000
0000
0000
,  // measure 55
0010
0010
0010
0000
,  // measure 56
1000
0000
1000
0000
,  // measure 57
0001
0001
0001
0000
,  // measure 58
0020
0000
0030
0000
,  // measure 59
0001
0000
0000
0000
,  // measure 60
1000
1000
1000
0000
,  // measure 61
0010
0000
0010
0000
,  // measure 62
0200
0000
0300
0000
,  // measure 63
0000
0000
0001
0000
,  // measure 64
1000
1000
1000
0000
,  // measure 65
0010
0000
0000
0000
0010
0000
0000
0020
,  // measure 66
0000
0000
0000
0030
0000
0000
0000
0000
0000
0000
0000
0000
0000
0000
0000
0000
,  // measure 67
1000
0000
0001
0001
,  // measure 68
0001
0000
0010
0000
,  // measure 69
0010
0000
0020
0030
,  // measure 70
0000
0000
0000
0000
,  // measure 71
0100
0000
1000
1000
,  // measure 72
1000
0000
0010
0000
,  // measure 73
0010
0000
0020
0000
,  // measure 74
0030
0000
0220
0000
,  // measure 75
0000
0000
0000
0000
,  // measure 76
0330
0000
0100
0000
,  // measure 77
0100
0000
0001
0001
,  // measure 78
0001
0000
1000
1000
,  // measure 79
1000
0000
0010
0000
,  // measure 80
0010
0000
1000
0000
,  // measure 81
1000
0000
0002
0000
,  // measure 82
0000
0000
0003
0000
,  // measure 83
0000
0000
0000
0000
,  // measure 84
0000
1000
1000
1000
,  // measure 85
0000
0010
0010
0010
,  // measure 86
0000
0000
0100
0000
,  // measure 87
0100
0000
0100
0000
,  // measure 88
0010
0010
0010
0010
,  // measure 89
0000
1000
1000
1000
,  // measure 90
0000
0000
0001
0000
,  // measure 91
0001
0000
0002
0000
,  // measure 92
1003
1000
1000
0000
,  // measure 93
0000
0010
0010
0010
,  // measure 94
0000
1000
2000
0000
,  // measure 95
0000
3000
0000
0000
,  // measure 96
0010
0000
0040
0000
,  // measure 97
0000
0000
0030
0000
,  // measure 98
0000
0000
0400
0000
,  // measure 99
0000
0000
0000
0000
0300
0000
0000
0001
,  // measure 100
0000
0000
0000
0002
0000
0000
0000
0000
,  // measure 101
0003
0000
1000
0000
,  // measure 102
1000
0000
0001
0000
,  // measure 103
0001
0000
0002
0000
,  // measure 104
0003
0000
0100
0000
,  // measure 105
0100
0000
0010
0000
,  // measure 106
0010
0000
1000
0000
,  // measure 107
1000
0000
0020
0000
,  // measure 108
0030
0000
1000
0000
,  // measure 109
1000
0000
0001
0000
,  // measure 110
0001
0000
0010
0000
,  // measure 111
0010
0000
0200
0000
,  // measure 112
0300
0000
0010
0000
,  // measure 113
0010
0000
0001
0000
,  // measure 114
0001
0000
1000
0000
,  // measure 115
1000
0000
0010
0000
,  // measure 116
0100
0000
0100
0000
0100
0000
0000
0001
,  // measure 117
0001
0001
0000
0000
1000
0000
1000
0000
,  // measure 118
1000
0000
0000
0000
0010
0000
0000
0010
,  // measure 119
0010
0010
0000
0000
1000
0000
1000
0000
,  // measure 120
1000
0000
0010
0010
,  // measure 121
0000
0100
0100
0100
,  // measure 122
0000
0001
0002
0000
,  // measure 123
0000
0003
0000
0000
,  // measure 124
1000
0000
4000
0000
,  // measure 125
0000
0000
3000
0000
,  // measure 126
0000
0000
0400
0000
,  // measure 127
0000
0000
0300
0000
,  // measure 128
0000
0010
0010
0010
,  // measure 129
0000
0001
0001
0001
,  // measure 130
0000
0000
1000
0000
,  // measure 131
1000
0000
0010
0000
,  // measure 132
0010
0000
0100
0100
,  // measure 133
0000
0001
0001
0001
,  // measure 134
0000
0000
1000
0000
,  // measure 135
0001
0000
0001
0000
,  // measure 136
0100
0100
0100
0100
,  // measure 137
0000
0010
0010
0010
,  // measure 138
0000
1000
2000
0000
,  // measure 139
0000
3000
0000
0000
,  // measure 140
0001
0000
0004
0000
,  // measure 141
0000
0000
0003
0000
,  // measure 142
0000
0000
0040
0000
,  // measure 143
0000
0000
0000
0000
0030
0000
0000
0001
,  // measure 144
0000
0001
0000
0002
0000
0000
0000
0000
,  // measure 145
0003
0000
1000
0000
,  // measure 146
1000
0000
0010
0000
,  // measure 147
0010
0000
0000
1000
,  // measure 148
0000
1000
0000
0000
1000
0000
0000
0000
,  // measure 149
0000
0000
0001
0000
,  // measure 150
0001
0000
0100
0000
,  // measure 151
0100
0000
0000
0010
,  // measure 152
0000
0010
0000
0000
0000
0000
0000
0000
;

//---------------dance-single - Novice----------------
#NOTES:
     dance-single:
     Ace Of Hearts (2009):
     Beginner:
     1:
     0.150,0.000,0.016,0.174,0.000: // measure 1
0000
0000
0000
0000
,  // measure 2
0000
0000
0000
0000
,  // measure 3
0000
0000
0000
0000
,  // measure 4
0000
0000
0000
0000
,  // measure 5
0001
0000
0001
0000
,  // measure 6
0001
0000
0000
0000
,  // measure 7
1000
0000
1000
0000
,  // measure 8
2000
0000
3000
0000
,  // measure 9
0010
0000
0000
0000
,  // measure 10
0010
0000
0010
0000
,  // measure 11
0010
0000
0000
0000
,  // measure 12
0100
0000
0000
0000
,  // measure 13
0001
0000
0000
0000
,  // measure 14
0001
0000
0000
0000
,  // measure 15
0002
0000
0000
0000
,  // measure 16
0003
0000
0000
0000
,  // measure 17
1000
0000
0000
0000
,  // measure 18
0001
0000
0001
0000
,  // measure 19
0001
0000
0000
0000
,  // measure 20
0200
0000
0300
0000
,  // measure 21
0010
0000
0000
0000
,  // measure 22
0010
0000
0000
0000
,  // measure 23
0100
0000
0000
0000
,  // measure 24
0200
0000
0300
0000
,  // measure 25
0020
0000
0000
0000
,  // measure 26
0000
0000
0030
0000
,  // measure 27
1000
0000
1000
0000
,  // measure 28
1000
0000
0000
0000
,  // measure 29
0001
0000
0000
0000
,  // measure 30
0001
0000
0000
0000
,  // measure 31
0100
0000
0000
0000
,  // measure 32
0200
0000
0000
0000
,  // measure 33
0300
0000
0000
0000
,  // measure 34
0000
0000
0000
0000
,  // measure 35
0010
0000
0000
0000
,  // measure 36
0010
0000
0000
0000
,  // measure 37
1000
0000
1000
0000
,  // measure 38
1000
0000
0000
0000
,  // measure 39
0001
0000
0000
0000
,  // measure 40
0001
0000
0000
0000
,  // measure 41
0010
0000
0010
0000
,  // measure 42
0010
0000
0000
0000
,  // measure 43
0001
0000
0000
0000
,  // measure 44
0001
0000
0000
0000
,  // measure 45
1000
0000
1000
0000
,  // measure 46
1000
0000
0000
0000
,  // measure 47
0020
0000
0000
0000
,  // measure 48
0030
0000
0000
0000
,  // measure 49
2000
0000
0000
0000
,  // measure 50
3000
0000
0000
0000
,  // measure 51
1001
0000
0000
0000
,  // measure 52
0001
0000
0000
0000
,  // measure 53
0100
0000
0000
0000
,  // measure 54
0200
0000
0300
0000
,  // measure 55
0010
0000
0000
0000
,  // measure 56
0010
0000
0000
0000
,  // measure 57
1000
0000
0000
0000
,  // measure 58
1000
0000
0000
0000
,  // measure 59
0001
0000
0000
0000
,  // measure 60
0100
0000
0100
0000
,  // measure 61
0200
0000
0000
0000
,  // measure 62
0300
0000
0000
0000
,  // measure 63
0001
0000
0000
0000
,  // measure 64
0001
0000
0000
0000
,  // measure 65
0002
0000
0000
0000
0000
0000
0000
0003
,  // measure 66
0000
0000
0000
0000
,  // measure 67
0000
0000
1000
0000
,  // measure 68
1000
0000
2000
0000
,  // measure 69
0000
0000
3000
0000
,  // measure 70
0000
0000
0010
0000
,  // measure 71
0000
0000
0010
0000
,  // measure 72
0000
0000
0100
0000
,  // measure 73
0000
0000
0200
0000
,  // measure 74
0300
0000
0002
0000
,  // measure 75
0000
0000
0000
0000
,  // measure 76
0003
0000
1000
0000
,  // measure 77
1000
0000
1000
0000
,  // measure 78
0000
0000
0001
0000
,  // measure 79
0001
0000
0001
0000
,  // measure 80
0000
0000
0010
0000
,  // measure 81
0010
0000
0020
0000
,  // measure 82
0000
0000
0030
0000
,  // measure 83
0000
0000
0000
0000
,  // measure 84
0000
0000
0001
0000
,  // measure 85
0000
0000
0001
0000
,  // measure 86
0000
0000
1000
0000
,  // measure 87
1000
0000
1000
0000
,  // measure 88
0000
0000
0010
0000
,  // measure 89
0000
0000
0010
0000
,  // measure 90
0000
0000
0100
0000
,  // measure 91
0100
0000
0100
0000
,  // measure 92
0000
0000
0010
0000
,  // measure 93
0000
0000
0010
0000
,  // measure 94
0000
0000
1000
0000
,  // measure 95
1000
0000
1000
0000
,  // measure 96
0000
0000
0020
0000
,  // measure 97
0000
0000
0030
0000
,  // measure 98
0000
0000
0200
0000
,  // measure 99
0000
0000
0300
0000
,  // measure 100
0000
0000
0001
0000
,  // measure 101
0001
0000
0002
0000
,  // measure 102
0003
0000
1000
0000
,  // measure 103
1000
0000
2000
0000
,  // measure 104
3000
0000
0010
0000
,  // measure 105
0010
0000
0020
0000
,  // measure 106
0030
0000
0100
0000
,  // measure 107
0100
0000
0200
0000
,  // measure 108
0300
0000
0001
0000
,  // measure 109
0001
0000
0002
0000
,  // measure 110
0003
0000
1000
0000
,  // measure 111
1000
0000
2000
0000
,  // measure 112
3000
0000
0010
0000
,  // measure 113
0010
0000
0020
0000
,  // measure 114
0030
0000
0100
0000
,  // measure 115
0100
0000
0200
0000
,  // measure 116
0300
0000
0001
0000
,  // measure 117
0001
0000
1000
1000
,  // measure 118
1000
0000
0010
0000
,  // measure 119
0010
0000
0100
0100
,  // measure 120
0100
0000
0001
0000
,  // measure 121
0000
0000
0001
0000
,  // measure 122
0000
0000
0100
0000
,  // measure 123
0100
0000
0100
0000
,  // measure 124
0000
0000
0020
0000
,  // measure 125
0000
0000
0030
0000
,  // measure 126
0000
0000
2000
0000
,  // measure 127
0000
0000
3000
0000
,  // measure 128
0000
0000
0001
0000
,  // measure 129
0000
0000
0001
0000
,  // measure 130
0000
0000
0100
0000
,  // measure 131
0100
0000
0100
0000
,  // measure 132
0000
0000
0001
0000
,  // measure 133
0000
0000
0001
0000
,  // measure 134
0000
0000
1000
0000
,  // measure 135
1000
0000
1000
0000
,  // measure 136
0000
0000
0100
0000
,  // measure 137
0000
0000
0100
0000
,  // measure 138
0000
0000
0010
0000
,  // measure 139
0010
0000
0010
0000
,  // measure 140
0000
0000
0220
0000
,  // measure 141
0000
0000
0330
0000
,  // measure 142
0000
0000
2002
0000
,  // measure 143
0000
0000
3003
0000
,  // measure 144
0000
0000
1000
0000
,  // measure 145
1000
0000
1000
0000
,  // measure 146
0000
0000
0020
0000
,  // measure 147
0000
0000
0030
0000
,  // measure 148
0000
0000
0100
0000
,  // measure 149
0100
0000
0100
0000
,  // measure 150
0000
0000
0002
0000
,  // measure 151
0000
0000
0003
0000
;
