#TITLE:Motteke! Sailor Fuku;
#SUBTITLE:-Metabo Taisaku Mix-;
#ARTIST:Lucky Star Cast;
#TITLETRANSLIT:;
#SUBTITLETRANSLIT:;
#ARTISTTRANSLIT:;
#GENRE:;
#CREDIT:;
#BANNER:Motteke! Sailor Fuku -Metabo Taisaku Mix- bn.png;
#BACKGROUND:Motteke! Sailor Fuku -Metabo Taisaku Mix- bg.jpg;
#LYRICSPATH:;
#CDTITLE:Ace Of Hearts.png;
#MUSIC:Motteke! Sailor Fuku -Metabo Tasiaku Mix-.ogg;
#OFFSET:0.990;
#SAMPLESTART:45.580;
#SAMPLELENGTH:15.000;
#SELECTABLE:YES;
#BPMS:0.000=175.030;
#STOPS:;
#BGCHANGES:;
#FGCHANGES:;
#KEYSOUNDS:;

//---------------dance-single - Expert----------------
#NOTES:
     dance-single:
     Ace Of Hearts (2010):
     Challenge:
     13:
     1.000,1.000,1.000,1.000,1.000: // measure 1
0000
0000
0000
0000
,  // measure 2
0102
0000
0000
0000
2003
0000
0000
3001
0200
0000
0310
0000
0000
0000
0100
0001
,  // measure 3
1000
0100
0000
1000
0001
0100
0010
0000
0000
0000
1001
0000
0000
0000
1000
0000
,  // measure 4
1020
0000
0000
0000
0230
0000
0000
0301
2000
0000
0000
3010
0000
0000
0100
0000
,  // measure 5
0001
1000
0000
1000
0010
0100
0001
0000
0000
0000
0011
0000
0000
0000
0001
0000
,  // measure 6
0101
0200
0310
1000
1100
0200
0310
0001
,  // measure 7
2001
0000
3010
0000
0100
0000
0001
0000
1000
0020
0000
0000
0130
0000
0001
0000
,  // measure 8
0010
0000
0000
0000
0210
0000
1300
0000
0001
0000
0000
0000
0201
0000
0310
1000
,  // measure 9
0001
0010
0001
1000
0010
0000
0100
0000
0001
0000
1000
0000
0020
0000
0000
0000
,  // measure 10
2030
0000
3001
0010
0001
1000
0010
0100
0002
0000
0000
0000
0000
0000
1003
0100
,  // measure 11
0010
0001
1000
0001
0100
0010
1000
0001
0200
0000
0040
0000
0300
0000
1030
0001
,  // measure 12
0010
0100
1000
0001
0100
0001
1000
0100
0020
0000
0000
0000
0000
0000
0130
1000
,  // measure 13
2002
0000
3003
0202
0000
0303
0220
0000
0330
2020
0000
3030
2002
3003
0202
0303
,  // measure 14
2001
0000
3010
1000
0001
0000
0010
0000
0001
0100
0010
0000
1000
0000
0001
0010
,  // measure 15
0100
0000
0010
0001
1000
0000
0010
1000
0100
0010
0000
0100
1000
0000
0001
0000
,  // measure 16
0100
0010
1000
0000
0100
0000
0010
0000
0001
1000
0010
0000
1000
0000
0001
0000
,  // measure 17
0010
0000
0001
0000
1000
0010
0000
1000
0100
0010
0002
0000
0003
0000
1000
0000
,  // measure 18
0010
0000
0100
0000
0001
0000
0010
0001
1000
0010
0000
1000
0100
0010
0000
0100
,  // measure 19
1000
0001
0000
0100
0000
0010
1000
0001
0010
0000
0001
0000
1000
0000
0010
0000
,  // measure 20
0100
0001
1000
0000
0010
0000
0100
0001
1000
0000
0100
0000
0010
0000
0001
1000
,  // measure 21
0010
0000
0100
0001
1000
0000
0100
0010
0001
1000
0001
1000
0002
0000
0000
0000
,  // measure 22
0203
0000
0310
1000
0001
0010
0001
1000
0020
0000
0000
0000
0000
0000
0130
0001
,  // measure 23
1000
0100
0010
0001
1000
0001
0100
0001
2000
0000
0040
0000
3000
0000
0130
0001
,  // measure 24
1000
0100
0010
0001
0100
0001
1000
0010
0200
0000
0000
0000
0000
0000
0301
1000
,  // measure 25
2200
0000
3300
2002
0000
3003
0202
0000
0303
0220
0000
0330
2020
3030
2002
3003
,  // measure 26
0021
0000
0130
1000
0001
0000
0100
0000
0010
0000
1000
0001
0000
0001
0100
0000
,  // measure 27
0010
0000
1000
0001
0010
0000
0001
0000
0100
0000
0010
1000
0000
1000
0100
0000
,  // measure 28
0010
0000
0100
1000
0001
0000
0100
0000
0010
0000
1000
0001
0000
0001
0010
0000
,  // measure 29
0001
0000
1000
0010
0100
0000
0001
0000
1000
0000
0010
0100
0000
0200
0002
0000
,  // measure 30
0000
0000
1000
0000
0303
0000
0000
0000
1001
0000
1000
0100
0000
0000
0110
0000
,  // measure 31
0000
0000
0010
0001
1000
0000
0010
0000
0100
0000
0001
1000
0000
1000
0100
0000
,  // measure 32
0010
0000
0100
0000
1000
0000
0001
0100
0010
0000
1000
0000
0001
0000
0010
0000
,  // measure 33
0001
1000
0010
1000
0100
0010
0001
1000
0010
0100
0001
1000
0010
1000
0001
0010
,  // measure 34
0100
0000
1000
0000
0100
0000
1000
0000
0000
0001
0000
0000
0100
0000
0000
0010
0000
0000
1000
0000
0001
0000
1000
0000
0001
0000
0000
0100
0000
0000
0010
0000
0000
1000
0000
0000
0002
0000
0000
0000
0000
0000
0000
0000
0000
0000
0000
0000
,  // measure 35
1003
0010
1000
0001
0010
0001
0100
0010
2000
0000
0000
0000
3001
0010
0001
1000
,  // measure 36
0010
0100
0001
1000
0100
0010
0100
1000
0002
0000
0000
0000
0103
0010
1000
0001
,  // measure 37
0010
0100
0010
0001
1000
0001
0100
0010
0100
0001
1000
0000
0100
0000
0120
0000
,  // measure 38
0000
0000
0031
1000
0100
1000
0001
0100
0010
1000
0001
0010
0200
0000
1300
0000
,  // measure 39
1002
0103
0010
2010
3002
0013
0001
2001
,  // measure 40
3010
0100
0001
2000
3100
0020
0130
1000
,  // measure 41
1002
0000
0103
0000
0010
0000
2000
0000
3001
0000
0010
0001
1000
0010
1000
0001
,  // measure 42
0010
0100
1000
0001
0100
0010
1000
0001
0020
0000
0400
0000
0000
0000
0330
0000
,  // measure 43
2100
0000
3001
0100
0010
0100
0001
1000
0200
0000
0000
0000
0310
0100
1000
0001
,  // measure 44
0100
0010
1000
0001
0010
0001
1000
0010
0200
0000
0000
0000
0301
1000
0010
1000
,  // measure 45
0001
0010
0100
1000
0001
0100
0010
1000
0002
0000
0000
0000
0103
0000
0120
0000
,  // measure 46
0000
0000
0000
0000
0000
0000
2030
0000
0000
0000
0000
0000
0000
0000
0000
0000
0000
0000
3001
0000
0100
0000
0001
0000
0100
0000
0000
0010
0000
0000
1000
0000
0000
0001
0000
0000
0100
0000
0000
0000
0000
0000
0220
0000
0000
0000
0000
0000
,  // measure 47
0000
0330
0010
2020
3030
2002
3003
0022
,  // measure 48
0033
0220
0330
2200
3300
0022
0033
0000
,  // measure 49
0002
0000
0000
0000
0103
0000
0020
0000
0000
0000
0000
0000
0000
0000
1030
0001
,  // measure 50
1000
0100
1000
0001
0100
0010
0100
0001
1000
0100
0010
0001
1000
0010
0100
0001
,  // measure 51
2001
0000
0000
0000
3020
0000
0000
0000
2030
0000
3001
0000
0000
0000
0001
0100
,  // measure 52
0010
0100
0001
1000
0100
0010
0001
0000
0000
0000
0101
0000
0000
0000
0100
0000
,  // measure 53
0020
1030
2001
3001
0200
0310
1020
1030
,  // measure 54
1200
0310
0001
1000
0200
0000
0300
0000
,  // measure 55
2000
0000
3001
0100
0010
1000
0001
0010
0200
0000
0000
0000
0000
0000
0310
0001
,  // measure 56
1000
0001
0100
0010
1000
0001
0010
0001
2000
0000
0004
0000
3000
0000
0103
0001
,  // measure 57
1000
0010
0100
0001
1000
0010
1000
0100
0020
0000
0000
0000
0000
0000
0031
1000
,  // measure 58
2020
0000
3030
0202
0000
0303
2002
0000
3003
2200
0000
3300
0220
0330
0022
0033
,  // measure 59
0001
1000
0010
0000
1000
0000
0100
0010
0001
1000
0100
0000
1000
0000
0001
0100
,  // measure 60
0010
0000
1000
0001
0100
0010
0100
0000
0001
1000
0000
1000
0010
0000
0100
0000
,  // measure 61
0001
0000
1000
0000
0100
0000
0010
0100
1000
0001
0100
0000
0010
0000
1000
0000
,  // measure 62
0100
0000
0010
0000
0001
1000
0000
1000
0010
0100
0002
0000
0003
0000
1000
0000
,  // measure 63
0010
0000
1000
0000
0001
0000
0010
0100
1000
0001
0010
0000
0001
0000
1000
0010
,  // measure 64
0100
0000
0001
1000
0100
0010
0000
0010
0100
0000
1000
0000
0001
0000
0000
0000
,  // measure 65
0100
0000
0010
1000
0001
0000
0010
0001
0100
0001
1000
0000
0100
0010
0000
0000
,  // measure 66
0100
1000
0001
0100
0000
0100
0001
1000
0010
0100
0010
0100
0020
0000
0000
0000
,  // measure 67
2030
0000
3100
0010
0001
1000
0001
0100
0002
0000
0000
0000
0000
0000
1003
0001
,  // measure 68
0100
0010
0100
0001
1000
0100
1000
0001
0020
0000
0400
0000
0030
0000
1300
0001
,  // measure 69
0010
0100
0010
0001
1000
0001
0100
0010
2000
0000
0000
0000
0000
0000
3100
0010
,  // measure 70
0022
0000
0033
2002
0000
3003
2200
0000
3300
2002
0000
3003
2020
3030
0202
0303
,  // measure 71
1001
0000
1000
0010
0100
0000
0001
0000
0010
0000
0001
1000
0000
1000
0010
0000
,  // measure 72
0100
0000
0001
1000
0100
0000
0010
0000
0100
0000
1000
0001
0000
0001
0100
0000
,  // measure 73
0010
0000
1000
0001
0010
0000
0001
0000
0100
0000
0010
1000
0000
1000
0001
0000
,  // measure 74
0010
0000
0001
1000
0010
0000
0100
0000
0001
0000
0010
0100
0000
0200
2000
0000
,  // measure 75
0000
0000
0001
0000
3300
0000
0000
0000
1001
0000
0001
0100
0000
0000
0110
0000
,  // measure 76
0000
0000
0010
1000
0001
0000
0010
0000
0001
0000
1000
0010
0000
0010
0100
0000
,  // measure 77
0001
1000
0000
1000
0010
0000
0100
0000
0001
0000
1000
0100
0010
0000
0001
0000
,  // measure 78
1000
0010
0100
0001
1000
0100
1000
0001
0100
0010
1000
0001
0010
0001
1000
0010
,  // measure 79
0100
0000
0001
0000
0100
0000
0001
0000
0000
1000
0000
0000
0010
0000
0000
1000
0000
0000
0001
0000
0010
0000
0001
0000
0010
0000
0000
0100
0000
0000
1000
0000
0000
0001
0000
0000
0200
0000
0000
0000
0000
0000
0000
0000
0000
0000
0000
0000
,  // measure 80
0310
1000
0001
0010
0100
1000
0001
0100
0020
0000
0000
0000
1030
0001
0010
0001
,  // measure 81
0100
0010
1000
0001
1000
0010
0100
0001
2000
0000
0000
0000
3100
0010
0001
0010
,  // measure 82
0100
1000
0001
0100
0010
1000
0001
0100
0010
1000
0001
0000
0100
0000
0120
0000
,  // measure 83
0000
0000
1030
0001
0010
0001
1000
0010
0100
0001
1000
0100
0010
0100
2100
0000
,  // measure 84
3001
0100
0010
2010
3001
0100
0010
0210
,  // measure 85
0301
1000
0100
0020
0130
1000
0001
1000
,  // measure 86
1020
0000
0130
0000
0001
0000
1000
0000
0100
0010
0100
1000
0001
0100
0010
1000
,  // measure 87
0010
0100
0001
1000
0100
0010
0100
1000
0002
0000
0400
0000
0000
0000
0303
0000
,  // measure 88
0210
0000
0310
1000
0001
0100
0010
1000
0200
0000
0000
0000
0310
0001
1000
0010
,  // measure 89
0100
0001
1000
0100
0010
0100
1000
0001
0100
0010
1000
0001
0010
0001
2000
0000
,  // measure 90
0000
0000
3010
1000
0100
0010
0001
1000
0010
0100
0010
1000
0001
0100
0002
0000
,  // measure 91
0000
0000
0000
0000
0000
0000
0023
0000
0000
0000
0000
0000
0031
0000
0000
0000
0000
0000
1000
0000
0010
0000
1000
0000
0010
0000
0000
0100
0000
0000
0001
0000
0000
1000
0000
0000
0100
0000
0000
0010
0000
0000
0022
0000
0000
0000
0000
0000
,  // measure 92
0000
0033
0001
2002
3003
0220
0330
2020
,  // measure 93
3030
0220
0330
0202
0303
2002
3003
0000
,  // measure 94
2000
0000
0000
0000
3010
0000
0200
0000
0000
0000
0000
0000
0000
0000
0301
1000
,  // measure 95
0100
0010
0100
1000
0001
0100
0010
1000
0001
0010
0001
1000
0010
0100
0001
1000
,  // measure 96
1200
0000
0000
0000
0320
0000
0000
0031
1000
0000
0200
0000
0300
0000
1000
0001
,  // measure 97
0201
0000
0000
0000
0320
0000
0000
1030
0001
0000
0200
0000
0300
0000
0001
1000
,  // measure 98
1020
0000
0000
0000
0230
0000
0000
0301
1000
0000
0200
0000
0300
0000
0010
0001
,  // measure 99
10M0
0000
M010
0000
001M
0000
1M00
0100
000M
0010
0M00
0001
10M0
0000
M001
0000
,  // measure 100
02M1
0000
0000
0000
0320
0000
0000
1030
0001
0000
0200
0000
0300
0000
0010
1000
,  // measure 101
1002
0000
0000
0000
0203
0000
0000
0310
1000
0000
0002
0000
0003
0000
0010
0100
,  // measure 102
2100
0000
0000
0000
3020
0000
0000
0130
0001
0000
2000
0000
3000
0000
0100
0010
,  // measure 103
M001
0000
10M0
0000
100M
0000
M010
0100
000M
0010
0M00
1000
00M1
0000
0M10
0000
,  // measure 104
021M
0000
0000
0000
2300
0000
0000
3001
0100
0000
0020
0000
0030
0000
1000
0001
,  // measure 105
0021
0000
0000
0000
0230
0000
0000
1300
0001
0000
0200
0000
0300
0000
0001
1000
,  // measure 106
1200
0000
0000
0000
0320
0000
0000
0031
1000
0000
0020
0000
0030
0000
0100
0010
,  // measure 107
2010
0000
0000
0000
3002
0000
0000
0000
10M3
0100
M000
0100
002M
0000
M130
0000
,  // measure 108
2100
0000
0000
0000
3002
0000
0000
0103
0010
0000
2000
0000
3000
0000
0001
0100
,  // measure 109
0120
0000
0000
0000
2030
0000
0000
3001
0010
0000
0200
0000
0300
0000
0010
0001
,  // measure 110
1000
0010
0100
0001
1000
0100
0010
0001
0100
0010
1000
0001
0010
0100
1000
0001
,  // measure 111
0100
0010
1000
0001
0100
0010
1000
0100
0010
0001
1000
0001
0010
0000
0000
0000
,  // measure 112
0110
0000
0100
0000
0200
0000
0000
0000
2300
0000
0000
3002
0000
0000
0013
0000
,  // measure 113
0000
0000
0200
0000
2000
0000
0000
0000
0001
0000
0000
0001
0000
0000
0010
0000
,  // measure 114
330M
0000
10M0
0000
0M02
0000
0000
0000
0203
0000
0000
0320
0000
0000
0230
0000
,  // measure 115
0000
0000
0302
0000
0200
0000
0000
0000
1000
0000
0000
1000
0000
0000
0010
0000
,  // measure 116
M303
0000
0M00
0000
00M0
0000
0000
0000
1001
0000
0000
0110
0000
0000
1001
0000
,  // measure 117
0000
0000
0002
0000
0013
0000
0000
0000
0200
0000
0000
1300
0000
0000
0001
0000
,  // measure 118
1000
0000
0001
0010
0100
0000
1000
0000
0100
0010
0100
1000
0001
0100
0010
0100
,  // measure 119
0001
1000
0100
0010
0001
1000
0010
1000
0001
0010
0100
0010
0001
1000
0010
0100
,  // measure 120
0001
2000
0000
3001
0200
0000
0301
2000
,  // measure 121
0000
3100
0010
0100
0020
0000
0031
2000
,  // measure 122
0000
3010
0100
0001
0010
0001
1000
0002
,  // measure 123
0000
0020
0000
0000
0003
0130
1000
0002
,  // measure 124
0000
0000
1003
0020
0000
0000
1030
0002
,  // measure 125
0000
2003
0000
3200
0000
0000
0320
0000
,  // measure 126
0230
0000
1300
0002
0000
0000
0000
0000
,  // measure 127
0000
0000
0003
0000
,  // measure 128
100M
0000
M010
0000
1M00
00M1
1M00
0000
001M
0000
10M0
0000
,  // measure 129
0M00
0000
M000
0000
00M1
M100
00M1
0000
1M00
0000
01M0
0000
,  // measure 130
002M
0000
0031
1000
0100
1000
0001
0100
0020
0000
0000
0000
0130
0001
1000
0100
,  // measure 131
0010
0001
1000
0010
0100
0001
1000
0100
2000
0000
0000
0000
3001
0100
0001
1000
,  // measure 132
0100
1000
0010
0100
0001
1000
0010
0100
0002
0000
0000
0000
1003
0000
0020
0000
,  // measure 133
0130
0000
0001
1000
0010
1000
0001
0010
0100
1000
0001
0100
0010
0000
2010
0000
,  // measure 134
3001
0010
0100
2100
3001
0100
0010
2010
,  // measure 135
3001
0010
0001
0201
0310
1000
0001
0010
,  // measure 136
0210
0000
1300
0000
0001
0000
0100
0000
0010
0000
1000
0001
0100
0010
0100
0001
,  // measure 137
1000
0100
1000
0001
0100
0010
1000
0001
0020
0000
0400
0000
0000
0000
0030
0000
,  // measure 138
2300
0000
3001
0100
0010
1000
0001
0010
0100
0010
0001
1000
0001
0100
0010
1000
,  // measure 139
0100
0010
0100
1000
0001
0100
0010
1000
0100
0010
0001
0100
0001
1000
0100
0010
,  // measure 140
0100
1000
0001
0100
0010
1000
0001
0010
0100
0010
0001
1000
0001
0100
0002
0000
,  // measure 141
0000
0000
0000
0020
0000
0000
0003
0000
0000
0031
1000
0001
1000
0000
0000
0010
0000
0000
0100
0000
0000
0202
0000
0000
,  // measure 142
0000
0303
0100
0220
0330
2020
3030
2002
,  // measure 143
3003
0000
0000
2200
0000
0000
3300
0000
0000
0100
0010
0100
0010
0000
0000
0001
0000
0000
1000
0000
0000
2020
0000
0000
,  // measure 144
0000
3030
0010
0220
0330
0202
0303
2002
,  // measure 145
3003
0000
0000
2020
0000
0000
3030
0000
0000
1000
0100
1000
0100
0000
0000
0010
0000
0000
0001
0000
0000
0202
0000
0000
,  // measure 146
0000
0000
0010
1000
0000
0010
0000
2010
,  // measure 147
0000
3020
0000
1030
0003
0000
0301
0000
,  // measure 148
0021
0000
0130
2000
0000
0000
0000
0000
,  // measure 149
3000
0000
0000
M011
0M00
M000
0110
000M
0000
11M0
000M
0000
1M01
0000
M2M1
0300
,  // measure 150
0120
0000
0000
0000
2030
0000
0000
3001
0100
0000
0020
0000
0030
0000
1000
0001
,  // measure 151
0010
0001
1000
0010
1000
0002
0020
0000
0000
0000
1000
0000
0033
0000
0001
0000
,  // measure 152
2001
0000
0000
0000
3020
0000
0000
0130
0002
0000
0000
0013
0000
0000
0001
1000
,  // measure 153
0010
0100
0010
1000
0001
2000
0020
0000
0000
0000
0001
0000
3030
0000
1000
0000
,  // measure 154
1001
0002
0013
0100
1100
2000
3001
0100
,  // measure 155
0010
0000
1000
0000
0001
0000
0100
0000
0010
1000
0000
1000
0001
0000
0100
0000
,  // measure 156
0010
0000
0000
0000
2010
0000
3001
0000
0010
0000
0000
0000
0120
0000
0031
1000
,  // measure 157
0010
1000
0001
0010
0100
0000
0010
0000
0001
0000
1000
0000
0020
0000
0000
0000
,  // measure 158
1030
0001
0010
0001
1000
0010
1000
0001
0010
0001
2000
0400
0000
0000
0000
0000
,  // measure 159
0000
0000
0000
0000
,  // measure 160
3000
0000
0000
0000
,  // measure 161
0000
0000
0000
0000
,  // measure 162
0300
0000
0000
0000
;

//---------------dance-single - Hard----------------
#NOTES:
     dance-single:
     Ace Of Hearts (2010):
     Hard:
     11:
     1.000,1.000,0.476,1.000,1.000:
0000
0000
0000
0000
,
0002
0000
0000
0000
0203
0000
0000
0301
2000
0000
3010
0000
0000
0000
1000
0001
,
1000
0001
0000
1000
0010
1000
0010
0000
0000
0000
0110
0000
0000
0000
0100
0000
,
0002
0000
0000
0000
2003
0000
0000
3010
0200
0000
0000
0310
0000
0000
1000
0000
,
0001
0010
0000
0010
0001
1000
0001
0000
0000
0000
1001
0000
0000
0000
1000
0000
,
0100
0020
0030
0100
1000
0002
0003
1000
,
0010
0000
1000
0000
0001
0000
0100
0000
0001
2000
0000
0000
3100
0000
1000
0000
,
0001
0000
0000
0000
0021
0000
0130
0000
1000
0000
0000
0000
1020
0000
0130
0010
,
1000
0001
1000
0100
0010
0000
0100
0000
2000
0000
3001
0000
0020
0000
0000
0000
,
0032
0000
1003
0010
1000
0000
0001
0000
0020
0000
0000
0000
0000
0000
0031
1000
,
0001
0000
1000
0100
0010
0100
1000
0000
0002
0000
0203
0000
0000
0000
0310
1000
,
0010
0000
1000
0001
0010
0001
1000
0000
0200
0000
0000
0000
0300
0000
0010
0001
,
2000
0000
0000
3020
0000
0000
0230
0000
0000
0302
0000
0000
2003
0000
3020
0000
,
0130
0000
0001
1000
0001
0000
0010
0000
0100
1000
0100
0000
0010
0000
0001
1000
,
0001
0000
0100
0001
0100
0000
0010
1000
0001
1000
0000
0001
0010
0000
0001
0000
,
1000
0100
1000
0000
0001
0000
1000
0000
0010
0100
0010
0000
1000
0000
0001
0000
,
0100
0000
0001
0000
1000
0100
0000
0010
0001
0010
0001
0000
0000
0000
0010
0000
,
0001
0000
1000
0000
0010
0000
1000
0001
1000
0001
0000
1000
0010
1000
0000
0001
,
0100
0001
0000
1000
0000
0100
0010
0100
0010
0000
0001
0000
1000
0000
0010
0000
,
1000
0001
1000
0000
0100
0000
0010
0001
0010
0000
0100
0000
1000
0000
0001
0100
,
0001
0000
1000
0100
1000
0000
0001
0010
0100
1000
0100
1000
0200
0000
0000
0000
,
0320
0000
0031
1000
0001
0000
0100
0000
0020
0000
0000
0000
0030
0000
1000
0010
,
1000
0000
0001
0010
0100
0010
0001
0000
2000
0000
3020
0000
0000
0000
1030
0001
,
1000
0000
0010
0100
0001
1000
0100
0000
0020
0000
0000
0000
0030
0000
0010
0001
,
0020
0000
0000
0230
0000
0000
2300
0000
0000
3002
0000
0000
0203
0000
0320
0000
,
1030
0000
0001
0000
0001
0000
0000
0000
0200
0000
0000
0320
0000
0030
1010
0000
,
0000
0000
1000
0000
1000
0000
0000
0000
0002
0000
0000
0023
0000
0030
0110
0000
,
0000
0000
0100
0000
0100
0000
0000
0000
2000
0000
0000
3002
0000
0003
0011
0000
,
0000
0000
0001
0000
0001
0000
0000
0000
2000
0000
0000
3020
0000
0000
0130
0000
,
0000
0000
1001
0000
0000
0000
0000
0000
0002
0000
0000
0203
0000
0300
0110
0000
,
0000
0000
0010
0000
0010
0000
0000
0000
2000
0000
0000
3002
0000
0003
0101
0000
,
0100
0000
0010
0000
1000
0000
0001
0010
0001
0000
1000
0000
0100
0000
0010
0000
,
0001
1000
0001
1000
0010
1000
0010
1000
0001
1000
0001
1000
0004
0040
0000
0000
,
0000
0000
0000
0000
0000
0000
0000
0000
0000
0000
0000
0003
0032
0000
0000
0000
,
0003
0000
1000
0010
1000
0000
0001
0000
0010
0001
0010
0000
0001
0000
1000
0000
,
0010
0000
0100
0001
0100
0000
0010
0000
1000
0001
1000
0000
0100
0000
0010
0001
,
0010
0000
0100
0000
1000
0000
0001
1000
0001
0000
0100
0000
0001
0000
2000
0000
,
0000
3020
0000
0000
0030
1000
0001
0102
,
0103
0010
1000
0001
0010
0001
1000
0010
,
0100
0001
1000
0100
0010
0100
1000
0001
,
0201
0000
0310
0000
1000
0000
0002
0000
0000
0000
0000
0000
0000
0000
1003
0010
,
1000
0000
0001
0010
0001
1000
0001
0010
0002
0000
4003
0000
0000
0000
0000
0000
,
3000
0000
0001
0100
0001
0000
1000
0000
0100
0010
0100
0000
1000
0000
0001
0000
,
0100
0000
0010
1000
0010
0000
1000
0000
0001
0010
0001
0000
1000
0000
0100
0000
,
0010
0000
0001
1000
0001
0000
0100
0000
0010
1000
0010
0000
0100
0000
0002
0000
,
0000
0000
2003
0000
0000
0000
3100
0010
0100
0000
0010
0000
0001
0000
0012
0000
,
0000
0000
1003
0020
0000
2030
0000
3002
,
0000
0023
0000
0230
0000
0320
0000
0000
,
0032
0000
1003
0200
0000
0000
0000
0000
,
0020
0000
0000
0330
,
0012
0000
0000
0000
2003
0000
0000
0000
3100
0000
0010
0000
0000
0000
0100
1000
,
0100
1000
0001
1000
0001
1000
0001
0000
0000
0000
0011
0000
0000
0000
0010
0000
,
0001
1000
1020
0130
0001
1000
1200
0310
,
0002
1003
0010
1000
0200
0000
0300
0000
,
0010
0000
0001
1000
0010
1000
0001
0000
0020
0000
0000
0000
0030
0000
0001
1000
,
0010
0000
1000
0001
0010
0100
1000
0000
0001
0000
0200
0000
0000
0000
0310
1000
,
0001
0000
1000
0100
0010
0100
1000
0000
0002
0000
0000
0000
0003
0000
0100
0010
,
1000
0000
0000
0001
0000
0000
0010
0000
0000
0100
0000
0000
1000
0000
0001
0000
,
1000
0010
1000
0000
0001
0000
0010
0001
0010
0001
0010
0000
0100
0000
1000
0001
,
1000
0000
0010
1000
0010
1000
0010
0000
0100
0001
0000
0001
1000
0000
0100
0000
,
0010
0000
0100
0000
1000
0000
0001
0010
0100
0010
0001
0000
1000
0000
0010
0000
,
1000
0000
0001
0000
0010
0001
0000
0001
1000
0010
2000
0000
3000
0000
0010
0000
,
1000
0000
0001
0000
0100
0000
0001
0100
0010
0100
0001
0000
1000
0000
0100
0010
,
0001
0000
1000
0001
1000
0010
0000
0010
0100
0000
0001
0000
1000
0000
0000
0000
,
0100
0000
0010
0001
0010
0000
0100
0010
0001
0010
0100
0000
0010
0001
0000
0000
,
1000
0001
1000
0010
0000
0100
0010
0100
0001
1000
0001
1000
0002
0000
0000
0000
,
1003
0000
0100
0010
0100
1000
0001
0000
0200
0000
0000
0000
0300
0000
0010
1000
,
0001
0000
1000
0100
0010
0100
1000
0000
0002
0000
0023
0000
0000
0000
0130
1000
,
0001
0000
1000
0001
0100
0010
1000
0000
0002
0000
0000
0000
0000
0000
1003
0100
,
0010
0000
0000
0100
0000
0000
1000
0000
0000
0001
0000
0000
0100
0000
0010
0000
,
1000
0000
0100
0000
0100
0000
0000
0000
0020
0000
0000
0031
0000
0000
0101
0000
,
0000
0000
0100
0000
0100
0000
0000
0000
0020
0000
0000
1030
0000
0000
1100
0000
,
0000
0000
0100
0000
0010
0000
0000
0000
0002
0000
0000
1003
0000
0000
1010
0000
,
0000
0000
0010
0000
0100
0000
0000
0000
0010
0000
0000
2000
0000
0000
0002
0000
,
0000
0000
0010
0000
3003
0000
0000
0000
0002
0000
0000
0013
0000
0000
0110
0000
,
0000
0000
0100
0000
0100
0000
0000
0000
2000
0000
0000
3001
0000
0000
0010
0000
,
0001
1000
0000
1000
0010
0000
0100
0000
0001
0000
1000
0010
1000
0000
0001
0000
,
1000
0100
0010
0100
1000
0001
0010
0100
0010
0001
1000
0001
4000
0040
0000
0000
,
0000
0000
0000
0000
0000
0000
0000
0000
0000
0000
0000
3000
0230
0000
0000
0000
,
0300
0000
0001
0100
0001
0000
1000
0000
0010
0100
0010
0000
1000
0000
0001
0000
,
0010
0000
0001
1000
0001
0000
0100
0000
0010
1000
0010
0000
1000
0000
0001
0000
,
0100
0000
0001
0010
0001
0000
1000
0000
0010
0100
0010
0000
1000
0000
0002
0000
,
0000
0203
0000
0000
0300
0001
1000
2010
,
3010
0100
0001
1000
0100
1000
0001
0100
,
0010
1000
0001
0010
0100
1000
0001
1000
,
2100
0000
3100
0000
0010
0000
0001
0000
1000
0000
0010
0000
0100
0000
0001
1000
,
0100
0000
1000
0001
0100
0010
1000
0001
0020
0000
0430
0000
0000
0000
0000
0000
,
0300
0000
0010
0001
0010
0000
0100
0000
1000
0001
1000
0000
0010
0000
1000
0000
,
0001
0100
0001
0000
1000
0000
0100
0000
0010
0001
0010
0000
0100
0000
1000
0000
,
0001
0000
1000
0010
1000
0000
0001
0000
0100
0010
0100
0000
0001
0000
2000
0000
,
0000
0000
3020
0000
0000
0000
1030
0001
1000
0000
0010
0000
0100
0000
0102
0000
,
0000
0000
1003
0200
0000
0320
0000
0032
,
0000
2003
0000
3020
0000
0230
0000
0000
,
0302
0000
1003
0200
0000
0000
0000
0000
,
0020
0000
0000
0330
,
0012
0000
0000
0000
2003
0000
0000
3001
0010
0000
0001
0000
0000
0000
0001
0100
,
0020
0000
0000
0000
0230
0000
0000
0301
1000
0000
0100
0000
0000
0000
1000
0001
,
0020
0000
0000
0000
0230
0000
0000
1300
0001
0000
0010
0000
0000
0000
0001
0100
,
00M1
0000
1M00
0000
100M
0000
0M10
0100
M000
0001
00M0
1000
010M
0000
1M00
0000
,
1002
0000
0000
0000
0023
0000
0000
0031
1000
0000
0100
0000
0000
0000
1000
0001
,
0200
0000
0000
0000
0320
0000
0000
1030
0001
0000
0010
0000
0000
0000
0001
0010
,
0200
0000
0000
0000
2300
0000
0000
3001
0100
0000
0010
0000
0000
0000
1000
0001
,
1M00
0000
001M
0000
M010
0000
010M
0001
00M0
1000
0M00
0001
M010
0000
0M01
0000
,
0201
0000
0000
0000
0320
0000
0000
1030
0001
0000
0100
0000
0000
0000
0010
1000
,
0002
0000
0000
0000
0023
0000
0000
0031
1000
0000
0010
0000
0000
0000
1000
0001
,
0020
0000
0000
0000
0032
0000
0000
1003
0010
0000
0100
0000
0000
0000
0001
1000
,
0200
0000
0000
0000
0320
0000
0000
0000
0031
1000
000M
1000
0002
0000
0103
0000
,
0020
0000
0000
0000
0230
0000
0000
0301
1000
0000
0100
0000
0000
0000
0010
0100
,
2000
0000
0000
0000
3002
0000
0000
0103
0010
0000
1000
0000
0000
0000
0100
0010
,
0001
1000
0010
1000
0001
0010
0001
1000
0040
4000
0000
0000
0000
0000
0000
0000
,
0000
0000
0000
3030
,
0000
0000
0010
0000
0100
0000
0000
0000
0002
0000
0000
2003
0000
0000
3100
0000
,
0000
0000
0010
0000
0100
0000
0000
0000
1100
0000
0000
1100
0000
0000
MM11
0000
,
0000
0000
0001
0000
0100
0000
0000
0000
0020
0000
0000
2030
0000
0000
3001
0000
,
0000
0000
0010
0000
0100
0000
0010
0000
0011
0000
0000
0011
0000
0000
11MM
0000
,
0000
0000
1000
0000
0001
0000
0000
0000
0200
0000
0000
0320
0000
0000
1030
0000
,
0000
0000
0001
0000
0010
0000
0000
0000
0002
0000
0000
1003
0000
0000
0010
0000
,
1000
0000
0001
0100
0001
0000
1000
0000
0100
0010
0001
0010
0100
1000
0001
1000
,
0004
0400
0000
0000
0000
0000
0000
0000
0000
0000
0000
0000
0000
0000
0000
0000
,
0303
0200
0000
0310
2000
0000
3001
0020
,
0000
0031
1000
0010
0200
0000
0301
2000
,
0000
3100
0010
0100
1000
0001
0100
0020
,
0000
2000
0000
0000
0030
3001
0100
0020
,
0000
0000
0130
0002
0000
0000
1003
0200
,
0000
0320
0000
0032
0000
0000
2003
0000
,
3020
0000
0130
0002
0000
0000
0000
0000
,
0000
0000
0003
0000
,
10M0
0000
0M01
0000
100M
0010
1M00
0000
00M1
0000
M010
0000
,
0000
00M0
0000
0000
M100
0010
010M
0000
1M00
0000
00M1
0000
,
2000
0000
3001
0010
0001
0000
1000
0000
0010
1000
0010
0000
1000
0000
0002
0000
,
0000
0000
0013
0001
0010
0000
0100
0000
1000
0100
1000
0000
0001
0000
0200
0000
,
0000
0000
0310
1000
0010
0000
1000
0000
0001
0010
0001
0000
1000
0000
0020
0000
,
0000
0230
0000
0000
0000
0301
0010
0120
,
0130
1000
0001
0100
0010
1000
0001
0010
,
0001
1000
0010
0100
0001
0010
0100
1000
,
2001
0000
3001
0000
0100
0000
0010
0000
1000
0000
0001
0000
0100
0000
0010
0100
,
0001
0000
1000
0100
0010
0001
0010
0100
2000
0000
3004
0000
0000
0000
0000
0000
,
0003
0000
1000
0010
1000
0000
0001
0000
0010
0100
0010
0000
0001
0000
1000
0000
,
0010
0000
0100
0001
0100
0000
0010
0000
1000
0001
1000
0000
0100
0000
0010
0000
,
0001
0000
1000
0100
1000
0000
0001
0000
1000
0010
1000
0000
0001
0000
0200
0000
,
0000
0000
0320
0000
0000
0000
0130
0001
0100
0000
0010
0000
1000
0000
1002
0000
,
0000
0000
0013
0210
0000
2300
0000
3002
,
0000
0000
0203
0000
0000
0000
0310
1000
0010
0000
1000
0000
0001
0000
0201
0000
,
0000
0000
0310
2000
0000
3002
0000
0203
,
0000
0000
0320
0000
0000
0000
1030
0001
1000
0000
0100
0000
0010
0000
0012
0000
,
0000
0000
0000
0000
1003
0000
1020
0000
0000
0000
0230
0000
0000
0300
0202
0000
,
0303
2002
3003
2200
0000
3000
0320
0000
,
0032
0000
2003
0020
0000
0000
3000
0000
,
0030
0000
0000
M100
0000
0000
0M01
0000
0000
10M1
0000
0000
100M
0000
0100
0000
,
0120
0000
0000
0000
0032
0000
0000
1003
0010
0000
0100
0000
0000
0000
0010
1000
,
0001
1000
0100
0010
0001
0010
0100
0000
0000
0000
1001
0000
0000
0000
0001
0000
,
0201
0000
0000
0000
0320
0000
0000
1030
0002
0000
0000
0013
0000
0000
0001
1000
,
0010
1000
0001
0010
0100
1000
0001
0000
0000
0000
0110
0000
0000
0000
0001
0000
,
1000
0020
0000
1030
0001
0020
0000
0130
,
1000
0000
0001
0000
0100
0000
0010
0000
1000
0001
0000
0001
0100
0000
0010
0000
,
1000
0000
0000
0000
2100
0000
3001
0000
0100
0000
0000
0000
0210
0000
0301
1000
,
0100
0010
0001
0010
0200
0000
1300
0000
0002
0000
0103
0000
0020
0000
0000
0000
,
1030
0001
1000
0001
0010
0100
0010
0001
1000
0001
0020
0004
0000
0000
0000
0000
,
0000
0000
0000
0000
,
0030
0000
0000
0000
,
0000
0000
0000
0000
,
0003
0000
0000
0000
;

//---------------dance-single - Medium----------------
#NOTES:
     dance-single:
     Ace Of Hearts (2010):
     Medium:
     8:
     1.000,0.997,0.029,1.000,0.214:
0000
0000
0000
0000
,
2000
0000
3020
0000
1030
0001
0000
1000
,
0001
0000
1000
0010
0000
1000
0000
0001
,
0020
0000
0000
0000
0032
0000
0000
0000
2003
0000
0000
3010
0000
0000
1000
0000
,
0001
0000
1000
0100
0000
0010
0000
0100
,
1000
0100
0000
0010
0001
0010
0000
0001
,
1000
0001
0100
0010
2000
0000
3001
0100
,
0010
0000
0200
0301
1000
0000
0200
0310
,
0100
1000
0001
0100
0010
1000
0002
0000
,
0003
1000
0010
1000
0002
0000
0000
1003
,
0100
0010
0100
1000
0001
0020
0000
0031
,
1000
0010
1000
0001
0200
0000
0000
0310
,
1000
0000
0000
0001
0000
0000
0010
0000
0000
0100
0000
0000
1000
0000
0001
0000
,
0100
0010
0100
0001
1000
0100
0010
0001
,
1000
0010
0100
0001
1000
0100
0010
0100
,
1000
0001
0100
0010
0100
0001
1000
0100
,
0010
0100
1000
0001
0200
0300
0000
0010
,
1000
0001
0010
0001
0100
0010
1000
0001
,
0010
0100
1000
0001
0100
0001
1000
0100
,
0010
0100
1000
0001
0100
0010
1000
0001
,
0010
0001
1000
0010
4000
0000
3000
0000
,
0000
0001
0010
0001
2000
0000
3000
0010
,
1000
0001
0010
0100
0010
0002
0000
1003
,
0010
0100
0001
1000
0200
0000
0300
0010
,
0001
0000
0000
1000
0000
0000
0010
0000
0000
1000
0000
0000
0001
0000
0010
0000
,
0100
0000
0010
0000
0010
0000
0000
0000
0001
0000
0000
2000
0000
0000
3001
0000
,
0000
0000
1000
0000
0010
0000
0000
0000
1000
0000
0000
0002
0000
0000
0103
0000
,
0000
0000
0010
0000
0010
0000
0000
0000
1000
0000
0000
0002
0000
0000
0013
0000
,
0000
0000
0100
0000
0100
0000
0000
0000
1000
0000
0000
0002
0000
0000
0103
0000
,
0000
0000
0110
0000
0000
0000
0000
0000
0010
0000
0000
2000
0000
0000
3001
0000
,
0000
0000
0100
0000
0100
0000
0000
0000
0010
0000
0000
2000
0000
0000
3001
0000
,
0010
0001
1000
0010
0100
0001
1000
0100
,
0010
0000
0001
0000
1000
0000
0010
0000
0100
0000
0001
0000
4000
0400
0000
0000
,
0000
0000
0000
3300
,
0000
2000
3001
0100
0020
1030
0001
0200
,
0000
0310
1000
0001
0020
0130
1000
0002
,
0000
0103
0010
1000
0001
0010
0100
2000
,
0000
3002
0000
0000
0003
1000
0100
0020
,
0000
0000
0130
2000
0000
0000
3001
0200
,
0000
0320
0000
2030
0000
0000
3002
0000
,
0023
0000
0031
2000
0000
0000
0000
3040
,
0000
0000
0030
0000
,
0000
1000
0100
0010
0002
1003
0010
0200
,
0000
0301
1000
0001
0010
0001
1000
0020
,
0000
1030
0001
0010
0100
1000
0001
2000
,
0000
3020
0000
1030
0001
0010
0100
0020
,
0000
0000
0031
2000
0000
3020
0000
2030
,
0000
3002
0000
0203
0000
0320
0000
0000
,
2030
0000
3001
0020
0000
0000
0000
0000
,
0200
0000
0000
0030
,
1300
0000
1000
0000
0001
0100
0000
0010
,
0100
0000
0001
1000
0000
0010
0000
1000
,
0001
1000
0000
0100
0010
0100
0000
1000
,
0100
0010
0001
0010
0200
0000
0300
0000
,
0000
0010
0001
1000
0002
0000
0003
1000
,
0010
1000
0001
0010
0100
2000
0000
3001
,
0100
0010
1000
0001
0020
0000
0030
0001
,
1000
0000
0000
0010
0000
0000
1000
0000
0000
0001
0000
0000
0010
0000
0100
0000
,
1000
0001
0100
0010
0100
0001
1000
0100
,
0010
0001
1000
0010
0100
0001
1000
0001
,
0010
0100
1000
0010
0100
0001
1000
0100
,
0010
0001
0100
0001
1000
0010
0000
0100
,
0001
1000
0100
1000
0001
0100
0010
1000
,
0001
0010
0100
1000
0100
0010
0100
0000
,
1000
0010
1000
0001
0010
0001
1000
0010
,
0100
0001
1000
0010
0400
0000
0300
0000
,
0000
0001
0100
0010
2000
0000
3000
0001
,
0010
0001
1000
0010
1000
0002
0000
0013
,
0001
1000
0010
0100
0020
0000
0030
1000
,
0001
0000
0000
1000
0000
0000
0100
0000
0000
0010
0000
0000
0001
0000
1000
0000
,
0010
0000
0100
0000
0100
0000
0000
0000
0001
0000
0000
2000
0000
0000
3100
0000
,
0000
0000
0010
0000
0010
0000
0000
0000
0001
0000
0000
2000
0000
0000
3010
0000
,
0000
0000
1000
0000
1000
0000
0000
0000
0001
0000
0000
0020
0000
0000
0130
0000
,
0000
0000
0010
0000
0001
0000
0000
0000
1000
0000
0000
0020
0000
0000
0130
0000
,
0000
0000
0001
0000
0000
0000
0000
0000
1000
0000
0000
0020
0000
0000
0130
0000
,
0000
0000
0001
0000
0001
0000
0000
0000
0100
0000
0000
0020
0000
0000
1030
0000
,
0001
0010
0001
1000
0010
0100
0001
1000
,
0100
0000
1000
0000
0001
0000
0100
0000
0010
0000
1000
0000
0004
0040
0000
0000
,
0000
0000
0000
0033
,
0000
0002
1003
0010
0200
0301
1000
0200
,
0000
1300
0001
0100
0020
1030
0001
0200
,
0000
0301
1000
0100
0010
0001
1000
0020
,
0000
0230
0000
0000
0000
0301
1000
0020
,
0000
0000
1030
0002
0000
0000
0013
0200
,
0000
2300
0000
3002
0000
0000
2003
0000
,
3020
0000
1030
0002
0000
0000
0000
4003
,
0000
0000
3000
0000
,
0000
0001
0010
0100
0020
0031
1000
0002
,
0000
0103
0010
1000
0002
0013
0100
2000
,
0000
3001
0100
0010
1000
0001
0010
0200
,
0000
2300
0000
3001
0100
0010
0100
0002
,
0000
0000
1003
0200
0000
0320
0000
0230
,
0000
2300
0000
3002
0000
0203
0000
0000
,
0320
0000
1030
0002
0000
0000
0000
0000
,
0020
0000
0003
0030
,
0100
0000
2000
0000
3001
0100
0000
0010
,
0100
0000
0002
0000
1003
0010
0000
1000
,
0001
0000
0020
0000
0130
1000
0000
0001
,
0100
0000
0001
0000
1000
0000
0000
0100
0000
0010
0000
0000
0100
0000
1000
0000
,
0001
0000
0200
0000
0301
1000
0000
0100
,
0010
0000
0002
0000
1003
0100
0000
1000
,
0001
0000
0200
0000
0310
1000
0000
0001
,
0100
0000
0010
0000
0100
0000
0000
0001
0000
1000
0000
0000
0100
0000
0010
0000
,
0001
0000
2000
0000
3010
0100
0000
0001
,
1000
0000
0200
0000
0310
0001
0000
1000
,
0010
0000
0200
0000
0310
1000
0000
0001
,
0010
0002
1000
0100
,
2003
0000
3200
0000
0310
0001
0000
1000
,
0020
0000
0230
0000
0301
1000
0000
0001
,
4000
0004
0000
0000
0000
0000
0000
0000
0000
0000
0000
0000
0000
0000
0000
0000
,
0000
0000
0000
3003
,
0000
0000
1000
0000
1000
0000
0000
0000
0010
0000
0000
0200
0000
0000
0301
0000
,
0000
0000
1000
0000
1000
0000
0000
0000
0100
0000
0000
0100
0000
0000
1001
0000
,
0000
0000
0001
0000
0001
0000
0000
0000
0100
0000
0000
0020
0000
0000
1030
0000
,
0000
0000
0001
0000
0001
0000
0000
0000
1000
0000
0000
1000
0000
0000
0110
0000
,
0000
0000
0000
0000
0000
0000
0000
0000
0001
0000
0000
1000
0000
0000
0010
0000
,
0000
0000
1000
0000
0001
0000
0000
0000
1000
0000
0000
0010
0000
0000
0100
0000
,
0001
1000
0010
1000
0001
0010
0001
1000
,
0040
4000
0000
0000
0000
0000
0000
0000
0000
0000
0000
0000
0000
0000
0000
0000
,
3030
2000
0000
3001
0020
0000
0031
2000
,
0000
3001
0100
0010
0200
0000
0301
2000
,
0000
3100
0010
0100
1000
0001
0100
0020
,
0000
2030
0000
0000
3000
0002
0000
0023
,
0000
0000
0130
2000
0000
0000
3001
0020
,
0000
0032
0000
2003
0000
0000
3020
0000
,
0230
0000
0301
2000
0000
0000
0000
0000
,
0000
0000
3000
0000
,
0001
0000
1000
0000
0001
0000
0010
0000
0010
0000
0010
0000
,
0000
0000
0000
0000
0100
0000
1000
0000
1000
0000
1000
0000
,
0002
1003
0010
1000
0200
0310
0100
2000
,
0000
3001
0100
0010
1000
0001
0100
0020
,
0000
1030
0001
0010
0100
0010
0001
2000
,
0000
3020
0000
0000
0030
1000
0001
0020
,
0000
0000
0031
2000
0000
3000
0010
0200
,
0000
0302
0000
2003
0000
0000
3002
0000
,
0023
0000
0031
2000
0000
0000
0000
3400
,
0000
0000
0300
0000
,
0000
0010
0001
1000
0010
0100
0001
2000
,
0000
3100
0010
0100
1000
0001
0100
0020
,
0000
1030
0001
0010
0001
1000
0010
0200
,
0000
0302
0000
1003
0010
0100
0001
2000
,
0000
0000
3100
0020
0000
0032
0000
2003
,
0000
3020
0000
0130
0001
1000
0100
0020
,
0000
0000
0130
2000
0000
3002
0000
0203
,
0000
0320
0000
1030
0001
0010
0100
2000
,
0000
0000
3001
0200
0000
0320
0000
2030
,
0000
3200
0000
0320
0000
0000
0032
0000
,
2003
0000
3100
0020
0000
0000
0000
0000
,
0030
0000
0000
0001
0000
0000
1000
0000
0000
0010
0000
0000
1000
0000
0001
0000
,
0010
0000
0002
0000
1003
0010
0000
1000
,
0001
0010
0100
1000
0000
0010
0000
1000
,
0002
0000
0000
0000
0023
0000
0000
0000
0230
0000
0000
1300
0000
0000
0001
0000
,
0100
0010
0100
0001
0000
1000
0000
0001
,
0010
0001
0000
1000
0100
1000
0000
0001
,
0100
0010
1000
0001
0010
0000
0001
1000
,
0010
0000
0200
0301
1000
0000
0200
1300
,
0001
0100
0010
1000
0001
0010
0002
0000
,
1003
0100
1000
0001
0100
0001
4000
0000
,
0000
0000
0000
0000
,
0000
0000
0000
0000
,
0000
0000
0000
0000
,
3000
0000
0000
0000
;

//---------------dance-single - Easy----------------
#NOTES:
     dance-single:
     Ace Of Hearts (2010):
     Easy:
     5:
     0.590,0.307,0.000,0.590,0.005:
0000
0000
0000
0000
,
1000
0010
1000
0000
,
0001
0001
0000
0000
,
0100
0000
0100
0000
,
0010
0010
0000
0000
,
1000
0000
1000
0000
,
0001
0100
0001
0000
,
0100
0000
0100
0000
,
0010
1000
0010
1000
,
0000
0001
0002
0003
,
1000
0100
2000
3000
,
0001
0010
0002
0003
,
0200
0000
0300
0000
,
0010
1000
0010
0000
,
1000
0001
1000
0000
,
0001
0010
0001
0000
,
1000
0100
1000
0000
,
0001
0010
0001
0000
,
1000
0001
1000
0000
,
0010
1000
0010
0000
,
0100
0001
0200
0300
,
0000
0001
0002
0003
,
1000
0100
2000
3000
,
0010
1000
0020
0030
,
0200
0000
0300
0000
,
0000
0001
0001
0000
,
0000
0010
0010
0000
,
0001
1000
0001
0000
,
1000
0010
1000
0000
,
0001
0000
0010
0001
,
0010
0000
0001
0000
,
1000
0010
1000
0000
,
0001
0100
0001
2000
,
0000
0000
0000
3000
,
0000
0001
0002
0000
,
1003
0010
1000
0000
,
0001
0010
0001
0000
,
2000
0000
3000
0000
,
0020
0000
0230
0000
,
0301
0001
0001
0000
,
2000
0000
3200
0000
,
0320
0000
0030
0000
,
0000
0001
0001
0000
,
1000
0010
1000
0000
,
0001
1000
0001
0000
,
0020
0000
0000
0000
0030
0000
0000
0002
,
0000
0000
0000
2003
0000
0000
0000
3100
,
0000
0100
0000
0100
0000
0000
0000
0000
,
0020
0000
0000
0000
,
0030
0000
0000
0000
,
0001
1000
0001
0000
,
0100
0100
0000
0000
,
0010
0000
1000
0000
,
0001
0100
0002
0000
,
0003
1000
2000
3000
,
0001
0100
0020
0000
,
1030
0001
2000
0000
,
3020
0000
0030
0000
,
1000
0001
0010
0000
,
0001
1000
0100
0000
,
0010
0100
1000
0000
,
0001
0100
0010
0000
,
1000
0001
0100
0000
,
0010
0100
0001
0000
,
1000
0100
0010
0000
,
0100
1000
0002
0003
,
0000
1000
1000
0000
,
0010
1000
0020
0030
,
1000
0001
0200
0300
,
0020
0000
0030
0000
,
0000
1000
0001
0100
,
0001
0000
1000
0100
,
0010
0000
0001
1000
,
0010
0000
1000
0001
,
0010
0000
0001
1000
,
0010
0000
1000
0001
,
0010
0000
0001
1000
,
0010
1000
0002
0000
,
0000
0000
0000
0003
,
0000
1000
1000
0000
,
0010
0100
0001
0000
,
1000
0100
0010
0000
,
0002
0000
0003
0000
,
1000
0000
0010
0000
,
1000
0001
0100
0000
,
0020
0000
0000
0000
,
0030
0000
0000
0000
,
0000
1000
1000
0000
,
0001
0010
0100
0000
,
0010
0001
0010
0000
,
0200
0000
0000
0000
0300
0000
0000
0020
,
0000
0000
0000
0032
0000
0000
0000
1003
,
0000
1000
0000
2000
0000
0000
0000
0000
,
3020
0000
0000
0000
,
0030
0000
0000
0000
,
1000
0100
0010
0000
,
0100
1000
0001
0000
,
0100
0010
1000
0000
,
0002
0000
0003
0000
,
1000
0010
0100
0000
,
0001
1000
0100
0000
,
0010
0100
1000
0000
,
0200
0000
0300
0000
,
0010
0001
1000
0000
,
0001
0100
0010
0000
,
1000
0001
0010
0000
,
0001
1000
0020
0030
,
1000
0001
0010
0000
,
0100
1000
0100
0000
,
4000
0004
0000
0000
0000
0000
0000
0000
0000
0000
0000
0000
0000
0000
0000
0000
,
0000
0000
3003
0000
,
0000
0001
0001
0000
,
0100
0000
0010
0001
,
1000
0000
0001
1000
,
0010
0000
1000
0001
,
0100
0000
0010
0100
,
0001
0000
1000
0010
,
0100
0001
1000
0000
,
0001
0010
0002
0000
,
0003
1000
1000
0000
,
0010
0010
0010
0000
,
0100
0100
0100
0000
,
0002
0000
0003
0000
,
1000
0000
1000
0000
,
0100
0100
0100
0000
,
0010
0000
0020
0000
,
0000
0000
0030
0000
,
0002
0000
0003
0000
,
0000
0000
2000
0000
,
3000
0001
0001
0000
,
0100
0010
1000
0000
,
0001
0010
0001
0000
,
2000
0000
3000
0000
,
0020
0000
2030
0000
,
3001
0001
0001
0000
,
0020
0000
0000
0000
,
0000
0000
0030
0000
,
0000
0001
0001
0000
,
1000
0010
0100
0000
,
0001
1000
0100
0000
,
0020
0000
0000
0000
0030
0000
0000
0002
,
0000
0000
0000
2003
0000
0000
0000
3010
,
0000
0010
0000
0020
0000
0000
0000
2030
,
0000
0000
0000
3002
0000
0000
0000
0103
,
0000
0100
0000
0200
0000
0000
0000
0320
,
0000
0000
0000
2030
0000
0000
0000
3001
,
0000
0001
0000
0002
0000
0000
1003
0000
,
0010
1000
0002
0000
,
0000
0000
0000
0003
0000
0000
0000
0000
0000
0000
0000
0000
0000
0000
0000
0000
,
1000
0010
0100
0000
,
0001
1000
0001
0000
,
0010
0100
1000
0000
,
0001
0100
0000
0000
,
0010
0000
0010
0000
,
1000
0001
1000
0000
,
0100
0000
0010
0000
,
0001
1000
0010
1000
,
0001
0010
0100
2000
,
0000
0000
0000
0000
,
0000
0000
0000
0000
,
0000
0000
0000
0000
,
3000
0000
0000
0000
;

//---------------dance-single - Novice----------------
#NOTES:
     dance-single:
     Ace Of Hearts (2010):
     Beginner:
     2:
     0.386,0.307,0.010,0.410,0.000:
0000
0000
0000
0000
,
1000
0000
1000
0000
,
2000
0000
3000
0000
,
0001
0000
0001
0000
,
0002
0000
0003
0000
,
0010
0000
0010
0000
,
0010
0000
0000
0000
,
0100
0000
0100
0000
,
0200
0000
0300
0000
,
0002
0000
0003
0000
,
2000
0000
3000
0000
,
0002
0000
0003
0000
,
0200
0000
0300
0000
,
0010
0000
0010
0000
,
0010
0000
0010
0000
,
1000
0000
1000
0000
,
1000
0000
1000
0000
,
0001
0000
0001
0000
,
0001
0000
0001
0000
,
0100
0000
0100
0000
,
0100
0000
0100
0000
,
0200
0000
0300
0000
,
0002
0000
0003
0000
,
2000
0000
3000
0000
,
0020
0000
0030
0000
,
0100
0000
0100
0000
,
0100
0000
0001
0000
,
0001
0000
1000
0000
,
1000
0000
0200
0000
,
0300
0000
1000
0000
,
1000
0000
0001
0000
,
0002
0000
0000
0000
,
0000
0000
0000
0000
,
0000
0000
0000
0003
,
1000
0000
1000
0000
,
1000
0000
0000
0000
,
0010
0000
0010
0000
,
0010
0000
0000
0000
,
0100
0000
0100
0000
,
0100
0000
0000
0000
,
0002
0000
0000
0000
,
0003
0000
0000
0000
,
0100
0000
0100
0000
,
0100
0000
0000
0000
,
0010
0000
0010
0000
,
0010
0000
0000
0000
,
1000
0000
1000
0000
,
1000
1000
1000
0000
,
2000
0000
0000
0000
,
3000
0000
0000
0000
,
0001
0000
0000
0000
,
1000
0000
0000
0000
,
0010
0000
0010
0000
,
0020
0000
0030
0000
,
2000
0000
3000
0000
,
0002
0000
0003
0000
,
0200
0000
0300
0000
,
0020
0000
0030
0000
,
1000
0000
1000
0000
,
1000
0000
1000
0000
,
0001
0000
0001
0000
,
0001
0000
0001
0000
,
0010
0000
0010
0000
,
0010
0000
0010
0000
,
0001
0000
0001
0000
,
0001
0000
0002
0003
,
2000
0000
3000
0000
,
0020
0000
0030
0000
,
2000
0000
3000
0000
,
0002
0000
0003
0000
,
1000
0000
1000
0000
,
1000
0000
0000
0000
,
0100
0000
0100
0000
,
0100
0000
0000
0000
,
0010
0000
0010
0000
,
0010
0000
0000
0000
,
0100
0000
0100
0000
,
0100
0000
0200
0000
,
0000
0000
0000
0300
,
1000
0000
1000
0000
,
1000
0000
0000
0000
,
0001
0000
0001
0000
,
0001
0000
0000
0000
,
0100
0000
0100
0000
,
0100
0000
0000
0000
,
0020
0000
0000
0000
,
0030
0000
0000
0000
,
1000
0000
1000
0000
,
1000
0000
0000
0000
,
0001
0000
0001
0000
,
0001
0000
0000
0000
,
0010
0000
0010
0000
,
0010
0010
0010
0000
,
0020
0000
0000
0000
,
0030
0000
0000
0000
,
0001
0000
0001
0000
,
1000
0000
1000
0000
,
0010
0000
0010
0000
,
0020
0000
0030
0000
,
1000
0000
1000
0000
,
0001
0000
0001
0000
,
0010
0000
0010
0000
,
0200
0000
0300
0000
,
1000
0000
1000
0000
,
0001
0000
0001
0000
,
1000
0000
1000
0000
,
0010
0000
0010
0000
,
0010
0000
0010
0000
,
0100
0000
0100
0000
,
0002
0000
0000
0000
,
0000
0000
0003
0000
,
1000
0000
1000
0000
,
1000
0000
0001
0000
,
0001
0000
0100
0000
,
0100
0000
0010
0000
,
0010
0000
1000
0000
,
1000
0000
0001
0000
,
0001
0000
0001
0000
,
0002
0000
0000
0003
,
1000
0000
1000
0000
,
0010
0000
0010
0000
,
0100
0000
0100
0000
,
0200
0000
0300
0000
,
0001
0000
0001
0000
,
0002
0000
0003
0000
,
2000
0000
0000
0000
,
3000
0000
0000
0000
,
2002
0000
0000
0000
,
0000
0000
0000
0000
,
3003
0000
0001
0000
,
0002
0000
0003
0000
,
1000
0000
1000
0000
,
1000
0000
0000
0000
,
0010
0000
0010
0000
,
0100
0000
0100
0000
,
0200
0000
0300
0000
,
0002
0000
0003
0000
,
0100
0000
0100
0000
,
0010
0000
0010
0000
,
1000
0000
1000
0000
,
2000
0000
3000
0000
,
0001
0000
0001
0000
,
0001
0001
0001
0000
,
0100
0000
0100
0000
,
0100
0100
0100
0000
,
0010
0000
0010
0000
,
0010
0010
0010
0000
,
2000
0000
0000
0000
,
3000
0000
0000
0000
,
0001
0000
0001
0000
,
0100
0000
0100
0000
,
0010
0000
0010
0000
,
1000
0000
1000
0000
,
0001
0000
0001
0000
,
0010
0000
0010
0000
,
0001
0000
0001
0000
,
1000
0000
1000
0000
,
0001
0000
0002
0000
,
0000
0000
0000
0000
,
0000
0000
0000
0000
,
0000
0000
0000
0000
,
0003
0000
0000
0000
;
