#TITLE:Heathcliff Theme;
#SUBTITLE:;
#ARTIST:Noam Caniel;
#TITLETRANSLIT:;
#SUBTITLETRANSLIT:;
#ARTISTTRANSLIT:;
#GENRE:Cartoon Theme;
#CREDIT:Ace Of Hearts;
#BANNER:Heathcliff Theme - bn.png;
#BACKGROUND:Heathcliff Theme - bg.jpg;
#LYRICSPATH:Heathcliff Theme Lyrics.lrc;
#CDTITLE:Ace Of Hearts.png;
#MUSIC:Heathcliff Theme.ogg;
#OFFSET:1.160;
#SAMPLESTART:2.600;
#SAMPLELENGTH:12.000;
#SELECTABLE:YES;
#BPMS:0.000=188.000;
#STOPS:;
#BGCHANGES:4.000=Heathcliff Theme Video.avi=1.000=0=0=1=====,
99999=-nosongbg-=1.000=0=0=0 // don't automatically add -songbackground-
;
#KEYSOUNDS:;

//---------------dance-single - Hard----------------
#NOTES:
     dance-single:
     Ace Of Hearts (2010):
     Hard:
     8:
     0.600,0.000,0.028,1.000,0.000: // measure 1
0000
0000
0000
0000
,  // measure 2
0000
0000
0000
0000
,  // measure 3
0000
0000
0000
0000
,  // measure 4
2000
3001
0002
1003
,  // measure 5
0001
0100
0000
0020
0000
0130
0000
0000
,  // measure 6
0002
2003
3020
0130
,  // measure 7
0001
0010
0000
0200
0000
0300
0000
1000
,  // measure 8
0002
0103
0010
1000
,  // measure 9
0001
0100
0000
0020
0000
0130
0000
0000
,  // measure 10
0002
1003
0001
0100
,  // measure 11
0001
2000
0000
3200
0000
0300
0000
0000
,  // measure 12
1000
0000
0001
1000
0010
0000
1000
0000
,  // measure 13
0001
0000
0010
0100
1000
0000
0100
0000
,  // measure 14
0010
0000
0001
1000
0010
0000
1000
0000
,  // measure 15
0001
0000
0010
0100
1000
0000
0001
0000
,  // measure 16
2000
3010
1000
0001
,  // measure 17
1000
0100
0000
0020
0000
0032
0000
1003
,  // measure 18
0020
0130
0002
1003
,  // measure 19
0200
0310
0000
0100
0000
0000
0000
0000
,  // measure 20
2000
3001
0100
0010
,  // measure 21
1000
0001
0000
0020
0000
0230
0300
0000
,  // measure 22
2000
3002
2003
3200
,  // measure 23
0310
0002
0000
2003
0000
3000
0000
0001
,  // measure 24
0010
0000
0001
0000
2000
0000
3001
0010
,  // measure 25
0000
0001
1000
0001
0020
0000
0031
1000
,  // measure 26
0002
0000
0203
0000
0302
0000
1003
0002
,  // measure 27
0000
0023
0000
0230
0000
2300
0000
3001
,  // measure 28
0200
0000
0301
0000
2000
0000
3100
0010
,  // measure 29
0000
0100
1000
0100
0020
0000
0031
1000
,  // measure 30
0002
0000
0103
0000
0020
0000
1030
0002
,  // measure 31
0000
0013
0000
0200
0000
1300
0000
0000
,  // measure 32
0001
0001
0100
0100
,  // measure 33
0001
1000
0000
0020
0000
0230
0000
0301
,  // measure 34
1000
0100
0010
0100
,  // measure 35
1000
0002
0000
0203
0300
0000
0000
0000
,  // measure 36
0020
0130
0001
1000
,  // measure 37
0001
0100
0000
0020
0000
2030
3000
0001
,  // measure 38
0010
0001
0200
0310
,  // measure 39
0100
0001
0000
2000
0000
3000
0000
0000
,  // measure 40
1020
0000
0000
0230
,  // measure 41
0302
0000
2003
3002
,  // measure 42
0203
0000
0000
0000
0000
0000
0302
2003
,  // measure 43
3200
0300
2000
3002
,  // measure 44
0023
0000
0000
0032
,  // measure 45
2003
0000
3002
0023
,  // measure 46
0230
0000
0000
0000
0000
0000
2300
3002
,  // measure 47
0203
0000
0300
0000
,  // measure 48
0020
0130
0200
0310
,  // measure 49
1000
0001
0000
0020
0000
0130
0000
0000
,  // measure 50
0020
0032
2003
3010
,  // measure 51
0100
0001
0000
2000
0000
3000
0000
0001
,  // measure 52
0020
0031
1000
0010
,  // measure 53
0100
0001
0000
2000
0000
3100
0000
0000
,  // measure 54
1000
0001
0000
0020
0000
0031
1000
0000
,  // measure 55
0001
0100
0000
0020
0000
0130
0001
0000
,  // measure 56
2002
3003
0000
0000
;

//---------------dance-single - Expert----------------
#NOTES:
     dance-single:
     Ace Of Hearts (2010):
     Challenge:
     10:
     1.000,0.000,0.681,1.000,0.156:
0000
0000
0000
0000
,
0000
0000
0000
0000
,
0000
0000
0000
0000
,
0102
0103
0201
0301
,
1001
1000
0100
0020
0000
0130
1000
0001
,
0201
0310
2000
0000
3001
0000
0010
0000
,
0210
2300
3001
0200
0000
0310
1000
0001
,
0021
0130
1000
0000
2100
3001
0100
0000
,
0210
0301
1000
0200
0000
0310
0001
1000
,
1020
0130
0002
0000
0013
0000
0100
0000
,
2100
3002
0103
0020
0000
1030
0001
0010
,
0120
0000
0130
1000
0001
0000
0200
0000
0000
0000
0310
0000
1000
0000
0001
0000
,
0201
0000
0310
1000
0001
0000
0020
0000
0000
0000
0031
0000
0100
0000
0010
0000
,
2010
0000
3001
0010
0100
0000
0020
0000
0000
0000
0031
0000
1000
0000
0010
0000
,
0210
0000
0301
1000
0010
0000
0100
0000
0001
1000
0100
0000
0020
0000
0130
0000
,
2100
0000
3001
0000
0100
0000
0000
0000
0120
0000
1030
0001
0100
0000
0010
0000
,
2010
3001
0010
0200
0000
1300
0001
0100
,
0120
0000
1030
0001
0010
0000
0100
0000
1000
0000
0010
0000
0100
0000
0001
0000
,
1000
0100
0010
0000
0100
0000
2000
0000
0000
0000
3001
0000
0100
0000
0010
0000
,
2010
0000
3001
0010
0100
0000
1000
0000
0001
0000
0100
0000
0010
0000
1000
0000
,
0001
0100
0010
0000
1000
0000
1002
0000
0000
0000
0013
0000
0100
0000
0010
0000
,
0001
0000
1000
0001
0100
0000
0010
0000
0200
0000
0301
0000
1000
0000
0100
0000
,
0010
0100
1000
0000
0001
0000
0201
0000
0310
0000
1000
0000
0100
0000
0010
0000
,
0012
0000
0000
0000
2003
0000
0000
3000
1020
0000
0000
0000
0130
0000
0102
0000
,
0000
1000
1000
1000
0020
0030
2003
3001
,
0200
0000
0310
1000
0001
0000
0010
0000
0200
0000
0310
0000
0100
0000
2200
0000
,
0000
0010
0000
0001
0000
0011
3300
1000
,
0002
0000
1003
0000
0100
0000
0000
0000
0120
0000
0130
1000
0001
0000
2000
0000
,
0000
0010
0010
0010
0002
0003
3200
0310
,
0002
0000
1003
0000
0010
0000
0000
0000
0210
0000
0301
1000
0001
0000
0202
0000
,
0000
0010
0000
1000
0000
1010
0303
0000
,
2001
0000
3001
0100
0010
0000
1000
0000
1002
0000
0013
0000
0100
0000
1000
0000
,
2100
3001
0100
0020
0000
0130
0001
0021
,
0130
0000
1000
0001
0100
0000
0010
0000
1000
0000
0001
0000
0010
0000
0100
0000
,
1000
0001
0100
0000
0010
0000
2000
0000
0000
0000
3010
0000
0100
0000
0001
0000
,
1200
0000
0310
0000
0001
0000
0000
0000
0021
0000
0130
1000
0001
0000
0100
0000
,
0010
1000
0001
0000
0100
0000
0020
0000
0000
0000
1030
0000
0001
0000
0010
0000
,
0210
0000
1300
0001
0100
0000
0010
0000
1000
0000
0001
0000
0010
0000
0001
0000
,
1000
0010
0100
0000
0001
0000
2000
0000
0000
0000
3001
0000
0001
0000
0000
0000
,
0201
0000
0010
0010
0002
0003
0320
0000
,
2030
0000
3001
0001
0200
0000
0320
0000
,
2030
0000
0001
0001
0200
0300
3002
0023
,
0230
0000
1300
1000
0002
0000
0203
0000
,
0320
0000
0100
0100
2030
0000
3002
0000
,
2003
0000
0010
0010
3002
0000
0023
0000
,
0230
0000
0001
0001
0020
0300
0032
2003
,
3200
0310
0001
0200
0000
0310
1000
0001
,
0102
1003
2100
3001
,
0201
0310
1000
0200
0000
0310
0100
1000
,
1002
0103
0010
0000
2000
0000
3001
0000
,
0021
0130
1000
0002
0000
0103
0010
1000
,
2100
3010
0210
0301
,
2001
3100
0000
0020
0000
0130
1000
0001
,
0201
0310
0000
2000
0000
3001
0010
0001
,
2001
3100
0000
0020
0000
0032
0200
0000
,
1000
0303
0000
0000
;

//---------------dance-single - Medium----------------
#NOTES:
     dance-single:
     Ace Of Hearts (2010):
     Medium:
     6:
     0.423,0.000,0.014,0.595,0.000:
0000
0000
0000
0000
,
0000
0000
0000
0000
,
0000
0000
0000
0000
,
0001
1000
0001
1000
,
0010
0000
0000
2000
0000
3000
0000
0000
,
0001
0010
0001
1000
,
0100
0000
0000
0020
0000
0030
0000
0000
,
0001
1000
0001
0000
,
1000
0010
0000
0200
0000
0300
0000
0000
,
0001
0100
0001
0000
,
0100
0001
0000
2000
0000
3000
0000
0000
,
0001
1000
0001
1000
,
0100
0000
1000
0002
0000
0000
0003
0000
,
1000
0010
1000
0010
,
0100
0000
0010
2000
0000
3000
0000
0000
,
0001
0100
0001
1000
,
0001
0010
0000
0002
0000
0003
0000
0000
,
1000
0010
1000
0001
,
1000
0020
0000
1030
0000
0000
0000
0000
,
0001
0010
0001
0000
,
1000
0010
0000
2000
0000
3000
0000
0000
,
0010
1000
0002
0003
,
1000
0020
0000
0130
0000
0000
0000
0010
,
1000
0000
0001
0000
2000
0000
3001
0010
,
0000
0004
0000
0000
0003
0000
0001
0000
,
1000
0000
0010
0000
1000
0000
0001
2000
,
0000
0100
0000
0100
0000
3100
0000
0000
,
1000
0000
0001
0000
2000
0000
3001
0100
,
0000
0040
0000
0000
0030
0000
0010
0000
,
1000
0000
0001
0000
1000
0000
0001
0200
,
0000
0010
0000
0010
0000
0310
0000
0000
,
0100
0001
0100
0000
,
0010
1000
0000
0002
0000
0003
0000
0000
,
1000
0010
1000
0000
,
0001
0010
0000
0002
0000
0003
0000
0000
,
1000
0010
1000
0001
,
1000
0100
0000
0020
0000
0030
0000
0000
,
0100
1000
0100
0010
,
0001
2000
0000
3010
0000
0000
0000
0000
,
2000
0000
0000
3002
,
0203
0000
0302
2003
,
3002
0000
0000
0023
,
0230
0000
2300
3002
,
0023
0000
0000
0032
,
2003
0000
3020
2030
,
3002
0000
0000
2003
,
3200
0000
0300
0000
,
0010
0001
0010
0001
,
1000
0000
0000
0020
0000
0030
0000
0000
,
1000
0001
1000
0001
,
0100
0000
0000
0020
0000
0000
0030
0000
,
0100
0001
0100
0001
,
1000
0000
0000
0200
0000
0300
0000
0000
,
0010
0001
0000
2000
0000
0000
3001
0000
,
1000
0100
0000
0020
0000
0000
0031
0000
,
1001
0000
0000
0000
;

//---------------dance-single - Easy----------------
#NOTES:
     dance-single:
     Ace Of Hearts (2010):
     Easy:
     4:
     0.249,0.000,0.014,0.085,0.000:
0000
0000
0000
0000
,
0000
0000
0000
0000
,
0000
0000
0000
0000
,
0001
0001
0001
0000
,
1000
0000
1000
0000
,
0010
0010
0010
0000
,
0100
0000
0100
0000
,
0010
0010
0010
0000
,
1000
0000
1000
0000
,
0001
0001
0001
0000
,
0010
0000
0010
0000
,
0001
0000
0001
0000
,
1000
0000
1000
0000
,
0010
0000
0010
0000
,
0100
0000
0100
0000
,
0001
0001
0001
0000
,
1000
0000
1000
0000
,
0010
0010
0010
0000
,
0100
0000
0100
0000
,
0001
0001
0001
0000
,
1000
0000
1000
0000
,
0100
0100
0100
0000
,
0010
0000
0010
0000
,
0001
0001
0001
0000
,
1000
0000
0000
0000
,
0010
0010
0010
0000
,
1000
1000
1000
0000
,
0100
0100
0100
0000
,
0010
0000
0000
0000
,
0001
0001
0001
0000
,
0100
0100
0100
0000
,
0010
0010
0010
0000
,
1000
0000
1000
0000
,
0001
0001
0001
0000
,
0010
0000
0010
0000
,
0001
0001
0001
0000
,
1000
0000
1000
0000
,
0010
0010
0010
0000
,
0100
0000
0100
0000
,
0002
0000
0000
0000
,
2003
0000
0000
0000
,
3020
0000
0000
0000
,
0130
0000
0000
0000
,
0002
0000
0000
0000
,
2003
0000
0000
0000
,
3002
0000
0000
0000
,
0103
0000
0000
0000
,
0010
0010
0010
0000
,
1000
0000
1000
0000
,
0001
0001
0001
0000
,
0010
0000
0010
0000
,
0100
0100
0100
0000
,
1000
0000
1000
0000
,
0001
0000
0001
0000
,
1000
0000
1000
0000
,
1001
0000
0000
0000
;

//---------------dance-single - Novice----------------
#NOTES:
     dance-single:
     Ace Of Hearts (2010):
     Beginner:
     2:
     0.162,0.000,0.014,0.326,0.000:
0000
0000
0000
0000
,
0000
0000
0000
0000
,
0000
0000
0000
0000
,
0001
0000
0001
0000
,
0002
0000
0003
0000
,
1000
0000
1000
0000
,
2000
0000
3000
0000
,
0010
0000
0010
0000
,
0020
0000
0030
0000
,
1000
0000
1000
0000
,
2000
0000
3000
0000
,
0002
0000
0000
0000
,
0003
0000
0000
0000
,
2000
0000
0000
0000
,
3000
0000
0000
0000
,
0010
0000
0010
0000
,
0020
0000
0030
0000
,
1000
0000
1000
0000
,
2000
0000
3000
0000
,
0001
0000
0001
0000
,
0002
0000
0003
0000
,
0100
0000
0100
0000
,
0200
0000
0300
0000
,
0020
0000
0000
0000
,
0030
0000
0000
0000
,
0200
0000
0000
0000
,
0300
0000
0000
0000
,
0002
0000
0000
0000
,
0003
0000
0000
0000
,
2000
0000
0000
0000
,
3000
0000
0000
0000
,
0010
0000
0010
0000
,
0020
0000
0030
0000
,
0100
0000
0100
0000
,
0200
0000
0300
0000
,
0001
0000
0001
0000
,
0002
0000
0003
0000
,
1000
0000
1000
0000
,
2000
0000
3000
0000
,
0002
0000
0000
0000
,
0000
0000
0000
0000
,
0003
0000
0000
0000
,
0000
0000
0000
0000
,
0020
0000
0000
0000
,
0000
0000
0000
0000
,
0030
0000
0000
0000
,
0000
0000
0000
0000
,
0001
0000
0001
0000
,
0002
0000
0003
0000
,
1000
0000
1000
0000
,
2000
0000
3000
0000
,
0010
0000
0010
0000
,
0020
0000
0030
0000
,
1000
0000
0000
0000
,
0001
0000
0000
0000
,
1001
0000
0000
0000
;
