#TITLE:Go My Way!!;
#SUBTITLE:;
#ARTIST:The Idolm@ster;
#TITLETRANSLIT:;
#SUBTITLETRANSLIT:;
#ARTISTTRANSLIT:;
#GENRE:Idolm@ster;
#CREDIT:Ace Of Hearts;
#BANNER:Go My Way - bn.png;
#BACKGROUND:Go My Way - bg.jpg;
#LYRICSPATH:;
#CDTITLE:Ace Of Hearts.png;
#MUSIC:Go My Way.ogg;
#OFFSET:0.580;
#SAMPLESTART:79.780;
#SAMPLELENGTH:12.000;
#SELECTABLE:YES;
#BPMS:0.000=180.000;
#STOPS:;
#BGCHANGES:0.000=Go My Way - bg.jpg=1.000=0=0=0=StretchNoLoop====,
2.000=Go My Way Video.avi=1.000=0=0=0=StretchNoLoop====,
392.500=Go My Way - bg.jpg=1.000=0=0=0=StretchNoLoop====,
99999=-nosongbg-=1.000=0=0=0 // don't automatically add -songbackground-
;
#KEYSOUNDS:;

//---------------dance-single - Go My Way!!----------------
#NOTES:
     dance-single:
     Ace Of Hearts (2009):
     Challenge:
     10:
     0.947,0.000,0.762,1.000,0.033:
0000
0000
0000
0000
,
0000
0000
0000
0000
,
0000
0000
0000
0000
,
0000
0000
0000
0000
,
0000
0000
0000
0000
,
0000
0000
0000
0000
,
0000
0000
0000
0000
,
0000
0000
0000
0000
,
0000
0000
0000
0000
,
1001
0000
0000
0000
,
0000
0000
0000
1000
0100
2000
0000
0000
,
3000
0000
0000
0001
0100
0002
0000
0000
,
0003
0000
0000
1000
0100
2000
0000
0000
,
3010
0000
0100
0000
0010
0000
1010
2000
,
0000
3100
0010
0100
1000
0001
0200
0000
,
0320
0000
2030
0000
3002
0000
0103
0020
,
0000
0130
0000
0000
0010
0000
2010
0000
,
3001
0020
0130
2100
,
0000
0000
0000
0000
3001
0100
0001
0000
0010
0000
0100
0000
1000
0000
0000
0000
,
1001
0000
0001
1000
0100
0010
0000
0100
,
1000
0020
0000
0130
0001
1000
0100
0000
,
0110
0000
0100
1000
0001
0010
0000
0001
,
1000
0010
0000
0010
1000
0001
0000
0000
,
0011
0000
0010
0100
1000
0010
0000
1000
,
0001
0010
0000
0100
1000
0001
0101
0100
,
0010
1010
1000
0100
0120
0001
0000
0001
,
0100
0001
0031
0000
1001
0000
0101
0110
,
0010
1000
0002
0000
0103
0010
0110
0101
,
0001
1000
0200
0310
0001
1000
1010
0110
,
0100
0001
0010
0100
1000
0001
0011
0110
,
0100
1000
1001
0011
0010
0000
0011
1001
,
0001
0100
0010
0100
0010
1000
1100
0110
,
0010
0001
0200
0310
0001
0010
0200
0000
,
0310
0000
1000
0002
0003
0011
0000
1100
,
1100
1100
2200
0000
0010
3300
2000
3001
,
0010
0001
0100
0010
1000
0100
0020
0031
,
0100
0001
0010
1000
0010
0100
2000
3001
,
0100
0010
1000
0000
1000
0001
0100
0010
,
0100
0001
2000
0000
3100
0000
0020
0031
,
1000
0010
0100
0001
1000
0100
2000
3001
,
0100
0010
0001
0010
0100
0001
2000
0000
,
3010
0000
0100
0002
0000
1003
0000
0010
,
1000
0002
2000
0000
0010
3003
0000
0000
,
2000
0000
3200
0000
0310
0002
0000
1003
,
0200
2300
3002
0203
,
0300
0000
0020
0000
1030
0002
0000
2003
,
3100
0020
0000
0031
1000
0010
0200
0000
,
0302
0000
2003
0000
3100
0020
0000
0130
,
2000
3002
0203
0320
,
0000
0000
0000
0000
1030
0000
0001
0000
0200
0000
0002
0000
4000
0040
0000
0000
,
0000
3030
0303
1001
,
0002
0000
2003
0000
3001
0020
0000
0031
,
2000
3020
0230
0302
,
0003
0000
2000
0000
3010
0200
0000
0302
,
0000
0003
2000
0000
3200
0000
0320
0000
,
0230
2300
3002
0203
,
0320
0000
0000
0000
2030
0000
0000
0000
3002
0000
0000
0003
0011
0000
0010
0000
,
0100
1100
1000
0010
0110
0100
0101
0001
,
0010
0110
0100
1000
1010
0010
0110
0110
,
0000
0000
0000
0000
1001
1001
0000
1100
,
0011
1100
0011
0001
0100
0020
0000
0030
,
1010
1010
0000
1000
0100
0020
0000
0030
,
0011
0011
0000
0001
1000
1200
0000
0000
,
0320
0000
0032
0000
2003
3000
1010
0020
,
0000
0130
0001
0010
0100
1000
0002
0000
,
2003
0000
0000
0000
3020
0000
0000
0000
0230
0000
0000
0300
0101
0000
0002
0000
,
0000
0013
0000
0000
0100
0000
2100
0000
,
3002
0000
0000
0000
0203
0000
0000
0000
0302
0000
0000
0003
1001
0000
2000
0000
,
0000
3010
0000
0100
0001
0020
0000
0030
,
0110
0110
0000
0100
1000
0020
0000
0030
,
0110
0110
0000
0100
0001
2001
0000
0000
,
3200
0000
0320
0000
0032
0000
1003
0020
,
0000
0130
0001
1000
0100
0010
0002
0000
,
2003
0000
0000
0000
3020
0000
0000
0000
0230
0000
0000
0300
0101
0000
0002
0000
,
0000
0013
0000
0000
0200
0000
2300
0000
,
3002
0000
0000
0000
0203
0000
0000
0000
0302
0000
0000
0003
0021
0000
0000
0000
,
0000
0000
0000
0000
0230
0000
0000
0000
0000
0000
0000
0000
2300
0000
0000
3000
,
1001
0000
0001
0100
0001
0010
0000
0001
,
1000
0010
0000
0010
1000
0100
0110
1001
,
0000
0000
0000
0000
1001
0110
0000
0011
,
1100
0000
0101
0000
0001
0100
0010
0000
0100
0000
0002
0000
0000
0000
1003
0000
,
2010
3010
0000
0100
0001
0020
0000
0130
,
1200
1300
0000
0001
0100
0120
0000
0000
,
2030
0000
0000
0000
3002
0000
0000
0000
0023
0000
0000
0030
0110
0000
0200
0000
,
0000
0310
0001
0100
0010
1000
0002
0000
,
2003
0000
0000
0000
3200
0000
0000
0000
0320
0000
0000
0030
0110
0000
0200
0000
,
0000
0310
0000
0010
0002
0000
2003
0000
,
3020
0000
0230
0000
0301
1000
0100
0020
,
0000
0000
0031
0000
0000
0000
1000
0010
2000
0000
0200
0000
0000
0000
0000
0000
,
0001
0001
0300
3001
0200
0002
0000
0000
,
1000
1000
0303
0100
0010
2010
0000
0000
,
3200
0000
0320
0000
0230
0300
1100
2000
,
0000
3010
0100
0001
0010
0100
2000
0000
,
3002
0000
0203
0000
0320
0030
1010
2000
,
0000
3100
0000
0000
0010
0000
0012
0000
,
2003
0000
0000
0000
3020
0000
0000
0000
0230
0000
0000
0300
0102
0000
1003
0100
,
0010
0001
2000
3001
0010
0000
2200
0000
,
0000
0000
0000
0000
,
0000
0000
3300
0000
0000
0000
0000
0000
0000
0001
0010
0100
1000
0000
0000
0000
;

//---------------dance-single - Go Your Way!----------------
#NOTES:
     dance-single:
     Ace Of Hearts (2009):
     Hard:
     8:
     0.737,0.000,0.143,1.000,0.010: // measure 1
0000
0000
0000
0000
,  // measure 2
0000
0000
0000
0000
,  // measure 3
0000
0000
0000
0000
,  // measure 4
0000
0000
0000
0000
,  // measure 5
0000
0000
0000
0000
,  // measure 6
0000
0000
0000
0000
,  // measure 7
0000
0000
0000
0000
,  // measure 8
0000
0000
0000
0000
,  // measure 9
0000
0000
0000
0000
,  // measure 10
1001
0000
0000
0000
,  // measure 11
0000
0000
0000
0001
0100
0002
0000
0000
,  // measure 12
0003
0000
0000
1000
0010
2000
0000
0000
,  // measure 13
3000
0000
0000
0001
0010
0002
0000
0000
,  // measure 14
2003
0000
3020
0000
0230
0000
0301
2000
,  // measure 15
0000
3100
0000
0000
0000
1000
0020
0000
,  // measure 16
2030
0000
3002
0000
0203
0000
0301
2000
,  // measure 17
0000
3010
0000
0000
1000
0000
0020
0000
,  // measure 18
2030
3002
2003
3200
,  // measure 19
0000
0320
0000
0032
,  // measure 20
1003
0000
0000
0001
0100
0010
0000
0000
,  // measure 21
0000
2000
0000
3001
0010
0100
0000
0000
,  // measure 22
0010
0000
0000
0001
1000
0100
0000
0010
,  // measure 23
0000
0100
0000
1000
0002
0103
0000
0000
,  // measure 24
0010
0000
0000
1000
0100
0010
0000
0000
,  // measure 25
0000
0002
0000
1003
0010
0100
0001
0001
,  // measure 26
0000
1000
1000
0000
2020
0000
0000
0000
,  // measure 27
0000
0000
0000
0000
3030
0000
0000
1000
,  // measure 28
0010
1000
0002
0000
1003
0100
0000
1000
,  // measure 29
0000
0001
0200
0000
0301
0010
0000
0001
,  // measure 30
1000
0100
0010
0000
0100
1000
0001
0100
,  // measure 31
0010
0100
0001
0000
1000
0000
0000
0100
,  // measure 32
0010
0100
2000
0000
3001
0100
0000
0010
,  // measure 33
0100
0001
2000
0000
3100
0010
0002
0000
,  // measure 34
1003
0000
0010
0200
0000
0301
0000
1000
,  // measure 35
1000
1000
1000
0000
1001
0000
0000
0001
,  // measure 36
0100
0010
0200
0000
0301
1000
0000
0001
,  // measure 37
0010
0100
1000
1000
0100
0010
0000
0100
,  // measure 38
0010
0100
1000
0000
0010
0100
0001
1000
,  // measure 39
0100
0010
0001
0000
0101
0000
0000
0100
,  // measure 40
0001
0100
0020
0000
1030
0100
0000
0010
,  // measure 41
0001
1000
0200
0000
1300
0001
0100
0000
,  // measure 42
0110
0000
0010
2000
0000
3100
0000
0010
,  // measure 43
0010
0010
0010
0000
1001
0000
0000
0000
,  // measure 44
0002
0000
0203
0000
0301
2000
0000
3001
,  // measure 45
0200
0302
2003
3200
,  // measure 46
0300
0000
2000
0000
3100
0020
0000
0230
,  // measure 47
0000
0300
0000
0000
,  // measure 48
2000
0000
3200
0000
0310
0002
0000
0013
,  // measure 49
0200
2300
3002
0023
,  // measure 50
0000
0000
0000
0000
0130
0000
1000
0000
0001
0000
1000
0000
0004
0040
0000
0000
,  // measure 51
0000
0033
0000
0000
,  // measure 52
0002
0000
0203
0000
0310
2000
0000
3001
,  // measure 53
0200
0302
2003
3200
,  // measure 54
0300
0000
0020
0000
0031
2000
0000
3200
,  // measure 55
0000
0300
2000
0000
3002
0000
0023
0000
,  // measure 56
0230
2300
3002
2003
,  // measure 57
3020
0000
0230
0000
0302
0000
1003
0100
,  // measure 58
1000
0020
0000
0000
0000
0030
0000
0000
,  // measure 59
0000
0000
2000
0000
3001
0200
0010
0010
,  // measure 60
0000
0000
0300
0000
0010
0010
0000
1000
,  // measure 61
0001
0010
0100
1000
0001
0200
0000
0000
,  // measure 62
0010
0310
0000
1000
0100
0020
0000
0000
,  // measure 63
0100
0130
0000
1000
0001
0200
0000
0000
,  // measure 64
0320
0000
2030
0000
3020
0000
0130
0002
,  // measure 65
0000
0013
0000
0000
0000
0100
2000
0000
,  // measure 66
3002
0000
0203
0000
0302
0000
1003
0020
,  // measure 67
0000
0130
0000
0000
0001
0000
0020
0000
,  // measure 68
0230
0000
2300
0000
3001
0000
0100
0020
,  // measure 69
0000
1030
0000
0001
0100
0020
0000
0030
,  // measure 70
1010
1000
0000
1000
0100
0020
0000
0030
,  // measure 71
0011
0001
0000
1000
0010
0200
0000
0000
,  // measure 72
0302
0000
2003
0000
3020
0000
1030
0002
,  // measure 73
0000
0013
0000
0000
0000
0001
2000
0000
,  // measure 74
3020
0000
0230
0000
0302
0000
0103
0020
,  // measure 75
0000
0130
0000
0000
0001
0000
0020
0000
,  // measure 76
0230
2300
3002
2003
,  // measure 77
0000
3020
0000
0130
,  // measure 78
0101
0000
0000
0001
1000
0010
0000
0000
,  // measure 79
0000
2000
0000
3100
0010
0100
1100
1000
,  // measure 80
0000
0000
0000
0000
1001
0001
0000
0100
,  // measure 81
0100
0100
0100
0010
1000
0002
0000
0103
,  // measure 82
0010
0010
0000
1000
0100
0020
0000
0031
,  // measure 83
1000
1000
0000
0010
0100
0002
0000
0000
,  // measure 84
2003
0000
3200
0000
2300
0000
3010
0200
,  // measure 85
0000
0301
0000
0000
0000
1000
0020
0000
,  // measure 86
0230
0000
0302
0000
2003
0000
3100
0020
,  // measure 87
0000
0130
0000
0000
1000
0000
0020
0000
,  // measure 88
0230
0000
0302
0000
1003
0100
1000
0002
,  // measure 89
0000
0023
0000
0130
1000
0002
0000
0103
,  // measure 90
0110
0010
0000
1000
0100
0020
0000
0031
,  // measure 91
1001
1000
0000
0010
0100
0002
0000
0000
,  // measure 92
0203
0000
0320
0000
2030
0000
3001
0020
,  // measure 93
0000
0130
0000
0000
0000
0010
0002
0000
,  // measure 94
2003
0000
3020
0000
0230
0000
0301
0020
,  // measure 95
0000
0130
0000
0000
0010
0000
0002
0000
,  // measure 96
2003
3020
0130
0002
,  // measure 97
0000
0000
2003
0000
0000
3000
2002
0000
,  // measure 98
0000
0000
0000
0000
,  // measure 99
0000
0000
3003
0000
0000
0000
0000
0000
0000
4004
0000
3003
0000
0000
0000
0000
;

//---------------dance-single - Go Some Way----------------
#NOTES:
     dance-single:
     Ace Of Hearts (2009):
     Medium:
     6:
     0.601,0.000,0.067,1.000,0.005:
0000
0000
0000
0000
,
0000
0000
0000
0000
,
0000
0000
0000
0000
,
0000
0000
0000
0000
,
0000
0000
0000
0000
,
0000
0000
0000
0000
,
0000
0000
0000
0000
,
0000
0000
0000
0000
,
0000
0000
0000
0000
,
1001
0000
0000
0000
,
0000
0000
0000
0001
1000
0002
0000
0000
,
0003
0000
0000
1000
0010
2000
0000
0000
,
3000
0000
0000
0001
0000
2000
0000
3000
,
0001
0000
1000
0000
0001
0000
0010
0002
,
0000
1003
0000
0000
0000
0010
2000
0000
,
3001
0000
1000
0000
0001
0000
0010
0002
,
0000
1003
0000
0000
0001
0000
0010
0000
,
0001
1000
0100
2000
,
0000
3002
0000
0203
,
0301
0000
0000
1000
0000
1000
0000
0000
,
0000
0002
0000
0000
1003
0100
0000
0000
,
0010
0000
0000
0001
0000
0001
0000
0010
,
0000
0001
0000
1000
0000
0100
0000
0000
,
1000
0000
0000
0001
0000
0001
0000
0000
,
0000
2000
0000
0000
3001
0100
0002
0000
,
0000
2003
0000
0000
3020
0000
0000
0000
,
0000
0000
0000
0000
0030
0000
0000
1000
,
0000
0000
0002
0000
1003
0100
0000
1000
,
0000
0001
2000
0000
3001
0010
0000
0001
,
0000
1000
0001
0000
1000
0000
0001
0100
,
0001
0000
1000
0000
0100
0000
0000
1000
,
0000
0001
2000
0000
3001
0100
0000
0001
,
1000
0100
0010
0002
,
1003
0000
0010
2000
0000
3001
0000
1000
,
0100
0100
0000
0220
,
0000
0000
0000
0000
0000
0330
0022
0000
,
0000
0000
0000
0000
0000
0033
2200
0000
,
0000
0000
0000
0000
0000
3300
1000
0001
,
1000
0010
0010
2020
,
0000
0000
0000
0000
0000
3030
0202
0000
,
0000
0000
0000
0000
0000
0303
0001
0000
,
1000
0000
0001
2000
0000
3010
0000
1000
,
0001
0002
0013
0000
,
0002
0000
2003
0000
3001
0020
0000
0031
,
2000
3002
0203
0302
,
0000
0000
2003
0000
3001
0020
0000
0032
,
0000
0003
0000
0000
0000
0000
0000
0000
,
2000
0000
3200
0000
0310
0002
0000
1003
,
0020
2030
3002
0023
,
0000
0000
0000
0031
1000
0002
0403
0000
,
0000
0300
0000
0000
,
0002
0000
2003
0000
3100
0020
0000
0031
,
2000
3002
0203
0302
,
0000
0000
2003
0000
3001
0020
0000
0032
,
0000
0003
2000
0000
3200
0000
0320
0000
,
0230
2300
3002
0203
,
0302
0000
2003
0000
3002
0000
0013
0001
,
0010
0002
0000
0000
0000
0000
0003
0000
,
0000
0000
1000
0010
1000
0020
0000
0000
,
0000
0000
0030
0000
1000
1000
0000
0000
,
0000
0000
0000
0001
0100
0002
0000
0000
,
0000
0003
0000
1000
0010
2000
0000
0000
,
3000
0000
0000
0001
0000
0002
0000
0000
,
1003
0000
0020
0000
1030
0000
0001
0020
,
0000
0031
0000
0000
0000
1000
0020
0000
,
2030
0000
3002
0000
2003
0000
3001
0020
,
0000
0031
0000
0000
1000
0000
0020
0000
,
2030
0000
3002
0000
0203
0000
0301
2000
,
0000
3010
0000
1000
0001
2000
0000
0000
,
0000
3000
0000
0001
0010
0002
0000
0000
,
0000
0003
0000
1000
0000
2000
0000
0000
,
3020
0000
2030
0000
3002
0000
1003
0020
,
0000
1030
0000
0000
0000
0001
0020
0000
,
0032
0000
2003
0000
3002
0000
1003
0020
,
0000
0130
0000
0000
0010
0000
2000
0000
,
3002
2003
3200
0320
,
0000
0032
0000
2003
,
0000
0000
0000
3000
,
0000
0000
0000
0000
0000
0000
0001
0001
,
0000
0000
0000
0000
0010
0010
0000
0001
,
0001
0000
0000
1000
0100
0020
0000
0000
,
0030
0000
0000
0100
0010
0002
0000
0000
,
0003
0000
0000
1000
0001
2000
0000
0000
,
3020
0000
2030
0000
3002
0000
1003
0020
,
0000
0130
0000
0000
0000
0001
2000
0000
,
3002
0000
2003
0000
3200
0000
0310
0002
,
0000
1003
0000
0000
0001
0000
0020
0000
,
0230
0000
2300
0000
3001
0000
1000
0002
,
0000
0103
0000
0001
0100
0020
0000
0000
,
0030
0000
0000
0100
0010
2000
0000
0000
,
3000
0000
0000
0001
1000
0002
0000
0000
,
2003
0000
3200
0000
2300
0000
3001
0200
,
0000
0310
0000
0000
0000
1000
0002
0000
,
0203
0000
0302
0000
2003
0000
3001
0020
,
0000
0130
0000
0000
0010
0000
0002
0000
,
0023
0230
2300
3002
,
0003
0020
0030
0200
,
0000
0000
0000
0000
,
0000
0000
0300
0000
0000
0000
0000
0000
0000
1001
0000
0000
0000
0000
0000
0000
;

//---------------dance-single - Go Any Way----------------
#NOTES:
     dance-single:
     Ace Of Hearts (2009):
     Easy:
     4:
     0.352,0.000,0.048,0.390,0.000:
0000
0000
0000
0000
,
0000
0000
0000
0000
,
0000
0000
0000
0000
,
0000
0000
0000
0000
,
0000
0000
0000
0000
,
0000
0000
0000
0000
,
0000
0000
0000
0000
,
0000
0000
0000
0000
,
0000
0000
0000
0000
,
1001
0000
0000
0000
,
0000
0000
0000
0001
0000
0002
0000
0000
,
0003
0000
0000
1000
0000
2000
0000
0000
,
3000
0000
0000
0000
0000
0010
0000
0000
,
0010
0010
1000
2000
,
0000
3001
0000
0000
0000
0000
0010
0000
,
0010
0001
0001
2000
,
0000
3001
0000
0000
0000
0000
0020
0000
,
0000
0230
0000
2300
,
0000
3002
0000
0203
,
0000
0000
0000
0300
,
0000
0000
0000
0001
,
0001
0000
0000
0000
0000
0100
0000
0200
,
0000
0000
0300
0000
,
0010
0000
0000
1000
0000
1000
0000
0000
,
0000
0001
0000
0000
0001
0000
0001
0000
,
0000
1000
0000
0000
0020
0000
0000
0000
,
0000
0000
0030
0000
,
1000
1000
0000
1000
,
0001
0001
0000
0001
,
0100
0100
0000
0010
,
1000
0010
1000
0000
,
0001
0001
0000
0100
,
0100
0100
0000
0010
,
1000
1000
0000
0001
,
0010
0001
0000
2000
,
0000
0000
0000
3002
,
0000
0000
0000
0203
,
0000
0000
0000
0320
,
0000
0000
0000
2030
,
0000
0000
0000
3200
,
0000
0000
0000
0310
,
0010
0010
0000
0001
,
1000
0001
0020
0030
,
0001
0001
0000
1000
,
0100
0100
1000
1000
,
0000
0001
0100
0001
,
0000
0000
0000
0000
,
1000
0100
0000
1000
,
0001
1000
0001
0020
,
0000
0000
0031
4000
,
0000
3000
0000
0000
,
0001
0001
0000
1000
,
0010
0010
1000
1000
,
0000
0001
0010
0001
,
0000
1000
1000
1000
,
0001
0001
0000
0100
,
0010
0010
0000
1000
,
0001
0002
0000
0003
,
0000
1000
0010
0010
,
0000
0000
0110
0000
,
1001
0000
0000
1000
0000
2000
0000
0000
,
3000
0000
0000
0010
0000
0020
0000
0000
,
0030
0000
0000
1000
0000
1000
0000
0000
,
0001
0001
1000
2000
,
0000
3100
0000
0000
0000
0000
0010
0000
,
0010
0001
0001
2000
,
0000
3001
0000
0000
0100
0000
0001
0000
,
0001
1000
1000
0001
,
0000
0001
0000
0100
0000
0200
0000
0000
,
0300
0000
0000
0010
0000
0020
0000
0000
,
0030
0000
0000
1000
0000
1000
0000
0000
,
0001
0001
1000
2000
,
0000
3010
0000
0000
0000
0000
1000
0000
,
1000
0001
0001
0020
,
0000
0031
0000
0000
1000
0000
0010
0000
,
0010
0100
0100
0002
,
0000
2003
0000
3200
,
0000
0000
0000
0300
,
0000
0000
0000
0110
,
0000
0000
1001
0000
,
0000
0000
0000
1000
0000
2000
0000
0000
,
3000
0000
0000
0001
0000
0002
0000
0000
,
0003
0000
0000
0000
0000
1000
0000
0000
,
0010
0010
1000
2000
,
0000
3001
0000
0000
0000
0000
0010
0000
,
0010
0001
0001
2000
,
0000
3100
0000
0000
1000
0000
0001
0000
,
0001
0010
0010
0001
,
0000
0001
0000
0100
0000
0200
0000
0000
,
0300
0000
0000
0010
0000
0020
0000
0000
,
0030
0000
0000
0000
0000
1000
0000
0000
,
0010
0010
1000
2000
,
0000
3001
0000
0000
0000
0000
0010
0000
,
0010
0001
0001
1000
,
0000
1000
0000
0000
0001
0000
0010
0000
,
0001
0001
1000
0002
,
0000
0023
0000
0230
,
0000
0000
0000
0000
,
0000
0300
0000
0000
0000
0000
0000
0000
;

//---------------dance-single - Just Go----------------
#NOTES:
     dance-single:
     Ace Of Hearts (2009):
     Beginner:
     2:
     0.188,0.000,0.029,0.190,0.000:
0000
0000
0000
0000
,
0000
0000
0000
0000
,
0000
0000
0000
0000
,
0000
0000
0000
0000
,
0000
0000
0000
0000
,
0000
0000
0000
0000
,
0000
0000
0000
0000
,
0000
0000
0000
0000
,
0000
0000
0000
0000
,
1001
0000
0000
0000
,
0000
0000
0000
0002
0000
0000
0000
0000
,
0003
0000
0000
0002
0000
0000
0000
0000
,
0003
0000
0000
1000
,
0000
1000
0000
1000
,
0000
0000
0000
0010
,
0000
0010
0000
0010
,
0000
0000
0000
1000
,
0000
1000
0000
0001
,
0000
0001
0000
0002
,
0000
0000
0000
0003
,
0000
0000
0000
1000
,
0000
0000
0000
1000
,
0000
0000
0000
0001
,
0000
0000
0000
0001
,
0000
0000
0000
0020
,
0000
0000
0000
0000
,
0000
0030
0000
0001
,
0000
0000
0000
0001
,
0000
0000
0000
1000
,
0000
0000
0000
1000
,
0000
1000
0000
1000
,
0000
0000
0000
0010
,
0000
0000
0000
0010
,
0000
0010
0000
0020
,
0000
0030
0000
0000
,
0000
1000
0000
1000
,
0000
0001
0000
0001
,
0000
0100
0000
0200
,
0000
0300
0000
0000
,
0000
0010
0000
0010
,
0000
1000
0000
1000
,
0000
0001
0000
0002
,
0000
0003
0000
0000
,
0000
1000
0000
1000
,
0000
0000
0000
0010
,
0000
0010
0000
0010
,
0000
0000
0000
0000
,
0000
1000
0000
1000
,
0000
0001
0000
0002
,
0000
0003
0000
0040
,
0000
0030
0000
0000
,
0000
0001
0000
0001
,
0000
0001
0000
0100
,
0000
0100
0000
0100
,
0000
0000
0000
0010
,
0000
0010
0000
1000
,
0000
1000
0000
2000
,
0000
3000
0000
0002
,
0000
0003
0000
0010
,
0000
0000
0010
0000
,
0000
0000
0000
0002
0000
0000
0000
0000
,
0003
0000
0000
0002
0000
0000
0000
0000
,
0003
0000
0000
1000
,
0000
1000
0000
1000
,
0000
0000
0000
0010
,
0000
0010
0000
0010
,
0000
0000
0000
0100
,
0000
0100
0000
0001
,
0000
0000
0000
2000
0000
0000
0000
0000
,
3000
0000
0000
2000
0000
0000
0000
0000
,
3000
0000
0000
0001
,
0000
0001
0000
0001
,
0000
0000
0000
0100
,
0000
0100
0000
0100
,
0000
0000
0000
0010
,
0000
0010
0000
1000
,
0000
1000
0000
0002
,
0000
0000
0000
0003
,
0000
0000
0000
1001
,
0000
0000
1001
0000
,
0000
0000
0000
2000
0000
0000
0000
0000
,
3000
0000
0000
2000
0000
0000
0000
0000
,
3000
0000
0000
0001
,
0000
0001
0000
0001
,
0000
0000
0000
0010
,
0000
0010
0000
0010
,
0000
0000
0000
0100
,
0000
0100
0000
0100
,
0000
0000
0000
0020
0000
0000
0000
0000
,
0030
0000
0000
0020
0000
0000
0000
0000
,
0030
0000
0000
0001
,
0000
0001
0000
0001
,
0000
0000
0000
1000
,
0000
1000
0000
1000
,
0000
0000
0000
0010
,
0000
0010
0000
1000
,
0000
1000
0000
0002
,
0000
0000
0000
0000
,
0000
0003
0000
0000
0000
0000
0000
0000
;
