#TITLE:Festival of Ghost 2;
#SUBTITLE:;
#ARTIST:Brandy;
#TITLETRANSLIT:;
#SUBTITLETRANSLIT:;
#ARTISTTRANSLIT:;
#GENRE:;
#CREDIT:Ace Of Hearts;
#BANNER:Festival of Ghost 2 - bn.png;
#BACKGROUND:Festival of Ghost 2 - bg.jpg;
#LYRICSPATH:;
#CDTITLE:Ace Of Hearts.png;
#MUSIC:Festival of Ghost 2.ogg;
#OFFSET:0.320;
#SAMPLESTART:35.900;
#SAMPLELENGTH:12.000;
#SELECTABLE:YES;
#BPMS:0.000=68.000,24.000=136.000,89.000=126.000,93.000=116.000,97.000=106.000,101.000=126.000,106.000=136.000,149.500=101.999,150.250=68.000,151.000=136.000,219.000=68.000,221.000=146.000,298.000=73.000,302.000=46.500,303.000=23.260;
#STOPS:38.000=0.440
,149.500=0.460
;
#BGCHANGES:;
#KEYSOUNDS:;

//---------------dance-single - Ace Of Hearts (2009)----------------
#NOTES:
     dance-single:
     Ace Of Hearts (2009):
     Challenge:
     11:
     0.892,0.075,0.815,0.933,0.756: // measure 1
0000
0000
0000
0000
,  // measure 2
0000
0000
0000
0000
0000
0000
0000
0012
,  // measure 3
1003
1000
2010
3001
0001
0102
1003
1000
,  // measure 4
2100
0000
3001
0000
0001
0000
1M00
0010
1000
0001
0100
0010
021M
0000
0301
0000
,  // measure 5
0001
0000
20M0
0001
0100
0001
3010
0000
020M
0010
1000
0001
0310
0000
1000
0001
,  // measure 6
0010
0000
0100
0000
1000
0000
0000
0000
1020
0000
0000
0000
0130
0000
0000
0000
0100
0000
0000
0000
0002
0000
1003
0100
1000
0000
0001
1000
0001
0000
0010
0001
,  // measure 7
M020
0000
0031
1000
0010
0000
210M
0000
3100
0010
0001
0000
01M2
0000
0103
0000
,  // measure 8
0001
0000
1M00
0100
0010
0100
1000
0001
M022
0000
0033
0000
1100
0000
M00M
0000
,  // measure 9
1010
0MM0
0101
M00M
0110
0MM0
1001
M00M
,  // measure 10
0011
0000
0MM0
0000
1010
0000
M00M
0100
1001
0000
0MM0
M00M
0000
0000
2000
0000
,  // measure 11
3000
0000
0000
0000
1200
0000
1300
0000
0100
0000
0010
0000
0001
0000
0000
1001
,  // measure 12
0000
0000
1000
0000
0001
0100
1000
0000
000M
0000
1000
0100
0001
0000
M000
0000
,  // measure 13
1000
0100
0010
0000
0120
0000
0130
0000
1000
0000
0001
0000
0100
0000
0000
0110
,  // measure 14
0000
0000
0010
0000
0100
0001
1000
0000
1000
0010
0100
0000
0000
0001
0010
0100
,  // measure 15
1000
0001
0100
0010
1020
0000
1030
0000
0001
0000
0100
0000
0010
0000
0000
1010
,  // measure 16
0000
0000
1000
0000
0001
0010
1000
0000
000M
0000
1000
0010
0001
0000
M000
0000
,  // measure 17
0001
0100
0010
0000
1020
0000
1030
0000
0100
0000
0010
0000
0001
0000
0000
0101
,  // measure 18
0000
0000
0100
0000
0110
0000
0010
0000
1000
0001
0000
0011
0000
0010
0100
0000
,  // measure 19
1100
1000
2020
0000
0M01
3030
0022
0000
,  // measure 20
1M00
0030
0003
2000
0200
0000
0000
0000
00M1
0000
3300
0000
0102
0000
1003
0000
,  // measure 21
1020
0130
0202
0000
10M0
0303
2002
0000
,  // measure 22
0M10
0000
3003
0000
0022
0000
0000
0000
0000
0000
0000
0033
1M1M
0000
0000
0000
,  // measure 23
M1M1
0000
0000
10M2
2003
3200
0320
0230
2300
3M02
0203
0320
,  // measure 24
2M30
0000
3002
0000
0023
0030
021M
0000
2300
0000
3002
0000
M203
0000
0320
0000
0230
0000
03M2
0000
0023
0000
0230
0000
,  // measure 25
23M0
0000
3002
0000
0203
0300
012M
0000
2030
0M00
3002
0000
M023
0000
0032
0M00
0203
0000
032M
0000
2030
0M00
3002
0000
,  // measure 26
M023
0000
0032
00M0
0203
0300
021M
0000
0320
0000
2030
3000
10M2
0000
0203
0000
0320
0030
201M
0000
3200
0000
0320
0030
,  // measure 27
0M12
0000
2003
0000
3020
0030
0410
0000
0000
0000
0000
0000
0301
0000
0000
0000
0000
0000
0014
0000
0000
0000
0000
0000
,  // measure 28
1003
0000
0000
0000
0000
0000
1000
0000
0010
0100
0000
0001
1000
0000
0100
0010
0000
0001
1000
0000
0001
0100
0000
0010
,  // measure 29
1000
0000
0000
0000
0100
0000
0010
0000
0000
0000
0001
0000
1000
0000
0000
0010
0000
0000
0100
0000
0000
0001
0000
0000
1000
0000
0000
0100
0000
0000
0010
0000
0000
0100
0000
0000
1000
0000
0000
0001
0000
0000
0100
0000
0000
0010
0000
0000
,  // measure 30
0100
0001
1000
0100
0010
0001
1000
0010
0100
0010
1000
0100
0010
0100
1000
0001
,  // measure 31
1000
0010
0100
0001
10M0
0100
10M0
0100
001M
0100
001M
0100
M010
0001
M010
0001
,  // measure 32
1M00
0001
1M00
0001
1000
0010
0100
0001
1000
0100
0010
0001
0010
0100
1000
0001
,  // measure 33
0100
0010
0100
0001
0010
0100
1000
0001
0100
0010
1000
0001
0010
0001
0100
0010
,  // measure 34
1000
0001
1000
0010
1000
0100
1000
0001
0100
0010
0100
0001
1000
0100
1000
0001
,  // measure 35
0100
0010
0100
0001
1001
0000
0000
0000
2200
0000
3300
0000
0110
0000
0000
0010
,  // measure 36
0002
0003
0011
0010
0110
0100
1100
1000
,  // measure 37
1001
0000
0000
0000
0000
0000
0001
0000
0000
0000
0000
0000
0101
0000
0000
0000
0M0M
0000
0000
0000
0000
0101
0000
0000
0000
0000
0000
1000
0000
0000
0100
0000
0000
0000
0000
0000
1100
0000
0000
0000
MM00
0000
0000
0000
0000
1100
0000
0000
,  // measure 38
0000
0100
0010
0000
0001
1000
0001
00M0
MM0M
0020
0000
0000
0031
0000
0001
0000
,  // measure 39
0M11
0000
0100
0000
0100
0000
11M0
0000
1000
0000
1000
0000
M010
1000
0001
0010
,  // measure 40
0M01
1000
0100
1000
00M1
0100
0010
1000
0M01
1000
0100
0010
M001
0000
0001
0000
,  // measure 41
1001
1000
1000
1010
0200
0002
10M0
0000
,  // measure 42
0010
0000
10M0
0000
1010
0303
M100
01M0
,  // measure 43
1M01
M100
010M
10M1
010M
M100
1M01
010M
,  // measure 44
01M0
M101
0001
1001
1000
0010
10M0
1M00
,  // measure 45
M110
0000
0000
0000
0000
0000
1M00
0000
0000
0000
0000
0000
10M0
0000
0000
0000
0000
0000
011M
0000
0000
0000
0000
0000
10M0
0000
0000
0000
0000
0000
1M00
0000
0000
0000
0000
0000
21M0
0000
3000
000M
0200
0000
M300
0000
0020
000M
0030
0000
,  // measure 46
0M21
0000
0030
M000
0002
0000
00M3
0000
0200
000M
0300
0000
M210
0000
0300
000M
0020
0000
0M30
0000
2000
000M
3000
0000
12M0
0000
0300
M000
0200
0000
030M
0000
0020
M000
0030
0000
0M11
0000
0000
0000
0000
0000
M001
0000
0000
0MM0
0000
0000
,  // measure 47
M001
0000
1000
001M
0100
0000
M001
0MM0
M001
0000
1000
010M
0010
0000
M001
0MM0
,  // measure 48
M001
0000
0010
010M
1000
00M0
0001
0M00
0001
M000
0100
0010
1000
0000
0100
0000
,  // measure 49
0010
0001
1000
0001
0100
0010
1M20
103M
,  // measure 50
M001
001M
M100
0M10
00M1
100M
21M0
310M
,  // measure 51
0M10
00M1
100M
M010
01M0
0M01
0022
0000
,  // measure 52
1000
0000
0033
0000
0202
0000
0000
0000
1000
0300
0003
2000
0020
0000
0000
0000
,  // measure 53
0001
3030
0110
0010
1010
1000
2200
0000
,  // measure 54
0001
0000
3300
0000
0220
0000
0000
0000
1030
0300
0000
2000
0002
0000
0000
0000
,  // measure 55
0010
0000
3003
0000
0101
0000
1000
0000
1100
0000
0100
0000
M040
0M00
003M
00M4
,  // measure 56
0M00
0000
0000
0000
M003
0000
0000
0000
40M0
0000
0000
0000
000M
0000
0000
3000
1001
0000
0000
0000
0000
0000
0000
0000
0000
0000
0000
0000
0000
0000
0000
0000
0101
0000
0000
0000
0000
0000
0000
0000
0001
0000
0000
0000
1000
0000
0000
0000
0100
0000
0000
0000
0000
0000
0000
0000
0010
0000
0000
0000
0000
0000
0000
0000
,  // measure 57
0100
1000
0100
0000
001M
0001
1000
0001
0M10
0100
1000
0001
M100
0010
0100
0001
,  // measure 58
10M0
0010
0100
0001
2002
0000
3003
0000
1000
0000
0010
1000
0100
0000
0010
0000
,  // measure 59
0001
0000
1000
0000
M010
1000
0001
0010
0M01
0100
0010
1000
00M1
0010
0100
1000
,  // measure 60
0M01
1000
0100
0010
2002
0000
3003
0000
0011
0000
0010
0001
0100
0000
0010
0000
,  // measure 61
1010
0000
1000
0000
1100
0000
0100
0000
0010
0001
0100
0000
0110
0000
0010
0000
,  // measure 62
1010
0000
1001
0000
M001
0010
0100
1000
0M01
1000
0010
1000
00M1
0100
0010
1000
,  // measure 63
0M01
0010
0100
1000
2002
3000
0013
0000
0001
0100
0000
0110
0000
0100
0001
0000
,  // measure 64
0011
0000
0100
0000
120M
0000
13M0
0000
M001
0100
0000
011M
0000
0010
1M00
0000
,  // measure 65
00M1
0000
M100
0000
021M
0000
0310
0000
1000
0010
0001
0000
0010
0000
1000
0000
,  // measure 66
1100
0100
M210
031M
00M1
1M00
01M0
001M
,  // measure 67
M001
0100
100M
0000
1200
0000
0301
0000
1000
0000
0100
0000
0010
0000
0001
0000
,  // measure 68
0100
0000
0010
0000
2010
0000
30M1
0000
M100
0010
1000
0000
10M0
0100
0010
0000
,  // measure 69
M010
0001
1000
0000
2M1M
0000
3010
1000
0100
0000
M21M
0000
0310
0001
0100
0000
,  // measure 70
M2M1
0000
0301
0000
2MM1
0000
3010
0000
0100
0001
0010
0000
M12M
0000
0130
1000
,  // measure 71
2MM1
0000
3001
0000
0202
0000
0303
0000
0220
0000
0330
0000
2002
3000
0003
1000
,  // measure 72
0020
0030
M12M
0130
M101
0001
10M1
1000
,  // measure 73
110M
0100
M12M
0130
11M0
1000
1M01
0001
,  // measure 74
M101
0000
0100
0000
M21M
0000
0310
100M
0000
1000
0M01
0000
MM12
0000
0013
M100
,  // measure 75
0000
0100
1000
0000
00M1
0100
0002
0000
0003
0000
0000
0000
0000
0000
0000
0000
,  // measure 76
4004
0000
0000
0000
0000
0000
0000
0000
0000
0000
0000
0000
0000
3003
0000
0000
;

//---------------dance-single - Ace Of Hearts (2009)----------------
#NOTES:
     dance-single:
     Ace Of Hearts (2009):
     Hard:
     9:
     0.639,0.050,0.177,0.388,0.526:
0000
0000
0000
0000
,
0000
0000
0000
0000
0000
0000
0000
0002
,
0103
0100
0020
0130
0100
2000
3100
0100
,
0020
0000
0130
0000
0100
0000
0001
1000
01M0
0010
0001
0010
M200
0000
1300
0000
,
1000
0000
0000
0001
0M10
0100
1000
0000
0000
1000
01M0
0010
0001
0000
0010
0100
,
1000
0000
0001
0000
0010
0000
0000
0000
0200
0000
0000
0000
1000
0000
0000
0000
1300
0000
0000
0000
0001
0000
1000
0100
1000
0000
0001
0010
0001
0000
1000
0100
,
20M0
0001
3001
0M20
0100
0130
M200
1000
,
1300
200M
0001
3001
0011
0000
0010
0000
,
1100
1000
1001
0001
,
0101
0000
0000
0000
0010
0000
0000
1000
0010
0000
0000
0000
0000
0000
0200
0000
,
0300
0000
0000
0000
0000
0000
0001
0000
1000
0000
0100
0000
0010
0000
0000
0100
,
0000
0000
1000
0000
M001
0010
0001
0000
0000
0000
100M
0100
1000
0000
0000
0000
,
00M1
1000
0001
0000
0000
0000
1000
0000
0100
0000
0010
0000
0001
0000
0000
0010
,
0000
0000
0001
0000
1000
0010
1000
0000
0001
0100
0001
0000
1000
0100
1000
0100
,
0010
0000
0001
0000
0000
0000
1000
0000
0100
0000
0010
0000
0001
0000
0000
1000
,
0000
0000
0010
0000
01M0
0001
0100
0000
0000
0000
0M10
1000
0010
0000
0000
0000
,
10M0
0001
1000
0000
0000
0000
0100
0000
0010
0000
0001
0000
1000
0000
0000
0010
,
0000
0000
1000
0000
0000
0000
0001
0000
0010
0100
0000
0010
0000
0010
0100
0000
,
1000
0001
0100
0000
011M
0000
0010
0000
,
1M10
0000
1000
0000
11M0
0000
0100
0010
,
0001
1000
0010
0000
M110
0000
0100
0000
,
M101
0001
2000
0000
0000
0000
3001
0000
,
0011
0000
0000
0001
1000
0100
0010
0100
1000
0001
0100
0010
,
1000
0000
0001
0000
0010
0000
0200
0300
0020
0030
0002
0003
2000
3000
0020
0030
2000
3000
0200
0300
0020
0030
0002
0003
,
2000
3000
0020
0030
0200
0300
0002
0000
0203
0000
0320
0000
2030
0000
3002
0000
0023
0000
0230
0000
2300
0000
3200
0000
,
0320
0032
2003
3100
1000
0100
1000
0001
0100
0001
0100
0001
,
0010
0100
1000
0004
0000
0000
0003
0000
0000
4000
0000
0000
,
3000
0000
0000
0040
4000
0000
0000
0000
0000
0000
0000
0000
,
0000
0000
3030
0000
0001
0100
0001
0100
0010
1000
0010
1000
0001
0000
1000
0000
,
0100
0000
0010
0000
0001
1000
0001
1000
0100
0010
0100
0010
0001
0000
1000
0000
,
0010
0000
0100
0000
M001
0100
M001
0000
10M0
0001
10M0
0000
010M
0010
010M
0000
,
M010
0001
M010
0000
0001
1000
0001
1000
0010
0100
0010
0100
0001
0000
0010
0000
,
0100
0000
1000
0000
0001
0010
0001
0010
0100
1000
0100
1000
0001
0000
0100
0000
,
0010
0000
1000
0000
0010
0100
0010
0100
0001
1000
0001
1000
0010
0000
0100
0000
,
0001
0000
1000
0000
1100
0000
0000
0000
0100
0000
0000
0000
0110
0000
0000
0010
,
0001
0000
0001
0010
0100
1000
0001
0100
,
0010
0000
0000
0000
0000
0000
0100
0000
0000
0000
0000
0000
0001
0000
0000
0000
000M
0000
0000
0000
0000
0001
0000
0000
0000
0000
0000
0001
0000
0000
0010
0000
0000
0000
0000
0000
0100
0000
0000
0000
0M00
0000
0000
0000
0000
0100
0000
0000
,
0000
0000
0000
0100
0000
0000
1000
0000
0000
0000
0000
0000
0001
0000
0000
0100
0000
0000
0001
0000
0000
0000
M00M
0000
0000
0000
0000
2000
0000
0000
0000
0000
0000
0000
0000
0000
3001
0000
0000
0000
0000
0000
0001
0000
0000
0000
0000
0000
,
0010
0000
0100
0000
0100
0000
0010
0000
0001
0000
0001
0000
1M00
0010
1000
0010
,
0100
0000
0001
0000
10M0
0001
1000
0001
0010
0000
0100
0000
1000
0000
1000
0000
,
0001
0100
0100
0010
1000
1000
1M10
0000
,
011M
0000
M101
0000
1M01
0000
M001
0001
,
0M10
0100
01M0
0010
1M00
1000
M010
0001
,
0M01
0010
M001
0001
01M0
0010
1M00
1000
,
M010
0000
0000
0100
0000
0000
01M0
0000
0000
0010
0000
0000
0001
0000
0000
0001
0000
0000
002M
0000
2030
0000
3002
0000
,
M023
0032
2003
3M20
0230
0302
20M3
3200
0320
M031
0000
0000
,
0000
0000
0010
0100
1000
000M
00M0
0M00
0000
0000
0100
0010
0001
M000
0M00
00M0
,
0000
0000
0010
0100
1000
000M
00M0
0M00
0000
0000
1000
0001
0100
0000
0001
0000
,
1000
0100
0010
0100
1000
0010
M120
0130
,
0010
0100
0001
1000
0001
1000
210M
3100
,
0010
0100
0010
0100
1000
0001
M012
0003
,
0010
0110
0100
1100
,
1000
0000
0001
0100
0001
0010
0100
0000
,
1100
1000
1001
0001
,
0101
0000
0000
0000
0000
0000
0000
0000
0000
0000
0000
0000
0100
0000
0000
0000
0000
0000
0010
0000
0000
0000
0000
0000
1000
0000
0000
0000
0000
0000
0100
0000
0000
0000
0000
0000
M040
0000
0000
0000
0000
0000
0030
0000
0M00
0004
0000
0000
,
0000
0000
0000
0003
00M0
0000
4000
0000
0000
0000
0000
0000
300M
0000
0000
0000
0000
0000
0000
0000
0000
0000
0000
0000
0010
0000
0000
0000
0000
0000
1000
0000
0000
0100
0000
0000
1000
0000
0000
0000
0000
0000
0001
0000
0000
0000
0000
0000
,
0100
0010
0100
0000
00M1
0100
0001
0100
0010
0000
1000
0000
M001
0010
0001
0010
,
0100
1000
0001
0000
1000
0100
0010
0001
,
0010
0000
0100
0000
10M0
0100
1000
0100
0010
0000
0001
0000
1M00
0010
1000
0010
,
0100
0000
0001
0000
0000
0000
0000
0000
1000
0000
0100
0010
0100
0000
0010
0000
,
0001
0010
0001
0000
1000
0000
0010
0000
0100
0010
0100
0000
0001
0000
1000
0000
,
0100
0000
0010
0000
0M01
1000
0001
1000
0010
0000
1000
0000
01M0
1000
0100
1000
,
0001
0000
0100
0000
0000
0000
0010
0000
1000
0001
0000
0010
0000
0010
0100
0000
,
1000
0000
0001
0000
0000
0000
1M00
0000
00M1
0100
0000
001M
0000
0010
1000
0000
,
0M01
0000
0100
0000
0000
0000
0001
0000
1000
0001
0100
0000
0001
0000
0010
0000
,
0100
1000
0M00
0010
1000
0001
0100
0001
,
0010
0100
1000
0000
M000
0000
0001
0000
1000
0000
0100
0000
0010
0000
0100
0000
,
1000
0000
0001
0000
01M0
0000
0010
0000
1000
0010
1000
0000
0001
1000
0001
0000
,
0100
0001
0100
0000
002M
0000
1030
0000
0100
0000
2M00
0000
3010
0000
1000
0000
,
M200
0000
0310
0000
00M2
0000
0103
0000
0001
0000
0010
0000
02M0
0000
1300
0001
,
1000
0000
0100
0000
0010
0000
0000
0000
0001
0000
0000
0000
1000
0000
0000
0100
,
0010
0000
0M12
0013
010M
1000
0M01
0010
,
010M
1000
1M20
0130
00M1
1000
0M10
0100
,
00M1
0000
1000
0000
01M0
0000
0010
0001
0000
0001
1000
0000
0M10
0000
0010
0100
,
0000
0100
0001
0000
1000
0100
1000
0000
0000
0000
0000
0000
0000
0000
0000
0000
,
4004
0000
0000
0000
0000
0000
0000
0000
0000
0000
0000
0000
0000
3003
0000
0000
;

//---------------dance-single - Ace Of Hearts (2009)----------------
#NOTES:
     dance-single:
     Ace Of Hearts (2009):
     Medium:
     7:
     0.421,0.050,0.020,0.210,0.092:
0000
0000
0000
0000
,
0000
0000
0000
0000
0000
0000
0000
0002
,
1003
1000
0020
0130
0100
0002
1003
1000
,
0020
0130
0100
0001
1000
0001
2000
0000
,
3000
0000
0010
0010
0000
0100
0100
0001
,
1000
1000
0020
0130
0100
0001
0001
1000
,
2000
0000
0000
3002
0000
0000
0203
0000
,
0000
0320
0000
0000
1030
0000
0001
0000
,
0010
0001
1000
0100
,
0010
0001
1001
0000
,
0000
0000
0000
0000
0000
0000
1000
0000
0100
0000
0010
0000
0001
0000
0000
0010
,
0000
0100
1000
1000
0000
0001
0001
0000
,
0100
0000
0100
0000
0000
0000
0001
0000
1000
0000
0001
0000
0010
0000
0000
0001
,
0000
1000
0010
0010
1000
1000
0001
0010
,
0001
0000
1000
0000
0000
0000
0100
0000
0010
0000
0001
0000
0010
0000
0000
0100
,
0000
1000
0001
0001
0000
1000
1000
0000
,
0010
0000
0010
0000
0000
0000
1000
0000
0001
0000
0100
0000
0010
0000
0000
0100
,
0000
0000
0001
0000
0000
0000
1000
0000
0100
0000
0000
0010
0000
0000
0100
0000
,
0010
0001
1000
0000
0100
0000
1000
0000
,
0001
0000
0010
0000
0001
0000
1000
0100
,
1000
0001
1000
0000
0100
0000
1000
0000
,
0001
0020
0000
0130
,
1000
0000
0000
0001
0000
0001
0100
0000
0100
0010
0000
0010
,
1000
0000
1000
0001
0000
0001
0010
0000
0010
0100
0000
0100
,
0010
0000
0010
0001
0000
0001
1000
0000
1000
0100
0000
0100
,
0010
0000
0010
0002
0000
0000
2003
0000
0000
3200
0000
0000
,
0320
0034
0003
4000
,
3000
0000
0000
0004
0040
0000
0000
0000
0000
0000
0000
0000
,
0000
0000
0033
0000
0001
0000
0000
0000
0001
0000
0000
0001
0000
0000
1000
0000
,
0100
0000
1000
0000
0010
0000
0000
0000
0010
0000
0000
0010
0000
0000
0100
0000
,
0001
1000
0010
0010
0100
0100
0001
0001
,
1000
1000
0100
0100
0010
0010
0001
0001
,
1000
0000
1000
0000
0100
0000
0000
0000
0100
0000
0000
0100
0000
0000
0010
0000
,
0100
0000
1000
0000
0001
0000
0000
0000
0001
0000
0000
0001
0000
0000
1000
0000
,
0010
1000
0001
0000
1000
0000
0100
0000
,
0110
0000
0010
0001
1000
0010
1000
0001
,
0010
0000
0100
0000
0010
0000
0000
0010
0000
0000
0010
0000
0001
0000
0000
0001
,
0000
1000
0010
1000
0000
0000
0001
0000
,
0001
0000
1000
0010
0000
0100
0002
0000
,
2003
3020
0230
0301
,
1000
0000
0100
0010
0000
0001
1000
0000
,
0010
0100
0001
1000
,
0010
0000
1000
0001
0000
0100
0010
0000
,
0100
0001
0000
1000
0100
0010
0100
0000
,
1000
0000
0001
0100
0000
0001
2000
0000
,
3200
0320
0032
1003
,
0000
0001
0100
0000
0000
0010
1000
0000
,
0000
0001
1000
0000
0000
0001
0010
0001
,
1000
0010
1000
0100
0010
0001
1000
0100
,
1000
0100
0010
0001
1000
0001
0010
0001
,
0010
0001
1000
0001
0100
0010
1000
0000
,
0001
0010
0100
0010
,
0001
0000
1000
0100
1000
0001
0100
0000
,
0010
0100
0001
1000
,
0100
0000
0000
0000
1000
0000
0001
0000
0100
0000
0010
0000
4000
0000
0000
3000
,
0000
0001
0000
0000
1000
0100
0010
0100
,
1000
0001
2000
0000
0000
0000
3002
0000
,
0203
0000
0300
0000
0001
0100
0010
0100
,
0001
1000
0020
0000
0000
0000
0230
0000
,
0302
0000
0003
0000
1000
0100
0010
0001
,
1000
0010
0100
0001
1000
0001
0010
0100
,
1000
0001
2000
0000
0000
0000
3020
0000
,
0230
0000
0000
0000
0300
0000
0001
0000
1000
0000
0000
0010
0000
0000
0010
0000
,
0100
0000
0001
0000
0000
0000
1000
0000
0001
0000
0000
0100
0000
0000
0100
0000
,
0010
1000
0001
0010
0100
1000
0001
0010
,
0100
0010
0001
1000
0001
1000
0001
0010
,
0100
0010
0001
1000
0010
0100
0001
1000
,
0100
0010
0000
0100
0010
0000
0001
0000
,
1000
0000
0010
0100
0001
1000
0100
0010
,
0100
1000
0001
0100
0001
1000
0010
0100
,
0001
1000
0100
0000
0010
0000
0001
0000
,
0011
0000
0001
0010
0100
1000
0001
0010
,
0001
1000
0010
0100
0001
1000
0010
0100
,
0001
0000
1000
0000
0100
0000
0000
0100
0000
0000
0100
0000
1000
0000
0000
1000
,
0000
1000
0001
0010
0000
0000
0000
0000
,
0400
0000
0000
0000
0000
0000
0000
0000
0000
0000
0000
0000
0000
0300
0000
0000
;

//---------------dance-single - Ace Of Hearts (2009)----------------
#NOTES:
     dance-single:
     Ace Of Hearts (2009):
     Easy:
     4:
     0.204,0.050,0.007,0.151,0.000:
0000
0000
0000
0000
,
0000
0000
0000
0000
0000
0000
0000
0002
,
0003
0000
0002
0003
0000
2000
3000
0000
,
2000
3000
0000
0010
0000
0000
0020
0030
,
0000
0000
1000
0000
0000
1000
0000
0001
,
0000
0000
0002
0003
0000
0010
0000
0010
,
0002
0000
0000
0003
0000
0000
2000
0000
,
0000
3000
0000
0000
0010
0000
0010
0000
,
0010
0000
1000
1000
,
1000
0000
0001
0000
,
0000
0000
0010
0010
,
0000
0000
0001
0000
0000
0001
0000
0000
,
0000
0000
1000
1000
,
0000
0100
0100
0100
,
0000
0000
1000
1000
,
0000
0000
0001
0000
0000
0001
0000
0000
,
0000
0000
0100
0100
,
0000
0000
0020
0000
,
0030
1000
1000
1000
,
0000
0001
0001
0001
,
0000
0100
0100
0100
,
0000
0020
0000
0030
,
0000
1000
0000
1000
,
0000
0001
0000
0001
,
0000
0100
0000
0100
,
0000
0010
0000
0010
,
0000
2000
3000
0002
,
0003
0040
0000
0000
,
0030
0001
0001
0001
,
0000
1000
1000
1000
,
0000
0010
0010
0010
,
0010
0100
0100
0100
,
0100
0001
0001
0001
,
0000
1000
1000
1000
,
0000
0100
0100
0100
,
0100
0010
0010
0010
,
0010
0001
0000
0001
,
0000
0001
0000
1000
,
0000
1000
0000
0010
,
0010
0010
0000
0100
,
0000
0100
0000
0001
,
0001
0001
0000
2000
,
0001
3001
0000
0002
,
1000
1003
0000
0200
,
0010
0310
0000
0020
,
0000
0000
0030
0001
,
0000
0001
0000
1000
,
0000
1000
0000
0100
,
0100
0100
0100
0010
,
0010
0010
0010
0001
,
0001
0001
0001
1000
,
1000
1000
0000
0001
,
0001
0001
0000
0100
,
0100
0100
0000
0010
,
0010
0010
0000
0004
,
0000
0003
0000
0000
1000
0000
1000
0000
,
1000
0200
0000
0000
,
0000
0300
0010
0010
,
0010
0002
0000
0000
,
0000
0003
1000
1000
,
1000
0010
0010
0100
,
0100
0002
0000
0000
,
0000
0003
1000
1000
,
1000
0000
0100
0100
,
0100
0000
0010
0001
,
0010
0000
0001
1000
,
0001
0000
1000
0100
,
1000
0000
0001
0100
,
0001
2000
3000
0020
,
0030
2000
3000
0002
,
0003
1000
1000
1000
,
1000
0010
0010
0010
,
0010
0100
0100
0100
,
0100
0001
0001
0001
,
0000
1001
0000
0000
,
0400
0000
0000
0000
0000
0000
0000
0000
0000
0000
0000
0000
0000
0300
0000
0000
;

//---------------dance-single - Ace Of Hearts (2009)----------------
#NOTES:
     dance-single:
     Ace Of Hearts (2009):
     Beginner:
     2:
     0.134,0.050,0.000,0.197,0.000:
0000
0000
0000
0000
,
0000
0000
0000
0000
0000
0000
0000
0002
,
0000
0000
0003
0000
0000
2000
0000
0000
,
3000
0000
0000
0010
0000
0000
0010
0000
,
0000
0000
1000
0000
0000
1000
0000
0000
,
0000
2000
3000
0000
,
0002
0000
0000
0000
,
0000
0003
0000
0000
1000
0000
0000
0000
,
1000
0000
0001
0000
,
0001
0000
0010
0000
,
0000
0000
0000
0001
,
0000
0002
0000
0003
,
0000
0000
0000
1000
,
0000
2000
0000
3000
,
0000
0000
0000
0010
,
0000
0020
0000
0030
,
0000
0000
0000
0100
,
0000
0200
0000
0300
,
0000
0001
0000
0001
,
0000
0001
0000
0000
,
0000
1000
0000
1000
,
0000
2000
0000
3000
,
0000
0002
0000
0003
,
0000
2000
0000
3000
,
0000
0200
0000
0300
,
0000
0020
0000
0030
,
0000
0002
0000
0003
,
0000
4000
0000
3000
,
0000
0002
0000
0003
,
0000
0002
0000
0003
,
0000
0010
0000
0010
,
0000
0020
0000
0030
,
0000
0200
0000
0300
,
0000
0200
0000
0300
,
0000
1000
0000
1000
,
0000
0001
0000
0001
,
0000
0100
0000
0100
,
0000
0100
0000
0001
,
0000
0001
0000
0002
,
0000
0003
0000
1000
,
0000
1000
0000
2000
,
0000
3000
0000
0010
,
0000
0010
0000
1000
,
0000
1000
0000
0001
,
0000
0001
0000
0020
,
0000
0000
0030
0002
,
0000
0003
0000
0002
,
0000
0003
0000
1000
,
0000
1000
0000
0100
,
0000
0100
0000
0100
,
0000
0100
0000
0010
,
0000
0010
0000
0010
,
0000
0010
0000
0001
,
0000
0001
0000
0001
,
0000
1000
0000
4000
,
0000
3000
0001
0000
0000
0000
0001
0000
,
0000
0002
0000
0003
,
0000
1000
0000
1000
,
0000
2000
0000
3000
,
0000
0001
0000
0001
,
0000
0100
0000
0100
,
0000
0020
0000
0030
,
0000
2000
0000
3000
,
0000
0002
0000
0003
,
0000
0100
0000
0100
,
0000
0010
0000
0010
,
0000
1000
0000
1000
,
0000
0001
0000
0001
,
0000
1000
0000
0001
,
0000
1000
0000
0010
,
0000
2000
0000
3000
,
0000
0001
0001
0001
,
0000
1000
1000
1000
,
0000
0010
0000
0010
,
0000
0010
0000
0000
,
0040
0000
0000
0000
0000
0000
0000
0000
0000
0000
0000
0000
0000
0030
0000
0000
;
