#TITLE:Egg Song;
#SUBTITLE:;
#ARTIST:I Love Egg;
#TITLETRANSLIT:;
#SUBTITLETRANSLIT:;
#ARTISTTRANSLIT:;
#GENRE:;
#CREDIT:Ace Of Hearts;
#BANNER:Egg Song - bn.png;
#BACKGROUND:Egg Song - bg.jpg;
#LYRICSPATH:;
#CDTITLE:Ace Of Hearts.png;
#MUSIC:Egg Song.ogg;
#OFFSET:8.600;
#SAMPLESTART:45.600;
#SAMPLELENGTH:12.000;
#SELECTABLE:YES;
#BPMS:0.000=137.000;
#STOPS:;
#BGCHANGES:4.000=Egg Song Video.avi=1.000=0=0=1=====,
99999=-nosongbg-=1.000=0=0=0 // don't automatically add -songbackground-
;
#KEYSOUNDS:;

//---------------dance-single - Ace Of Hearts (2010)----------------
#NOTES:
     dance-single:
     Ace Of Hearts (2010):
     Hard:
     7:
     0.403,0.000,0.052,0.412,0.000:
0000
0000
0000
0000
,
0000
0000
0000
0000
,
0000
0000
0000
0000
,
0000
0000
0000
0000
,
0000
0000
0000
0000
,
0000
0000
0000
0000
,
0000
0000
0000
0000
,
0000
0000
0000
0000
,
0000
0000
0000
0000
,
0001
0010
0001
2000
0000
3000
0000
0020
,
0000
1030
0001
2000
0000
3000
0000
0000
,
0100
1000
0100
1000
0001
2000
0000
3010
,
0000
1000
0001
1000
0001
0000
0000
0000
,
2000
0000
3010
2000
0000
3001
0000
0010
,
0002
0000
1003
0020
0000
0130
0000
0000
,
0010
1000
0000
0002
0000
1003
0001
1000
,
0020
1030
0001
0000
,
1000
0010
1000
0001
0000
0000
0100
0002
,
0000
1003
0010
1000
0000
0000
0000
0000
,
0001
1000
0001
0100
0001
2000
0000
3010
,
0000
0000
0100
0001
1000
0001
0000
0000
,
2000
0000
3010
2000
0000
3001
0000
0000
,
0020
0000
0031
1000
0000
0000
0000
0000
,
0001
0100
0001
1000
0001
2000
0000
3010
,
0000
1000
0001
1000
0001
0000
0010
0000
,
0001
1000
0001
1000
0020
0000
1030
0001
,
0000
0010
0001
0010
0200
0000
1300
0000
,
1100
0110
0011
0000
,
0001
1000
0010
1000
0001
1000
0100
1000
,
0001
0100
0010
0000
,
1000
0001
0020
0030
,
0001
2000
0000
3001
0000
0100
0001
0000
,
1000
0020
0000
0130
0000
0010
1000
0000
,
0001
1000
0001
1000
0010
2000
0000
3001
,
0001
0010
0100
1000
,
0001
0100
0001
0100
0020
0000
0130
0000
,
0001
0000
1000
0020
0000
0000
2030
0000
,
3001
0000
0000
0000
,
1000
0000
0010
0100
0010
0000
0000
0000
,
1000
0002
0000
0013
0000
0001
1000
0000
,
0010
0200
0000
0310
0000
1000
0001
0000
,
1000
0010
1000
0001
1000
0200
0000
0310
,
0001
0010
0100
1000
,
0001
1000
0001
0010
0001
1000
0001
0100
,
0000
0010
0100
0010
2000
0000
3002
0000
,
0013
0000
0110
0000
,
0000
0100
1000
0001
2000
0000
3002
0000
,
0103
0000
0000
0000
;

//---------------dance-single - Ace Of Hearts (2010)----------------
#NOTES:
     dance-single:
     Ace Of Hearts (2010):
     Medium:
     5:
     0.320,0.000,0.013,0.296,0.000:
0000
0000
0000
0000
,
0000
0000
0000
0000
,
0000
0000
0000
0000
,
0000
0000
0000
0000
,
0000
0000
0000
0000
,
0000
0000
0000
0000
,
0000
0000
0000
0000
,
0000
0000
0000
0000
,
0000
0000
0000
0000
,
0002
0000
1003
0010
0000
0000
0000
2000
,
0000
3001
0100
0001
0000
0000
0000
0000
,
1000
0100
1000
0000
0001
0100
0000
0010
,
0000
1000
0001
0000
1000
0000
0000
0000
,
0020
0000
1030
0001
0000
1000
0000
0010
,
0100
0000
0010
0200
0000
0301
0000
0000
,
1000
0001
0000
0020
0000
0031
1000
0000
,
0010
1000
0001
0000
,
2000
0000
3001
0100
0000
0000
0010
2000
,
0000
3001
0010
0001
0000
0000
0000
0000
,
1000
0001
1000
0000
0010
1000
0000
0001
,
0000
0000
0010
0001
0010
0000
0000
0000
,
0002
0000
1003
0010
0000
1000
0000
0000
,
0002
0000
1003
0100
0000
0000
0000
0000
,
1000
0100
1000
0000
0001
0010
0000
0001
,
0000
1000
0010
0000
1000
0000
0001
0000
,
0100
0001
0100
0000
0020
0000
1030
0001
,
0000
1000
0001
0000
0020
0000
0031
0000
,
1000
1000
1000
0000
,
0001
0100
0001
0000
1000
0010
1000
0000
,
0001
0001
0001
0000
,
1000
0100
0020
0030
,
0001
0020
0000
0130
0000
0000
0000
0000
,
0010
0002
0000
1003
0000
0000
0000
0000
,
0010
1000
0001
0000
1000
0020
0000
0230
,
0000
0300
0000
0000
,
0001
1000
0001
0000
2000
0000
3100
0000
,
0010
0000
0100
2000
0000
0000
3001
0000
,
0100
0000
0000
0000
,
0010
0000
1000
0010
1000
0000
0000
0000
,
0001
2000
0000
3010
0000
0000
0000
0000
,
0100
0002
0000
1003
0000
0000
0000
0000
,
0100
0010
0001
0000
1000
0001
0000
0200
,
0000
0300
0000
0000
,
0010
1000
0010
0000
1000
0001
1000
0010
,
0000
1000
0001
0010
0002
0000
1003
0000
,
0010
0000
1001
0000
,
0000
1000
0100
0010
0002
0000
1003
0000
,
0010
0000
0000
0000
;

//---------------dance-single - Ace Of Hearts (2010)----------------
#NOTES:
     dance-single:
     Ace Of Hearts (2010):
     Easy:
     3:
     0.164,0.000,0.000,0.000,0.000:
0000
0000
0000
0000
,
0000
0000
0000
0000
,
0000
0000
0000
0000
,
0000
0000
0000
0000
,
0000
0000
0000
0000
,
0000
0000
0000
0000
,
0000
0000
0000
0000
,
0000
0000
0000
0000
,
0000
0000
0000
0000
,
0001
1000
0001
0000
,
1000
0001
1000
0000
,
0010
0000
0010
0000
,
0010
0000
0000
0000
,
1000
0000
1000
0000
,
0001
0000
0001
0000
,
0100
0000
0100
0000
,
0001
1000
0001
0000
,
1000
0000
1000
0000
,
0100
0010
0100
0000
,
0010
0000
0010
0000
,
0010
0000
0000
0000
,
0001
0000
0001
0000
,
1000
0000
1000
0000
,
0010
0100
0010
0000
,
0010
0000
0000
0000
,
0100
0010
0100
0000
,
0001
1000
0001
0000
,
0010
0010
0010
0000
,
0001
1000
0001
0000
,
0100
0100
0100
0000
,
0000
0000
0000
0000
,
0001
0001
0000
0001
0000
0000
0000
0000
,
1000
1000
0000
1000
0000
0000
0000
0000
,
0010
0100
0010
0000
,
1000
0000
0000
0000
,
0001
0100
0001
0000
,
1000
0010
1000
0000
,
0001
0000
0000
0000
,
0000
0000
0000
0000
,
0100
0100
0000
0100
0000
0000
0000
0000
,
0010
0010
0000
0010
0000
0000
0000
0000
,
1000
0010
1000
0000
,
0001
0000
0000
0000
,
1000
0010
1000
0001
,
1000
0000
0010
0010
,
0010
0000
1000
0000
,
0000
0001
0010
0001
,
1000
0000
0000
0000
;

//---------------dance-single - Ace Of Hearts (2010)----------------
#NOTES:
     dance-single:
     Ace Of Hearts (2010):
     Beginner:
     1:
     0.129,0.000,0.000,0.090,0.000:
0000
0000
0000
0000
,
0000
0000
0000
0000
,
0000
0000
0000
0000
,
0000
0000
0000
0000
,
0000
0000
0000
0000
,
0000
0000
0000
0000
,
0000
0000
0000
0000
,
0000
0000
0000
0000
,
0000
0000
0000
0000
,
0001
0000
0001
0000
,
1000
0000
1000
0000
,
0010
0000
0010
0000
,
0010
0000
0000
0000
,
1000
0000
1000
0000
,
0001
0000
0001
0000
,
0020
0000
0030
0000
,
0010
0000
0010
0000
,
0001
0000
0001
0000
,
1000
0000
1000
0000
,
0001
0000
0001
0000
,
0001
0000
0000
0000
,
0100
0000
0100
0000
,
0010
0000
0010
0000
,
2000
0000
3000
0000
,
1000
0000
0000
0000
,
0001
0000
0001
0000
,
0100
0000
0100
0000
,
0010
0010
0010
0000
,
1000
0000
1000
0000
,
0001
0001
0001
0000
,
0000
0000
0000
0000
,
2000
0000
0000
3000
0000
0000
0000
0000
,
0020
0000
0000
0030
0000
0000
0000
0000
,
0100
0000
0100
0000
,
0100
0000
0000
0000
,
0001
0000
0001
0000
,
1000
0000
1000
0000
,
1000
0000
0000
0000
,
0000
0000
0000
0000
,
0002
0000
0000
0003
0000
0000
0000
0000
,
0200
0000
0000
0300
0000
0000
0000
0000
,
0010
0000
0010
0000
,
0010
0000
0000
0000
,
2000
0000
3000
0000
,
0000
0001
0001
0001
,
0001
0000
0000
0000
,
0000
0010
0010
0010
,
0010
0000
0000
0000
;

//---------------dance-single - Ace Of Arrows (2018)----------------
#NOTES:
     dance-single:
     Ace Of Arrows (2018):
     Challenge:
     9:
     0.701,0.000,0.580,1.000,0.155: // measure 1
0000
0000
0000
0000
,  // measure 2
0000
0000
0000
0000
,  // measure 3
0000
0000
0000
0000
,  // measure 4
0000
0000
0000
0000
,  // measure 5
0000
0000
0000
0000
,  // measure 6
0000
0000
0000
0000
,  // measure 7
0000
0000
0000
0000
,  // measure 8
0000
0000
0000
0000
,  // measure 9
0000
0000
0000
0000
,  // measure 10
2001
0000
3010
0100
0010
0000
2000
0000
3001
0000
0010
0000
0100
0000
2100
0000
,  // measure 11
0000
0000
3001
0100
0001
0000
2000
0000
3100
0000
0010
0000
0100
0000
1000
0000
,  // measure 12
1002
0000
0103
0010
0100
0000
0001
0000
1000
0100
2000
0000
3000
0000
1002
0000
,  // measure 13
0000
0103
0010
1000
2002
3000
0103
0000
,  // measure 14
0120
0000
1030
0001
1000
0000
0200
0000
0000
0000
0310
0000
0001
0000
1000
0000
,  // measure 15
1020
0000
0130
0001
0100
0000
0020
0000
0000
0000
1030
0000
0001
0000
0010
0000
,  // measure 16
0100
0000
1000
0000
0000
0000
1002
0000
0000
0000
0103
0010
0100
0000
0001
0000
,  // measure 17
2001
0200
0001
3300
,  // measure 18
1000
0000
0001
0010
0001
0000
1000
0000
0010
0000
0000
0000
0100
0000
0102
0000
,  // measure 19
0000
0000
1003
0100
1000
0000
0002
0000
0000
0000
0103
0000
0010
0000
1000
0000
,  // measure 20
0001
0100
0001
0000
1000
0000
0100
0000
0010
0000
0200
0000
0300
0000
2200
0000
,  // measure 21
3300
0000
2100
3001
0102
2000
0003
3000
,  // measure 22
1020
0000
0130
0001
0100
0000
0020
0000
0000
0000
2030
0000
3001
0000
0010
0000
,  // measure 23
0210
0000
1300
0001
1000
0000
0020
0000
0000
0000
0130
0000
0001
0000
1000
0000
,  // measure 24
1100
0100
0010
0001
1002
0200
0000
1000
,  // measure 25
0303
0000
0001
0000
1000
0000
0100
0000
0220
0000
0330
0000
0011
0000
0001
1000
,  // measure 26
0001
0100
0010
1000
1002
0023
0130
1100
,  // measure 27
0000
1000
0001
0100
0120
2030
3001
0000
,  // measure 28
0101
0110
1110
0000
,  // measure 29
1001
0001
0011
0010
0110
0100
1000
0001
,  // measure 30
0102
2000
0010
3003
,  // measure 31
1020
0000
0000
0000
0230
0000
0000
0000
0301
0100
0001
0100
0010
1000
0010
1000
,  // measure 32
0001
0020
0000
0130
0000
1000
2002
3000
,  // measure 33
0103
0020
0030
2010
0000
3001
0021
0000
,  // measure 34
0130
0000
1000
0000
0001
0100
0001
0000
1000
0000
0200
0000
0000
0000
0310
0000
,  // measure 35
0002
0000
2003
3000
1020
0000
0230
0000
,  // measure 36
0301
0000
1000
0000
0100
0010
0100
0000
2000
0000
3001
0000
0200
0000
0000
0000
,  // measure 37
0320
1030
0001
0021
0000
0230
2000
0000
,  // measure 38
0001
0000
3300
0000
,  // measure 39
1002
0000
0103
0010
2010
3001
0010
0100
,  // measure 40
1000
0100
2000
0000
3000
0000
1002
0000
0000
0000
0103
0000
0020
0000
0000
0000
,  // measure 41
1030
0001
2000
0000
0000
0000
3200
0000
0000
0000
1300
0000
0002
0000
0000
0000
,  // measure 42
2003
0000
3010
0000
0100
0001
0100
0000
0010
0000
2000
0000
0000
0000
3001
0000
,  // measure 43
0021
0000
0230
0000
2300
3000
1002
0000
,  // measure 44
0103
0010
1000
0100
0001
0010
1000
0002
,  // measure 45
0003
0000
1000
0000
0001
0010
0001
0000
2000
0000
0000
0000
3020
0000
0030
0000
,  // measure 46
0210
0000
0301
1000
0001
0000
0010
0000
0100
0000
1000
0000
0100
0000
0010
0000
,  // measure 47
0110
0100
1000
0001
0201
0000
0320
0030
,  // measure 48
2020
3030
1002
0000
0013
0200
0000
0300
;
