#TITLE:Animals;
#SUBTITLE:;
#ARTIST:Nickelback;
#TITLETRANSLIT:;
#SUBTITLETRANSLIT:;
#ARTISTTRANSLIT:;
#GENRE:Rock;
#CREDIT:Ace Of Hearts;
#BANNER:Animals - bn.png;
#BACKGROUND:Animals - bg.jpg;
#LYRICSPATH:;
#CDTITLE:Ace Of Hearts.png;
#MUSIC:Animals.ogg;
#OFFSET:-0.220;
#SAMPLESTART:50.080;
#SAMPLELENGTH:12.000;
#SELECTABLE:YES;
#BPMS:0.000=154.000,320.000=77.000,336.000=154.000;
#STOPS:;
#BGCHANGES:;
#KEYSOUNDS:;

//---------------dance-single - Hard----------------
#NOTES:
     dance-single:
     Ace Of Hearts (2010):
     Hard:
     8:
     0.502,0.000,0.000,0.321,0.083: // measure 1
0000
0000
0000
0000
,  // measure 2
0000
0000
0000
0000
,  // measure 3
0000
0000
0000
0000
,  // measure 4
0000
0000
0000
0000
,  // measure 5
1000
0010
0000
1000
0000
0001
0000
0010
,  // measure 6
0001
1000
0010
0000
0000
1000
0001
0000
,  // measure 7
0010
0001
0000
1000
0000
0100
0000
1000
,  // measure 8
0001
0100
0010
0100
0001
1000
0100
0010
,  // measure 9
0001
1000
0000
0001
0000
0100
0000
0010
,  // measure 10
1000
0001
0000
1000
0100
0010
0100
1000
,  // measure 11
0001
0100
0000
0010
0000
1000
0000
0001
,  // measure 12
0010
0001
1000
0100
1000
0001
0100
0000
,  // measure 13
0010
1000
0000
0001
0000
0100
0000
0010
,  // measure 14
0100
0001
0000
1000
0100
1000
0001
0100
,  // measure 15
0010
0100
0000
0001
0000
1000
0000
0010
,  // measure 16
1000
0001
0010
0001
1000
0100
0010
0000
,  // measure 17
0002
0000
0003
1000
0010
0100
0010
1000
,  // measure 18
0002
0000
0003
0010
0001
1000
0001
0010
,  // measure 19
0100
1000
0001
1000
0010
1000
0010
1000
,  // measure 20
0001
0100
0001
0100
0010
1000
0100
1000
,  // measure 21
0020
0000
0030
1000
0002
0000
0003
1000
,  // measure 22
0200
0000
1300
0001
1000
0010
0100
0001
,  // measure 23
0100
0010
1000
0001
1000
0100
0010
0100
,  // measure 24
1000
0001
0100
0010
0100
0001
1000
0100
,  // measure 25
0020
0000
0030
0100
1000
0001
1000
0010
,  // measure 26
2000
0000
3000
0001
0100
0010
1000
0001
,  // measure 27
1000
0100
0010
0100
1000
0001
1000
0001
,  // measure 28
0010
0001
1000
0001
0010
0100
1000
0001
,  // measure 29
0200
0000
0300
0001
2000
0000
3000
0100
,  // measure 30
0010
0100
1000
0001
1000
0001
0100
0001
,  // measure 31
1000
0010
1000
0001
0010
0001
1000
0010
,  // measure 32
1000
0100
1000
0001
0100
0010
1000
0001
,  // measure 33
0020
0000
0030
0001
1000
0010
1000
0001
,  // measure 34
0010
0000
0000
0010
0001
1000
0010
0100
,  // measure 35
0001
0000
0001
1000
0000
1000
0100
0010
,  // measure 36
0100
1000
0002
0000
0003
0000
0000
0000
,  // measure 37
0200
0000
0300
0010
1000
0001
1000
0100
,  // measure 38
2000
0000
3000
0001
0100
0010
0100
0001
,  // measure 39
2000
0000
3001
0100
0000
0100
0010
1000
,  // measure 40
0001
1000
0200
0000
0300
0000
0000
0000
,  // measure 41
0000
0000
0000
0000
,  // measure 42
0000
1000
0100
0010
0001
0010
0100
2000
,  // measure 43
0000
3000
0000
0000
0000
0000
0000
0000
,  // measure 44
0000
0000
0001
0020
0000
0031
1000
0002
,  // measure 45
0000
0003
0000
0000
0000
0000
0000
0000
,  // measure 46
0000
1000
0010
0100
0001
0100
0010
2000
,  // measure 47
0000
3000
0000
0000
0000
0000
0000
0000
,  // measure 48
0000
0000
0000
0000
,  // measure 49
0200
0000
0300
1000
0001
1000
0010
1000
,  // measure 50
0002
0000
1003
0010
1000
0100
0010
0001
,  // measure 51
1000
0001
0100
0010
1000
0001
0100
0001
,  // measure 52
1000
0100
0010
0100
1000
0001
1000
0001
,  // measure 53
0020
0000
0030
0001
2000
0000
3000
0010
,  // measure 54
0200
0000
0301
0100
0010
1000
0001
1000
,  // measure 55
0100
0010
0001
1000
0010
0100
0010
1000
,  // measure 56
0001
0010
0100
1000
0001
0100
0001
1000
,  // measure 57
0020
0000
0030
1000
0002
0000
0003
1000
,  // measure 58
0200
0000
0300
1000
0001
1000
0010
1000
,  // measure 59
0001
0010
0100
0010
0001
1000
0010
0100
,  // measure 60
0001
1000
0100
1000
0010
0100
0001
1000
,  // measure 61
0002
0000
0003
1000
0020
0000
0030
1000
,  // measure 62
0002
0000
0003
0100
0010
0100
0001
0100
,  // measure 63
1000
0100
0001
1000
0100
1000
0001
0100
,  // measure 64
0010
1000
0001
0010
0100
1000
0001
0100
,  // measure 65
0020
0000
0030
1000
0001
0010
0001
1000
,  // measure 66
0100
0000
0000
0100
0010
0001
1000
0001
,  // measure 67
0010
0000
0010
0100
0000
0100
0010
0001
,  // measure 68
1000
0010
0200
0000
0300
0000
0000
0000
,  // measure 69
0002
0000
0003
1000
0010
1000
0001
0010
,  // measure 70
0200
0000
0300
0010
0001
1000
0010
1000
,  // measure 71
0002
0000
1003
0100
0000
0100
1000
0001
,  // measure 72
0100
0010
2000
0000
3000
0000
0000
0000
,  // measure 73
0000
0000
0000
0000
,  // measure 74
0000
0001
0010
0100
1000
0100
0010
0002
,  // measure 75
0000
0003
0000
0000
0000
0000
0000
0000
,  // measure 76
0000
0000
1000
0020
0000
1030
0001
0200
,  // measure 77
0000
0300
0000
0000
0000
0000
0000
0000
,  // measure 78
0000
0001
0100
0010
1000
0010
0100
0002
,  // measure 79
0000
0003
0000
0000
0000
0000
0000
0000
,  // measure 80
0000
0000
0000
0000
,  // measure 81
2000
0000
3000
0001
0100
0010
0100
0001
0200
0000
0300
0010
1000
0001
0010
0100
,  // measure 82
0010
0001
1000
0100
1000
0001
0010
0001
1000
0010
1000
0001
0100
0001
1000
0100
,  // measure 83
0020
0000
0030
0001
2000
0000
3000
0001
0100
0001
1000
0100
0010
0100
1000
0001
,  // measure 84
1000
0010
1000
0001
0010
0100
1000
0001
0010
0001
1000
0010
1000
0001
0010
0100
,  // measure 85
2000
0000
3000
0001
0200
0000
0300
0001
,  // measure 86
2000
0000
3000
0001
0100
0010
1000
0100
,  // measure 87
0010
0001
1000
0010
1000
0001
0010
0001
,  // measure 88
1000
0010
0100
0010
1000
0001
0010
0100
,  // measure 89
1000
0001
0000
1000
0020
0000
0030
1000
,  // measure 90
0001
0010
0100
1000
0001
0100
0010
1000
,  // measure 91
0001
0010
0001
1000
0010
1000
0100
0010
,  // measure 92
0001
0010
0100
1000
0001
1000
0010
1000
,  // measure 93
0002
0000
0003
1000
0100
0010
0001
1000
,  // measure 94
0010
0000
0000
0010
1000
0001
0010
0100
,  // measure 95
1000
0000
1000
0001
0000
0001
0100
0010
,  // measure 96
0100
0001
2000
0000
3000
0000
0000
0000
,  // measure 97
0200
0000
0300
1000
0001
0100
0010
0100
,  // measure 98
0002
0000
0003
1000
0010
1000
0001
0010
,  // measure 99
0200
0000
0310
0001
0000
0001
1000
0010
,  // measure 100
0100
0001
2000
0000
3000
0000
0000
0000
,  // measure 101
0000
0000
0000
0000
,  // measure 102
0000
0001
0010
0100
1000
0100
0010
0002
,  // measure 103
0000
0003
0000
0000
0000
0000
0000
0000
,  // measure 104
0000
0000
1000
0020
0000
1030
0001
0200
,  // measure 105
0000
0300
0000
0000
0000
0000
0000
0000
,  // measure 106
0000
0001
0100
1000
0100
0001
0100
0020
,  // measure 107
0000
0030
0000
0000
0000
0000
0000
0000
,  // measure 108
0000
0000
1000
0002
0000
0013
0100
1000
,  // measure 109
0004
0400
0000
0000
0000
0000
0000
0000
0000
0000
0000
0000
0000
0000
0000
0000
,  // measure 110
0000
0000
0000
0000
0000
0000
0000
0000
0303
0000
0000
0000
0001
0100
0001
1000
,  // measure 111
0020
0030
0000
0000
0000
0000
0000
0000
;

//---------------dance-single - Medium----------------
#NOTES:
     dance-single:
     Ace Of Hearts (2010):
     Medium:
     6:
     0.348,0.000,0.011,0.262,0.032: // measure 1
0000
0000
0000
0000
,  // measure 2
0000
0000
0000
0000
,  // measure 3
0000
0000
0000
0000
,  // measure 4
0000
0000
0000
0000
,  // measure 5
1000
0001
0000
1000
0000
0010
0000
1000
,  // measure 6
0000
1000
0000
0000
0000
0000
0000
0000
,  // measure 7
0001
0010
0000
0001
0000
1000
0000
0100
,  // measure 8
0000
0100
0000
0000
0000
0000
0000
0000
,  // measure 9
0010
0001
0000
1000
0000
0010
0000
1000
,  // measure 10
0000
1000
0000
0002
0000
0000
0003
0000
,  // measure 11
1000
0001
0000
1000
0000
0100
0000
0010
,  // measure 12
0000
0010
0000
0000
0000
0000
0000
0000
,  // measure 13
0001
1000
0000
0010
0000
1000
0000
0001
,  // measure 14
0000
0001
0000
0200
0000
0000
0300
0000
,  // measure 15
0010
1000
0000
0001
0000
0100
0000
0010
,  // measure 16
0000
0010
0000
0000
0000
0000
0000
0000
,  // measure 17
2000
0000
3000
0001
0100
0000
0001
1000
,  // measure 18
0001
0000
0000
1000
0010
0000
1000
0001
,  // measure 19
1000
0000
0010
0000
1000
0010
1000
0000
,  // measure 20
0001
0100
0001
0000
1000
0100
0010
0000
,  // measure 21
0001
0000
0000
1000
0100
0000
0000
1000
,  // measure 22
0001
0000
1000
0001
1000
0000
0010
1000
,  // measure 23
0010
1000
0004
0000
,  // measure 24
0000
0000
0000
0000
,  // measure 25
0003
0000
0000
1000
0100
0000
1000
0000
,  // measure 26
0002
0000
0003
1000
0001
0000
0100
0000
,  // measure 27
0001
1000
0001
0000
1000
0010
1000
0000
,  // measure 28
0001
0000
1000
0000
0001
0010
0001
0000
,  // measure 29
2000
0000
3000
0001
0020
0000
0030
0001
,  // measure 30
1000
0000
0001
0000
1000
0100
1000
0000
,  // measure 31
0001
0000
1000
0010
1000
0000
0001
1000
,  // measure 32
0001
1000
0010
1000
,  // measure 33
0002
0000
0003
1000
0100
0000
0010
0001
,  // measure 34
0010
0000
0000
0001
1000
0000
0010
1000
,  // measure 35
0010
0000
1000
0001
0000
1000
0001
0000
,  // measure 36
1000
0100
2000
0000
3000
0000
0000
0000
,  // measure 37
0002
0000
0003
1000
0010
0000
1000
0001
,  // measure 38
2000
0000
3000
0001
0100
0000
0010
0000
,  // measure 39
0010
0000
0100
0001
0000
0100
0001
0000
,  // measure 40
1000
0010
2000
0000
3000
0000
0000
0000
,  // measure 41
0000
0000
0000
0000
,  // measure 42
0000
0001
0010
0000
0100
0000
0010
0002
,  // measure 43
0000
0003
0000
0000
0000
0000
0000
0000
,  // measure 44
0000
0000
1000
0002
0000
1003
0010
2000
,  // measure 45
0000
3000
0000
0000
0000
0000
0000
0000
,  // measure 46
0000
0001
0100
0001
0100
0000
0010
0200
,  // measure 47
0000
0300
0000
0000
0000
0000
0000
0000
,  // measure 48
0000
0000
0000
0000
,  // measure 49
0002
0000
0003
1000
0100
0000
1000
0001
,  // measure 50
2000
0000
3010
0000
1000
0001
1000
0000
,  // measure 51
0010
4000
0000
0000
,  // measure 52
0000
0000
0000
0000
,  // measure 53
3000
0000
0000
0001
0020
0000
0030
0001
,  // measure 54
2000
0000
3010
1000
0010
0000
1000
0000
,  // measure 55
0001
0010
0001
0000
4004
0000
0000
0000
,  // measure 56
0000
0000
0000
0000
,  // measure 57
3003
0000
0000
1000
0200
0000
0300
1000
,  // measure 58
0002
0000
0003
1000
0010
0000
1000
0001
,  // measure 59
0100
0000
0001
0000
1000
0010
1000
0000
,  // measure 60
0001
0010
0001
0000
1000
0000
0100
1000
,  // measure 61
0200
0000
0300
0010
0001
0000
0000
0010
,  // measure 62
0001
0000
0000
0000
1000
0010
1000
0000
,  // measure 63
0001
0000
1000
0000
0010
0100
0010
0000
,  // measure 64
1000
0001
1000
0001
0100
0000
0010
0000
,  // measure 65
2000
0000
3000
0001
0010
0000
0001
1000
,  // measure 66
0001
0000
0000
1000
0010
0000
1000
0001
,  // measure 67
1000
0000
0001
0010
0000
0001
0010
0000
,  // measure 68
0001
1000
0002
0000
0003
0000
0000
0000
,  // measure 69
0200
0000
0300
0010
1000
0000
0001
1000
,  // measure 70
0002
0000
0003
1000
0010
0000
1000
0000
,  // measure 71
0001
0000
1000
0100
0000
1000
0100
0000
,  // measure 72
0010
0001
0020
0000
0030
0000
0000
0000
,  // measure 73
0000
0000
0000
0000
,  // measure 74
0000
0001
0100
0000
0010
0000
0100
0002
,  // measure 75
0000
0003
0000
0000
0000
0000
0000
0000
,  // measure 76
0000
0000
1000
0020
0000
1030
0001
2000
,  // measure 77
0000
3000
0000
0000
0000
0000
0000
0000
,  // measure 78
0000
0001
0010
0001
0010
0000
0001
2000
,  // measure 79
0000
3000
0000
0000
0000
0000
0000
0000
,  // measure 80
0000
0000
0000
0000
,  // measure 81
0002
0000
0003
1000
0100
0000
1000
0000
0002
0000
0003
1000
0001
0000
1000
0100
,  // measure 82
1000
0000
0001
0000
1000
0000
0001
0010
0001
0000
1000
0000
0010
0000
1000
0001
,  // measure 83
2000
0000
3000
0001
0020
0000
0030
0001
1000
0000
0010
0000
0010
0000
0100
0000
,  // measure 84
0100
0000
0001
1000
0001
0000
1000
0010
1000
0000
0001
0100
0001
0000
1000
0100
,  // measure 85
2000
0000
3000
0001
0020
0000
0030
0001
,  // measure 86
2000
0000
3000
0001
0100
0000
0010
0000
,  // measure 87
0010
0000
1000
0010
1000
0000
0001
0010
,  // measure 88
0004
0000
0403
0000
,  // measure 89
0300
0000
0000
0001
0200
0000
0300
0010
,  // measure 90
1000
0000
0001
0010
0001
0000
1000
0000
,  // measure 91
0010
1000
0010
0000
0100
0000
0001
0000
,  // measure 92
1000
0001
1000
0000
0010
0000
1000
0000
,  // measure 93
0020
0000
0030
1000
0001
0000
0010
0001
,  // measure 94
0010
0000
0000
0100
1000
0000
0001
1000
,  // measure 95
0001
0000
1000
0010
0000
1000
0010
0000
,  // measure 96
0100
0001
0200
0000
0300
0000
0000
0000
,  // measure 97
0002
0000
0003
1000
0100
0000
1000
0000
,  // measure 98
0002
0000
0003
1000
0001
0000
0100
0000
,  // measure 99
0010
0000
1000
0001
0000
1000
0001
0000
,  // measure 100
1000
0100
2000
0000
3000
0000
0000
0000
,  // measure 101
0000
0000
0000
0000
,  // measure 102
0000
0010
1000
0000
0001
0000
1000
0200
,  // measure 103
0000
0300
0000
0000
0000
0000
0000
0000
,  // measure 104
0000
0000
1000
0002
0000
1003
0010
0200
,  // measure 105
0000
0300
0000
0000
0000
0000
0000
0000
,  // measure 106
0000
0001
0010
0001
1000
0000
0001
0200
,  // measure 107
0000
0300
0000
0000
0000
0000
0000
0000
,  // measure 108
0000
0000
0001
2000
0000
3010
0100
0001
,  // measure 109
4000
0004
0000
0000
0000
0000
0000
0000
0000
0000
0000
0000
0000
0000
0000
0000
,  // measure 110
0000
0000
0000
3003
,  // measure 111
1001
0000
0000
0000
;

//---------------dance-single - Expert----------------
#NOTES:
     dance-single:
     Ace Of Hearts (2010):
     Challenge:
     9:
     0.802,0.000,0.434,0.637,0.246: // measure 1
0000
0000
0000
0000
,  // measure 2
0000
0000
0000
0000
,  // measure 3
0000
0000
0000
0000
,  // measure 4
0000
0000
0000
0000
,  // measure 5
1002
0103
0000
0010
0000
1000
0000
0001
,  // measure 6
0200
0000
0000
0310
0000
0000
1010
0000
0000
0000
0000
0000
0000
0000
0000
1000
0001
1000
0010
0000
0000
0000
0000
0000
,  // measure 7
0210
0301
0000
1000
0000
0010
0000
0010
,  // measure 8
0100
0001
1000
0100
0010
0100
1000
0001
0100
0010
1000
0001
0010
0001
1000
0100
,  // measure 9
0020
0130
0000
1000
0000
0001
0000
0100
,  // measure 10
0020
1030
1001
0001
0200
0310
2010
3001
,  // measure 11
0020
0130
1100
1000
0000
0001
0101
0100
,  // measure 12
0020
0000
1030
0000
1001
0000
0001
0100
0010
0000
1000
0000
1100
0000
0100
0000
,  // measure 13
0020
0031
1000
0010
0000
1000
1010
0010
,  // measure 14
0200
0301
1000
0100
2000
3001
0200
0310
,  // measure 15
2000
3001
0101
0100
0000
0010
1010
1000
,  // measure 16
0002
0000
1003
0010
0100
0000
0001
0000
1000
0100
0010
0000
0001
0000
1000
0001
,  // measure 17
0020
0100
0130
0100
2000
3001
0100
0010
,  // measure 18
0200
0010
0010
0310
1000
0100
0010
0100
,  // measure 19
1000
0001
0100
0010
1000
0001
0010
0100
,  // measure 20
1000
0010
0100
0001
1000
0010
0001
0010
,  // measure 21
2000
0001
3001
0001
0020
0100
0130
0100
,  // measure 22
2000
3001
0100
0010
1000
0100
0010
0001
,  // measure 23
1000
0010
0100
0001
1000
1000
0100
0010
,  // measure 24
0001
0001
1000
0010
0100
0010
0010
1000
,  // measure 25
2002
0000
3003
0001
0100
0010
1000
0001
,  // measure 26
0220
0000
0330
1000
0001
0100
0010
1000
,  // measure 27
2100
3001
0100
0010
1000
0100
1000
0010
,  // measure 28
0100
0001
1000
0100
0010
0001
0100
0010
,  // measure 29
2002
0000
3003
0010
0220
0000
0330
1000
,  // measure 30
1002
0103
0010
1000
0100
0100
0010
0001
,  // measure 31
1000
0010
0100
0001
1000
0100
0010
0001
,  // measure 32
0100
0010
1000
0000
0001
0000
0010
0000
0001
0000
0001
0000
1000
0000
0010
0000
,  // measure 33
0102
1000
1003
0100
0010
0010
0100
0100
,  // measure 34
2100
3001
0001
0100
0010
1000
0100
0010
,  // measure 35
0012
1003
0010
0100
0000
0100
0001
1000
,  // measure 36
1010
0000
0010
0000
0200
0000
0000
0000
0301
0000
1000
0100
0020
0000
0031
0000
,  // measure 37
0201
0310
1000
0001
0010
0010
0001
0001
,  // measure 38
0201
0010
0310
1000
0100
0100
1000
1000
,  // measure 39
0002
0103
0010
1000
0000
1000
0100
1000
,  // measure 40
1002
0000
0103
0000
0020
0000
0000
0000
1030
0000
0001
0000
0100
0010
1000
0001
,  // measure 41
0020
0130
0000
1100
0000
1000
0000
0001
,  // measure 42
0200
0000
0301
0000
1000
0000
0100
0010
0001
0000
0010
0000
0100
0000
2000
0000
,  // measure 43
3002
0103
0000
0110
0000
0010
0000
1000
,  // measure 44
0002
0000
0013
0000
0100
0000
2000
0000
3100
0010
0001
0010
0100
0000
2000
0000
,  // measure 45
3002
1003
0000
1010
0000
0010
0000
0100
,  // measure 46
0002
0000
1003
0000
0100
0000
0010
0001
0010
0000
0100
0000
1000
0000
0001
0000
,  // measure 47
0200
0310
0000
1010
0000
1000
0000
0100
,  // measure 48
0020
0000
0031
0000
1000
0000
0010
0100
0010
1000
0001
1000
0100
0000
1000
0001
,  // measure 49
0200
0010
0310
1000
0100
1000
0001
0100
,  // measure 50
0020
1000
1030
0100
0010
0001
0010
0100
,  // measure 51
1000
0001
0100
0010
1000
0001
1000
0001
,  // measure 52
1000
0010
0100
0001
0100
0010
0100
0100
,  // measure 53
0020
0000
0030
1000
2200
0000
3300
0001
,  // measure 54
0202
0300
0103
0010
1000
1000
0001
0010
,  // measure 55
0001
1000
0010
0100
0001
1000
0001
1000
,  // measure 56
0100
0010
0100
1000
0001
0001
1000
0100
,  // measure 57
2002
0000
3003
0001
0202
0000
0303
1000
,  // measure 58
2020
0000
3030
0001
1000
0100
0010
0001
,  // measure 59
0100
0010
1000
0001
0010
0010
0100
1000
,  // measure 60
0001
1000
0010
0100
0001
0010
0001
1000
,  // measure 61
2020
0000
3030
1000
2002
0000
3003
0001
,  // measure 62
0202
0000
0303
0100
0110
0010
1000
0100
,  // measure 63
0001
0100
1000
0001
1000
0010
0100
0001
,  // measure 64
1000
0001
1000
0010
0110
0100
0001
1000
,  // measure 65
2100
0001
3001
0100
0010
1000
0001
0010
,  // measure 66
0210
1000
1300
0001
0100
0010
1000
0001
,  // measure 67
0011
0010
0001
1100
0000
1000
0010
1000
,  // measure 68
1001
0000
0001
0000
0200
0000
0310
0000
1000
0000
0001
1000
0100
1000
0001
0000
,  // measure 69
2001
0100
3100
0010
0001
0100
0010
1000
,  // measure 70
1200
0010
0310
0001
0100
0010
1000
0100
,  // measure 71
0020
0031
1000
1010
0000
0010
0100
0001
,  // measure 72
1001
0000
1000
0000
0200
0000
0310
0000
0100
0010
0001
0000
1000
0000
0010
1000
,  // measure 73
0002
1003
0000
1100
0000
0011
0000
0001
,  // measure 74
1000
0000
0010
0000
0100
0000
0001
1000
0100
0000
0010
0000
0100
0000
1000
0000
,  // measure 75
1001
0002
0000
0103
0000
0110
0000
0010
,  // measure 76
2000
0000
3001
0000
0010
0000
0100
1000
0001
0000
0100
0000
0010
0000
1010
0000
,  // measure 77
2000
3100
0000
1000
0000
1001
0000
0002
,  // measure 78
0103
0000
0010
1000
0200
0000
0310
0000
0001
0000
1000
0010
0200
0000
0301
0000
,  // measure 79
0011
0010
0000
0110
0000
0100
0000
1000
,  // measure 80
0002
0000
1003
0010
1000
0001
0010
0100
1000
0000
0001
0000
0101
0000
0100
0000
,  // measure 81
0020
0000
0030
1000
0001
0010
1000
0010
0002
0000
0003
1000
0010
0100
0010
0001
,  // measure 82
0010
0100
0001
1000
0100
1000
0001
0100
0010
1000
0100
0010
0001
1000
0010
0200
,  // measure 83
0002
0000
0000
1000
0010
0000
0303
0100
0010
1000
0001
0010
0100
0001
0100
0010
,  // measure 84
0001
0000
0000
1000
0000
0000
0010
0000
0000
0100
0000
0000
0001
0000
0000
1000
0000
0000
0010
0000
0000
0100
0000
0000
0001
0000
0000
1000
0000
0000
0001
0100
0001
0100
0000
0000
0010
0000
0000
1000
0000
0000
0001
0000
0000
0100
0000
0000
,  // measure 85
0020
0000
0030
1000
2200
0000
3300
0010
,  // measure 86
0022
0000
0033
0001
1001
1000
0010
0100
,  // measure 87
0001
0001
0010
0100
1100
1000
0001
0100
,  // measure 88
0010
0000
1000
0000
0100
0000
0010
0000
0011
0000
0001
0000
0100
0001
0010
0000
,  // measure 89
0100
0100
0000
1000
2002
0000
3003
0001
,  // measure 90
0101
0100
0010
1000
0100
0100
0010
0100
,  // measure 91
1000
0001
0100
1000
0100
0001
1000
0100
,  // measure 92
0010
0001
1000
0000
0010
0000
1000
0000
0100
0010
0001
0000
1000
0010
0100
0000
,  // measure 93
0210
0001
0301
1000
0100
0100
0010
0001
,  // measure 94
0201
0010
0310
1000
0001
0010
0001
0100
,  // measure 95
0110
0010
1000
1100
0000
0100
1000
0001
,  // measure 96
0201
0000
0310
1000
0002
0000
1003
0000
0020
0000
0130
0000
0001
0000
1000
0000
,  // measure 97
1200
0010
0310
0001
0100
0010
1000
0001
,  // measure 98
0021
0100
0130
1000
0001
0100
0010
1000
,  // measure 99
1001
0001
0010
0110
0000
0100
0010
0001
,  // measure 100
2000
0000
0000
0000
0000
0000
3001
0000
0000
0010
0000
0000
0200
0000
0000
0000
0000
0000
0310
0000
0000
0000
0000
0000
0002
0000
0000
0000
0000
0000
1003
0000
0100
0000
1000
0000
0100
0000
0000
0000
0000
0000
0010
0000
0000
0000
0000
0000
,  // measure 101
0011
0001
0000
1000
0000
1010
0000
0010
,  // measure 102
0200
0301
1000
0200
0310
0100
1000
0001
,  // measure 103
0200
0310
1000
1100
0000
0100
1000
0001
,  // measure 104
0101
0100
0010
2000
0000
3100
0010
0002
,  // measure 105
1003
0010
0000
0100
0001
1000
0010
1000
,  // measure 106
1100
0100
1000
0001
0100
0010
1000
0001
,  // measure 107
0011
0010
0001
0101
0000
0100
0010
1000
,  // measure 108
0002
0000
0103
0010
1000
0000
0200
0000
0000
0000
0310
0000
0100
0000
1000
0000
,  // measure 109
0001
0100
0001
0100
0010
1000
0010
1000
0002
1003
0001
1000
0100
0010
0100
0010
,  // measure 110
0002
1003
0001
1000
0100
1000
0100
1000
0002
0013
0001
0010
0001
1000
0001
1000
,  // measure 111
2002
3003
0000
0000
;

//---------------dance-single - Easy----------------
#NOTES:
     dance-single:
     Ace Of Hearts (2010):
     Easy:
     3:
     0.224,0.000,0.016,0.070,0.000: // measure 1
0000
0000
0000
0000
,  // measure 2
0000
0000
0000
0000
,  // measure 3
0000
0000
0000
0000
,  // measure 4
0000
0000
0000
0000
,  // measure 5
0001
0000
1000
1000
,  // measure 6
1000
0000
0000
0000
,  // measure 7
0010
0000
0100
0100
,  // measure 8
0200
0000
0300
0000
,  // measure 9
0001
0000
1000
1000
,  // measure 10
1000
0000
0100
0000
,  // measure 11
0010
0000
0001
0001
,  // measure 12
0001
0000
0000
0000
,  // measure 13
1000
0000
0010
0010
,  // measure 14
0010
0000
0100
0000
,  // measure 15
0001
0000
1000
1000
,  // measure 16
1000
0000
0000
0000
,  // measure 17
0001
0000
0010
0010
,  // measure 18
0010
0000
0001
0001
,  // measure 19
0001
0000
1000
1000
,  // measure 20
1000
0000
0010
0010
,  // measure 21
0010
0000
0100
0000
,  // measure 22
0001
0000
1000
1000
,  // measure 23
1000
0000
0001
0001
,  // measure 24
0001
0000
0100
0100
,  // measure 25
0100
0000
0010
0010
,  // measure 26
0010
0000
1000
1000
,  // measure 27
1000
0000
0001
0001
,  // measure 28
0001
0000
0010
0010
,  // measure 29
0010
0000
0001
0000
,  // measure 30
1000
1000
1000
0000
,  // measure 31
0010
0010
0010
0000
,  // measure 32
0100
0100
0100
0000
,  // measure 33
0002
0000
1003
1000
,  // measure 34
1000
0000
0010
0010
,  // measure 35
0010
0000
0100
0000
,  // measure 36
0200
0000
0300
0000
,  // measure 37
0020
0000
1030
1000
,  // measure 38
1000
0000
0001
0001
,  // measure 39
0001
0000
0010
0000
,  // measure 40
0020
0000
0030
0000
,  // measure 41
0001
0000
0001
0001
,  // measure 42
0001
0000
1000
0000
,  // measure 43
1000
0000
0010
0010
,  // measure 44
0010
0000
0100
0000
,  // measure 45
0100
0000
0001
0001
,  // measure 46
0001
0000
1000
0000
,  // measure 47
1000
0000
0100
0100
,  // measure 48
0100
0000
0000
0000
,  // measure 49
0010
0000
0001
0001
,  // measure 50
0001
0000
1000
1000
,  // measure 51
1000
0000
0010
0010
,  // measure 52
0010
0000
0100
0100
,  // measure 53
0100
0000
0001
0000
,  // measure 54
0001
0000
1000
1000
,  // measure 55
1000
0000
0010
0010
,  // measure 56
0010
0000
0100
0100
,  // measure 57
0100
0000
0001
0000
,  // measure 58
1000
0000
0100
0100
,  // measure 59
0100
0000
0010
0010
,  // measure 60
0010
0000
0001
0001
,  // measure 61
0001
0000
1000
0000
,  // measure 62
0010
0000
1000
1000
,  // measure 63
1000
0000
0001
0001
,  // measure 64
0001
0000
0100
0100
,  // measure 65
0200
0000
0301
0001
,  // measure 66
0001
0000
1000
1000
,  // measure 67
1000
0000
0100
0000
,  // measure 68
0200
0000
0300
0000
,  // measure 69
0020
0000
0031
0001
,  // measure 70
0001
0000
1000
1000
,  // measure 71
1000
0000
0010
0010
,  // measure 72
0020
0000
0030
0000
,  // measure 73
1000
0000
1000
1000
,  // measure 74
1000
0000
0001
0000
,  // measure 75
0001
0000
0100
0100
,  // measure 76
0100
0000
0010
0000
,  // measure 77
0010
0000
1000
1000
,  // measure 78
1000
0000
0001
0000
,  // measure 79
0001
0000
0100
0100
,  // measure 80
0100
0000
0000
0000
,  // measure 81
0010
0000
1000
1000
1000
0000
0001
0001
,  // measure 82
0001
0000
0010
0010
0010
0000
0001
0001
,  // measure 83
0001
0000
1000
0000
0010
0000
0100
0100
,  // measure 84
0100
0000
0001
0001
0001
0000
1000
1000
,  // measure 85
1000
0000
1001
0000
,  // measure 86
0110
0000
0001
0001
,  // measure 87
0001
0000
0100
0100
,  // measure 88
0100
0000
0010
0010
,  // measure 89
0010
0000
1000
0000
,  // measure 90
0001
0001
0001
0000
,  // measure 91
0100
0100
0100
0000
,  // measure 92
0010
0010
0010
0000
,  // measure 93
0200
0000
0301
0001
,  // measure 94
0001
0000
1000
1000
,  // measure 95
1000
0000
0010
0000
,  // measure 96
0020
0000
0030
0000
,  // measure 97
2000
0000
3001
0001
,  // measure 98
0001
0000
0010
0010
,  // measure 99
0010
0000
0100
0000
,  // measure 100
0200
0000
0300
0000
,  // measure 101
1000
0000
0001
0001
,  // measure 102
0001
0000
0100
0000
,  // measure 103
0100
0000
0010
0010
,  // measure 104
0010
0000
1000
0000
,  // measure 105
1000
0000
0001
0001
,  // measure 106
0001
0000
0010
0000
,  // measure 107
0010
0000
0001
0001
,  // measure 108
0001
0000
1000
0000
,  // measure 109
4000
0000
0000
0000
,  // measure 110
0000
0000
3000
0000
,  // measure 111
1001
0000
0000
0000
;

//---------------dance-single - Novice----------------
#NOTES:
     dance-single:
     Ace Of Hearts (2010):
     Beginner:
     1:
     0.146,0.000,0.005,0.316,0.000: // measure 1
0000
0000
0000
0000
,  // measure 2
0000
0000
0000
0000
,  // measure 3
0000
0000
0000
0000
,  // measure 4
0000
0000
0000
0000
,  // measure 5
0002
0000
0003
0000
,  // measure 6
0001
0000
0000
0000
,  // measure 7
2000
0000
3000
0000
,  // measure 8
1000
0000
0000
0000
,  // measure 9
0020
0000
0030
0000
,  // measure 10
0010
0000
0000
0000
,  // measure 11
0200
0000
0300
0000
,  // measure 12
0100
0000
0000
0000
,  // measure 13
0002
0000
0003
0000
,  // measure 14
0001
0000
0000
0000
,  // measure 15
2000
0000
3000
0000
,  // measure 16
1000
0000
0000
0000
,  // measure 17
0010
0000
0020
0000
,  // measure 18
0030
0000
2000
0000
,  // measure 19
3000
0000
0002
0000
,  // measure 20
0003
0000
2000
0000
,  // measure 21
3000
0000
0010
0000
,  // measure 22
0010
0000
0020
0000
,  // measure 23
0030
0000
0100
0000
,  // measure 24
0100
0000
0200
0000
,  // measure 25
0300
0000
0002
0000
,  // measure 26
0003
0000
2000
0000
,  // measure 27
3000
0000
0200
0000
,  // measure 28
0300
0000
0020
0000
,  // measure 29
0030
0000
0001
0000
,  // measure 30
0002
0000
0003
0000
,  // measure 31
2000
0000
3000
0000
,  // measure 32
0020
0000
0030
0000
,  // measure 33
1000
0000
1000
0000
,  // measure 34
1000
0000
0002
0000
,  // measure 35
0003
0000
0010
0000
,  // measure 36
0020
0000
0030
0000
,  // measure 37
0001
0000
0001
0000
,  // measure 38
0001
0000
2000
0000
,  // measure 39
3000
0000
0010
0000
,  // measure 40
0020
0000
0030
0000
,  // measure 41
2000
0000
0000
0000
,  // measure 42
3000
0000
0001
0000
,  // measure 43
0001
0000
0000
0000
,  // measure 44
0000
0000
0010
0000
,  // measure 45
0010
0000
0000
0000
,  // measure 46
0000
0000
0100
0000
,  // measure 47
0100
0000
0000
0000
,  // measure 48
0000
0000
0000
0000
,  // measure 49
1000
0000
2000
0000
,  // measure 50
3000
0000
0002
0000
,  // measure 51
0003
0000
0200
0000
,  // measure 52
0300
0000
0020
0000
,  // measure 53
0030
0000
1000
0000
,  // measure 54
1000
0000
0002
0000
,  // measure 55
0003
0000
0020
0000
,  // measure 56
0030
0000
0200
0000
,  // measure 57
0300
0000
0010
0000
,  // measure 58
0010
0000
0200
0000
,  // measure 59
0300
0000
2000
0000
,  // measure 60
3000
0000
0002
0000
,  // measure 61
0003
0000
1000
0000
,  // measure 62
1000
0000
0002
0000
,  // measure 63
0003
0000
2000
0000
,  // measure 64
3000
0000
0010
0000
,  // measure 65
0010
0000
0010
0000
,  // measure 66
0010
0000
2000
0000
,  // measure 67
3000
0000
0001
0000
,  // measure 68
0002
0000
0003
0000
,  // measure 69
0100
0000
0100
0000
,  // measure 70
0100
0000
0020
0000
,  // measure 71
0030
0000
1000
0000
,  // measure 72
2000
0000
3000
0000
,  // measure 73
0002
0000
0000
0000
,  // measure 74
0003
0000
0010
0000
,  // measure 75
0010
0000
0000
0000
,  // measure 76
0000
0000
0001
0000
,  // measure 77
0001
0000
0000
0000
,  // measure 78
0000
0000
1000
0000
,  // measure 79
1000
0000
0000
0000
,  // measure 80
0000
0000
0000
0000
,  // measure 81
0010
0020
0030
2000
,  // measure 82
3000
0002
0003
2000
,  // measure 83
3000
0100
0100
0020
,  // measure 84
0030
0002
0003
2000
,  // measure 85
3000
0000
0001
0000
,  // measure 86
0001
0000
0200
0000
,  // measure 87
0300
0000
0010
0000
,  // measure 88
0010
0000
2000
0000
,  // measure 89
3000
0000
0001
0000
,  // measure 90
0002
0000
0003
0000
,  // measure 91
2000
0000
3000
0000
,  // measure 92
0020
0000
0030
0000
,  // measure 93
0100
0000
0100
0000
,  // measure 94
0100
0000
0002
0000
,  // measure 95
0003
0000
1000
0000
,  // measure 96
2000
0000
3000
0000
,  // measure 97
0001
0000
0001
0000
,  // measure 98
0001
0000
0020
0000
,  // measure 99
0030
0000
0100
0000
,  // measure 100
0200
0000
0300
0000
,  // measure 101
2000
0000
0000
0000
,  // measure 102
3000
0000
0001
0000
,  // measure 103
0001
0000
0000
0000
,  // measure 104
0000
0000
0100
0000
,  // measure 105
0100
0000
0000
0000
,  // measure 106
0000
0000
0010
0000
,  // measure 107
0010
0000
0000
0000
,  // measure 108
0000
0000
1000
0000
,  // measure 109
2000
0000
0000
0000
,  // measure 110
0000
0000
3000
0000
,  // measure 111
1001
0000
0000
0000
;
