#TITLE:Waves;
#SUBTITLE:;
#ARTIST:DJ Satomi;
#TITLETRANSLIT:;
#SUBTITLETRANSLIT:;
#ARTISTTRANSLIT:;
#GENRE:;
#CREDIT:Ace Of Hearts;
#BANNER:Waves - Bn.png;
#BACKGROUND:Waves - Bg.jpg;
#LYRICSPATH:;
#CDTITLE:Ace Of Hearts.png;
#MUSIC:Waves.ogg;
#OFFSET:-0.800;
#SAMPLESTART:40.640;
#SAMPLELENGTH:12.000;
#SELECTABLE:YES;
#BPMS:0.000=166.500,62.000=83.240,66.000=166.500,72.000=83.260,74.000=166.500,170.000=83.239,186.000=166.499,206.000=83.239,212.000=166.499,294.000=332.998,295.500=166.499,312.000=83.238,328.000=166.498;
#DISPLAYBPM:83.240:166.500;
#STOPS:294.000=0.100
,294.500=0.100
,295.000=0.100
;
#BGCHANGES:;
#FGCHANGES:;
#KEYSOUNDS:;

//---------------dance-single - Expert----------------
#NOTES:
     dance-single:
     Ace Of Hearts (2009):
     Challenge:
     10:
     0.950,0.000,0.352,0.924,0.267: // measure 1
0000
0000
0000
0000
,  // measure 2
0000
0000
0000
0000
,  // measure 3
0000
0000
0000
0000
,  // measure 4
0000
0000
0000
0000
,  // measure 5
0002
0003
1000
0010
2000
3001
0000
0000
,  // measure 6
0200
0300
0010
1000
0020
0130
0000
0000
,  // measure 7
0002
0003
0010
0100
0020
0031
0000
0000
,  // measure 8
2000
3000
0010
1000
0020
0130
0000
0000
,  // measure 9
0002
0003
1000
0010
2000
3001
0000
0000
,  // measure 10
0020
0030
0100
1000
0200
0310
0000
0000
,  // measure 11
0200
0300
1000
0001
2000
3010
0000
0000
,  // measure 12
0200
0300
0001
1000
0002
0013
0100
1000
,  // measure 13
0020
0000
0130
0001
2000
0000
3001
0100
,  // measure 14
0002
0000
0013
0100
1000
0010
0000
0010
,  // measure 15
0100
0000
0100
0001
1000
0100
0010
0100
,  // measure 16
2000
0000
3001
0010
0001
0200
0300
0000
,  // measure 17
0002
1003
0040
0000
0030
0000
1000
0001
,  // measure 18
0100
0010
0100
0001
1000
0000
0100
0010
,  // measure 19
0001
0000
0000
0000
4000
0400
0000
0000
3300
0000
0000
0000
1000
0000
0001
0000
0020
0000
0000
0000
0000
0000
0000
0000
0031
0000
0000
0000
1000
0000
0000
0000
,  // measure 20
0020
0000
0130
0001
1000
0100
0010
0100
,  // measure 21
2000
0000
3000
0000
0002
0000
0103
0010
,  // measure 22
0100
0001
1000
0100
0020
0000
0031
0040
,  // measure 23
0000
0000
0030
0000
0000
0000
0000
0010
,  // measure 24
0002
0200
4000
3000
,  // measure 25
0303
0000
1000
0010
0100
0001
1000
0100
,  // measure 26
0010
0100
1000
0001
2000
0000
3001
0100
,  // measure 27
0010
1000
0001
1000
4001
0000
0010
0000
,  // measure 28
0100
0010
3004
0100
,  // measure 29
0010
1000
0043
0100
,  // measure 30
1000
0001
0430
1000
,  // measure 31
0001
0010
4300
0001
,  // measure 32
0100
0001
3040
0100
,  // measure 33
1000
0001
0430
0001
,  // measure 34
1000
0010
0302
2003
,  // measure 35
3000
0000
0100
0000
0010
0000
0001
0000
4000
0100
0000
0100
3000
0000
0000
0000
,  // measure 36
0001
0000
0010
0000
0100
0000
1000
0000
0004
0010
0000
0010
0003
0000
0000
0000
,  // measure 37
0000
0000
1000
0000
0001
0000
1000
0000
0040
0100
0000
0100
0030
0000
0000
0000
,  // measure 38
1000
0000
0100
0000
0010
0000
0001
0000
0400
0010
0000
0010
0300
0000
0000
0000
,  // measure 39
0000
0001
0010
0100
4000
0000
3010
0000
,  // measure 40
0010
1000
0001
0010
0400
0000
1300
0000
,  // measure 41
0000
0001
1000
0100
0040
0000
0031
0000
,  // measure 42
0100
0010
0100
0001
4000
0000
3100
0000
,  // measure 43
1000
0000
0000
0000
0020
0000
0000
0000
0130
0000
0001
1000
0002
0103
0000
0000
,  // measure 44
0020
0030
0100
0010
0200
0301
0000
0000
2000
3000
0001
0100
0002
0013
0000
0000
,  // measure 45
0200
0300
1000
0001
2000
3010
0000
0000
0200
0300
0001
1000
0200
0310
0000
0000
,  // measure 46
0002
0003
1000
0001
0020
0130
0000
0000
2000
3000
0001
0100
0020
1030
0000
0000
,  // measure 47
0200
0300
0010
0001
2000
3001
0010
0100
1000
0000
4000
0000
0000
0000
3040
0000
,  // measure 48
0000
0430
0000
0304
0000
0043
0000
0430
,  // measure 49
0000
4300
0000
3040
0000
0430
0000
0304
,  // measure 50
0000
4003
0000
3400
0000
0340
0000
0034
,  // measure 51
0000
0000
4003
0000
0000
0000
3040
0000
0230
0000
0000
0300
0200
0000
0000
0000
,  // measure 52
0302
0000
0000
0003
0002
0000
0000
0003
2000
0000
0000
0000
0000
0000
3200
0000
,  // measure 53
0340
0000
0000
0000
0000
0000
0000
0000
0034
0000
0000
0000
0003
1000
0001
0100
,  // measure 54
0040
4000
0000
0000
0000
0000
0000
0000
0000
0000
0000
0000
3030
0000
0000
0000
,  // measure 55
0004
0400
0000
0000
0303
0000
0000
0000
4000
0004
0000
0000
3003
0000
0000
0000
,  // measure 56
4000
0400
0000
0000
0000
0000
0000
0000
0000
0000
0000
0000
3300
0000
0000
0000
,  // measure 57
0400
0040
0000
0000
0330
0000
0000
0000
0040
0004
0000
0000
0033
0000
0000
0000
,  // measure 58
4040
0000
0000
0030
0000
0000
0004
0000
0000
0000
0003
0000
0000
0000
0040
0000
,  // measure 59
0000
0030
0000
0000
0000
0000
0400
0000
0000
0000
0000
0000
3300
0000
0000
0000
,  // measure 60
0140
0000
0000
0034
0000
0103
0010
0410
,  // measure 61
0000
0000
0000
0340
0000
1030
0001
0010
,  // measure 62
0044
0000
0000
0030
0000
0000
4000
0000
0000
3000
0000
0000
0000
0000
0040
0000
,  // measure 63
0000
0030
0000
0000
0000
0000
0400
0000
0000
0000
0000
0000
0303
0000
0000
0000
,  // measure 64
0140
0000
0000
4030
0000
3001
0010
0410
,  // measure 65
0000
0000
4300
0000
0000
3000
1001
0000
0000
0000
0001
0000
0100
0000
0010
0000
,  // measure 66
2040
0000
3030
0420
0000
0330
0000
0204
,  // measure 67
0000
0000
0303
0000
0000
0000
4002
0000
0000
3000
1003
0000
0010
0000
0100
0000
,  // measure 68
0002
1003
0000
1010
0000
1004
0000
1003
,  // measure 69
0000
0101
0000
0042
0000
0000
0000
0030
,  // measure 70
0000
0003
0000
0000
0000
0000
0010
0100
,  // measure 71
2000
0000
3001
0100
0040
0000
0030
0000
,  // measure 72
1020
0000
0130
0001
0010
0000
0000
0000
,  // measure 73
0012
0000
1003
0010
0100
0001
0010
0100
,  // measure 74
2100
0000
0004
0000
3000
1000
1000
1003
,  // measure 75
0000
1000
0100
0010
,  // measure 76
0002
0000
0000
0000
0003
0000
0010
0100
,  // measure 77
0010
0001
1000
0010
0100
0001
1000
0020
,  // measure 78
0000
0230
0000
0000
0300
0001
1000
0100
,  // measure 79
0120
0000
0034
0000
1003
0010
1000
0001
0401
0000
0310
0000
0000
1000
0001
0010
,  // measure 80
0210
0000
4300
0000
3001
0100
0001
1000
1040
0000
0130
0000
0000
0001
1000
0001
,  // measure 81
0401
0010
0001
0010
0304
1000
0010
1000
,  // measure 82
0043
0000
0000
0000
0100
0000
0000
0000
0001
0000
0000
0000
0100
0000
0000
0000
0032
0000
0000
0000
1003
0000
0000
0000
0001
0100
0000
0010
0100
0000
0001
0000
,  // measure 83
2004
0000
0000
0003
0400
0000
3000
0300
0110
0000
0010
0000
0011
0000
0001
0000
,  // measure 84
0204
0000
0000
0003
0040
0000
0000
0300
0030
0000
1000
0000
0001
0000
0010
0000
,  // measure 85
0240
0000
0000
0030
4000
0000
0300
3000
1001
0000
0001
0000
0101
0000
0100
0000
,  // measure 86
0420
0000
0000
0300
4000
0000
0030
3000
0000
0000
0001
0000
0010
0000
0100
0000
,  // measure 87
4100
0001
3040
0001
,  // measure 88
0430
1000
0304
1000
,  // measure 89
0043
1000
0430
0001
,  // measure 90
4300
0000
0001
0000
3100
0010
0001
0100
,  // measure 91
0004
4000
0003
3000
0040
0400
0000
0030
0301
0000
1000
0000
0100
0000
1000
0000
,  // measure 92
0004
0400
0003
0300
0040
4000
0000
3000
0030
0000
0100
0000
0001
0000
0010
0000
,  // measure 93
0400
4000
0300
3000
0004
0400
0003
0000
0340
4000
0030
0000
0004
0000
0003
3000
,  // measure 94
0040
0400
0030
0000
0004
0000
0000
0300
0003
0000
1000
0000
0010
0000
0100
0000
,  // measure 95
0004
0040
0003
0000
0400
0000
0300
0000
0004
0000
0003
0000
0400
0000
0300
0030
,  // measure 96
0002
0000
0023
0000
0030
0100
1000
0001
,  // measure 97
4000
0400
3000
0000
0040
0000
0030
0000
4000
0000
3000
0000
0040
0000
0030
0300
,  // measure 98
2000
3020
0000
0030
,  // measure 99
0000
0000
0000
0000
0000
1000
0001
0400
,  // measure 100
0000
0340
0000
4030
0000
3004
0000
0043
,  // measure 101
0000
4030
0000
3040
0000
0034
0000
0403
,  // measure 102
0000
4300
0000
3400
0000
0301
2000
3400
,  // measure 103
0000
0340
0000
0034
0000
1003
0020
0430
,  // measure 104
0000
0304
0000
0043
0000
4030
0000
3004
,  // measure 105
0000
0403
0000
4300
0000
3001
0020
0034
,  // measure 106
0000
4003
0000
3400
0000
0310
0002
0403
,  // measure 107
0000
0340
0000
4030
0000
3001
0020
0130
,  // measure 108
0000
1000
0000
0202
0000
1000
0000
0010
,  // measure 109
0000
0010
0000
1000
0303
0001
1000
2200
,  // measure 110
0000
0010
0000
0001
0000
0040
0030
0001
,  // measure 111
3300
1000
0000
0101
0000
0100
0010
0200
,  // measure 112
0000
0302
0000
2003
0000
3200
0000
0320
,  // measure 113
0000
0032
0000
2003
0000
3040
0000
0030
,  // measure 114
0000
0200
0000
0302
0000
4003
0000
3000
,  // measure 115
0000
0002
0003
0044
0000
0000
0000
0000
,  // measure 116
0000
0000
0000
0030
0000
0000
0000
0003
;

//---------------dance-single - Hard----------------
#NOTES:
     dance-single:
     Ace Of Hearts (2009):
     Hard:
     8:
     0.856,0.000,0.010,0.829,0.205:
0000
0000
0000
0000
,
0000
0000
0000
0000
,
0000
0000
0000
0000
,
0000
0000
0000
0000
,
2000
3000
0001
0010
0001
1000
0000
0000
,
0002
0003
0010
0001
0020
0130
0000
0000
,
2000
3000
0001
0100
0002
1003
0000
0000
,
0200
0300
0010
0100
0020
0031
0000
0000
,
0020
0030
0100
1000
0200
0310
0000
0000
,
0002
0003
1000
0010
2000
3100
0000
0000
,
2000
3000
0001
0100
0002
0013
0000
0000
,
0002
0003
1000
0001
2000
3010
1000
0001
,
2000
0000
3001
0010
0200
0000
0300
1000
,
0002
0000
1003
0010
2000
0000
3000
0000
,
0001
0010
0001
1000
0001
0100
0001
1000
,
0200
0000
1300
0001
0000
0020
0030
0000
,
0001
1000
0040
0000
0030
0000
1000
0001
,
0010
0001
1000
0001
0100
0001
1000
0010
,
0100
0000
0004
0000
0003
0000
1000
0010
2000
0000
0000
0000
3001
0000
0100
0000
,
0002
0000
0003
1000
0200
0000
1300
0001
,
0200
0000
0300
0000
0010
1000
0001
1000
,
0100
1000
0001
0100
0020
0000
0030
4000
,
0000
0000
3000
0000
0000
0000
0000
1000
,
0002
0203
0340
0000
,
0030
0000
1000
0100
1000
0001
0100
0001
,
1000
0100
0010
0001
0200
0000
0000
0000
,
0300
0010
1000
0001
0400
0000
0310
1000
,
0001
1000
0100
0010
0004
0000
1003
0000
,
0000
0001
0100
0010
4000
0000
3001
0010
,
0001
1000
0010
0100
0040
0000
1030
0000
,
0000
0100
0010
0100
4000
0000
3001
0000
,
1000
0010
1000
0100
0040
0000
0031
0000
,
0000
1000
0010
1000
0400
0000
0310
0000
,
0100
1000
0001
0100
0040
0000
1030
0000
,
0000
0001
1000
0100
0040
0000
0130
1000
,
0001
0100
0010
0100
0004
0000
0013
0000
,
0000
0100
1000
0001
4000
0000
3100
0000
,
1000
0001
0100
0010
0400
0000
0301
0000
,
0000
1000
0100
0010
0004
0000
1003
0000
,
0010
1000
0100
1000
0040
0000
0130
0000
,
0000
0001
1000
0100
0040
0000
0130
0000
,
1000
0001
0100
0001
4000
0000
3100
0000
,
1000
0000
0000
0000
0020
0000
0000
0000
0130
0000
0001
1000
0002
0103
0000
0000
,
0010
0000
0100
0001
0200
0310
0000
0000
1000
0000
0001
0010
0002
0103
0000
0000
,
0010
0000
1000
0001
2000
3100
0000
0000
0010
0000
0001
1000
0002
0103
0000
0000
,
0010
0000
0100
0001
0200
0310
0000
0000
1000
0000
0001
1000
0002
0013
0000
0000
,
0100
0000
0010
0001
0020
0130
1000
0001
0100
0000
0004
0000
0000
0000
0003
0000
,
0000
4000
0000
3004
0000
0043
0000
0430
,
0000
0300
0000
4000
0000
3004
0000
0403
,
0000
0310
0100
0002
0000
0003
0000
4000
,
0000
3100
0020
0000
0031
0000
0001
0000
,
0001
0000
1000
0000
0001
0000
0000
0020
,
0130
0000
0000
0000
4000
0000
0000
0000
3004
0000
0000
0000
0000
0013
0100
4000
,
0000
3000
0000
0004
0000
0003
0000
0040
,
0000
0034
0000
4003
0000
3000
0000
0040
,
0000
4030
0000
3400
0000
0310
0001
2000
,
0000
3000
0000
1100
0000
1000
0001
0400
,
0000
0300
0000
0040
0000
4030
0000
3004
,
0000
0003
0000
0400
0000
0300
0000
0004
,
0000
4003
0000
3400
0000
0310
0001
4000
,
0000
0000
3100
0000
0000
0000
0020
0000
0000
0000
0030
0000
0000
0000
0004
0040
,
0000
0000
0000
0000
0000
0000
0033
0000
0000
0000
0000
0000
0000
0000
4000
0400
,
0000
0000
0000
0000
0000
0000
3300
0000
0000
0000
0000
0000
0000
0000
0004
0400
,
0000
0000
0000
0303
0000
1000
0010
0100
,
0000
0000
0001
0000
0000
0000
1000
0000
0000
0000
0000
0000
0000
0000
0004
0040
,
0000
0000
0000
0000
0000
0000
0033
0000
0000
0000
0000
0000
0000
0000
4000
0040
,
0000
0000
0000
0000
0000
0000
3030
0000
0000
0000
0000
0000
0000
0000
0400
0040
,
0000
0000
0000
0330
0000
1000
0001
0100
,
0000
0001
0000
0040
0000
0000
0000
0030
,
0000
0000
0000
0000
0000
0000
0001
1000
,
0020
0000
1030
0001
4000
0000
3000
0000
,
0002
0000
0013
0100
2000
0000
3000
0000
,
0002
0000
0103
0010
1000
0001
0010
0100
,
2000
0000
3001
0400
0000
0000
0000
0300
,
0000
0002
2003
3200
,
0320
0000
0000
0000
0030
0000
0001
0010
,
0001
1000
0010
0100
0001
1000
0001
0020
,
0000
0230
0000
0000
0300
1000
0001
0100
,
0010
0000
1000
0001
1000
0100
0010
0100
4000
0000
3001
0000
0000
0100
0010
0100
,
0001
0000
4000
0000
3100
0010
0100
1000
0004
0000
0103
0000
0000
0010
1000
0001
,
1000
0000
0400
0000
1300
0001
1000
0010
4000
0000
3001
0000
0000
0010
0001
1000
,
0010
0000
0400
0000
0301
1000
0001
1000
0040
0000
0130
0000
0000
0001
1000
0100
,
0040
0000
0430
0000
1300
0001
0100
0010
,
4000
0000
3004
0000
0003
0010
0100
1000
,
0004
0000
0403
0000
0310
1000
0001
0010
,
0400
0000
4300
0000
3000
0001
0100
0010
,
4000
0000
3004
0000
0013
0100
0010
0001
,
4000
0000
3040
0000
0030
0100
0001
1000
,
0040
0000
0430
0000
0301
1000
0100
0010
,
0400
0000
4300
0000
3000
1000
0010
0100
,
0002
0403
0340
4030
,
3004
0000
0020
0000
0033
0010
0001
1000
,
0200
4300
3004
0403
,
0340
0000
2000
0000
3030
1000
0001
0010
,
0002
0000
4000
0003
0400
3000
4000
0300
,
0004
3000
0020
0000
0003
0130
1000
0001
,
2000
0000
0004
3000
0400
0003
0040
0300
,
2030
0200
0000
3300
,
0000
0000
0000
0000
0000
1000
0001
0400
,
0000
0000
0000
0340
0000
4030
0000
3004
,
0000
0000
0000
4003
0000
0000
0000
3040
,
0000
0430
0000
0304
0000
1003
0010
0400
,
0000
0000
0000
0304
0000
0013
0100
4000
,
0000
0000
0000
3004
0000
0000
0000
0403
,
0000
0340
0000
4030
0000
0000
0000
3004
,
0000
0000
0000
0403
0000
0301
1000
0400
,
0000
0000
0000
0310
0000
0001
1000
0002
,
0000
0003
0002
0000
0000
0003
0200
0000
0000
0300
0200
0000
0000
0300
0020
0000
,
0000
0030
0020
0000
0000
0030
0200
0000
0000
0300
0200
0000
0000
0300
0002
0000
,
0000
0003
0002
0000
0000
0003
2000
0000
0000
3000
0040
0000
0000
0000
0030
0000
,
0000
0000
2000
0000
0000
3000
2000
0000
0000
3000
0004
0000
0000
0000
0003
0000
,
0000
0000
2000
0000
0000
3000
0020
0000
0000
0030
0020
0000
0000
0030
0200
0000
,
0000
0300
0200
0000
0000
0300
0002
0000
0000
0003
0002
0000
0000
0003
2000
0000
,
0000
3000
2000
0000
0000
3000
0200
0000
0000
0300
0040
0000
0000
0000
0030
0000
,
0000
0002
0000
4000
0000
0000
0000
0000
,
0000
0000
0000
0003
0000
0000
0000
3000
;

//---------------dance-single - Medium----------------
#NOTES:
     dance-single:
     Ace Of Hearts (2009):
     Medium:
     6:
     0.561,0.000,0.000,0.210,0.005:
0000
0000
0000
0000
,
0000
0000
0000
0000
,
0000
0000
0000
0000
,
0000
0000
0000
0000
,
0001
0000
1000
0100
1000
0000
0000
0000
,
0010
0000
1000
0001
1000
0000
0000
0000
,
0100
0000
0010
0001
0010
0000
0000
0000
,
0100
0000
1000
0100
1000
0000
0000
0000
,
0001
0000
1000
0010
1000
0000
0000
0000
,
0001
0000
0010
0001
0010
0000
0000
0000
,
0100
0000
1000
0100
1000
0000
0000
0000
,
0001
0000
0100
0001
0100
0000
0010
0000
,
1000
0000
0001
0100
0001
0000
0000
0000
,
1000
0000
0001
0010
0001
0000
0000
0000
,
1000
0000
0100
0010
0100
0000
1000
0000
,
0002
0000
0000
0000
0000
0003
0000
0000
,
1000
0100
0040
0000
0030
0000
0000
0000
,
0001
0000
1000
0001
1000
0000
0010
0000
,
0100
0400
0300
0010
0010
0000
1000
0000
,
1000
0000
0000
0000
0001
0000
0010
0001
,
0010
0000
0000
0000
0100
0000
1000
0001
,
1000
0000
0001
0000
0400
0000
0000
0300
,
0000
0000
0000
0000
,
0002
2003
3040
0000
,
0030
0000
1000
0001
1000
0000
0100
0000
,
0010
0000
0001
1000
0002
0000
0000
0000
,
0003
1000
0004
0103
,
0001
1000
0001
0000
4000
0000
3010
0000
,
0000
1000
0004
0103
,
0001
1000
0001
0000
0040
0000
0130
0000
,
0000
1000
0004
0103
,
0010
0100
0010
0000
4000
0000
3001
0000
,
0000
0010
0004
1003
,
0010
1000
0010
0000
0400
0000
0301
0000
,
0000
1000
0004
0103
,
0001
1000
0001
0000
4000
0000
3010
0000
,
0000
0100
0004
1003
,
0010
1000
0010
0000
0400
0000
0301
0000
,
0000
1000
0400
0310
,
0100
1000
0100
0000
0040
0000
0031
0000
,
0000
1000
0004
0103
,
0010
0100
0010
0000
4000
0000
3001
0000
,
1000
0000
0020
0000
0130
0100
0100
0000
,
0001
0001
0001
0000
1000
1000
1000
0000
,
0100
0100
0100
0000
0010
0010
0010
0000
,
0001
0001
0001
0000
1000
1000
1000
0000
,
0001
0001
0001
0000
0000
1000
0000
0001
,
0000
0001
0000
0010
0000
0010
0000
0001
,
0000
0000
0000
1000
0000
1000
0000
0100
,
0000
0040
0000
0030
0000
0010
0000
0100
,
0000
0000
1000
0000
,
0000
0000
0100
0000
0010
0000
0000
0002
,
4003
0000
0000
0000
3000
0000
0000
0000
0040
0000
0000
0000
0030
0000
0000
0400
,
0000
0300
0000
0004
0000
0003
0000
4000
,
0000
3000
0000
0100
0000
0000
0000
0040
,
0000
0030
0000
0001
0000
4000
0000
3000
,
0000
0010
0000
0100
0000
0000
0000
0004
,
0000
0003
0000
4000
0000
3000
0000
0040
,
0000
0030
0000
0400
0000
0300
0000
0004
,
0000
0003
0000
1000
0000
0040
0000
0030
,
0000
1000
0000
0001
0000
0000
0000
4000
,
0000
3400
0000
4300
0000
3400
0000
4300
,
0000
3000
0000
0000
0000
0000
0000
0004
,
0000
0403
0000
0304
0000
0403
0000
0301
,
0000
0000
0000
0000
0000
0000
0000
0040
,
0000
0430
0000
0340
0000
0430
0000
0340
,
0000
0030
0000
0000
0000
0000
0000
0004
,
0000
4003
0000
3004
0000
4003
0000
3001
,
0000
0100
0000
0020
0000
0000
0000
0030
,
0000
0000
0000
1000
,
0010
0000
0400
0300
,
0001
0000
1000
0100
1000
0000
0000
0000
,
0001
0000
1000
0010
1000
0000
0001
0000
,
0400
0000
0000
0000
0000
0000
0000
0300
,
0000
0001
1000
0100
,
0020
0000
0000
0000
0030
0000
0001
1000
,
0001
0000
1000
0000
0010
0000
1000
0001
,
0000
0200
0000
0000
0300
0000
0001
0000
,
1000
0200
1300
0001
4000
3010
0000
1000
,
0001
0020
0031
1000
0040
0130
0000
0001
,
1000
0200
0310
0100
4000
3001
0000
1000
,
0020
0130
0010
1000
0004
0103
0000
0010
,
4000
0000
3400
0000
0310
0001
0010
0000
,
0400
0000
4300
0000
3000
0000
0001
0100
,
0004
0000
4003
0000
3010
0100
0010
0000
,
0400
0304
0003
1000
,
0040
0000
0430
0000
0301
1000
0001
0000
,
4000
3400
0300
1000
,
0004
0000
0403
0000
0310
1000
0010
0000
,
0400
0304
0003
0000
,
2000
3040
0230
0000
,
0004
0303
0000
1000
,
0200
0340
0230
0000
,
4000
3300
0000
0001
,
0200
0040
0030
0000
,
0004
0303
0000
1000
,
0020
0430
0301
1000
,
0002
0203
0000
0300
,
0000
0000
0000
0000
0000
0001
1000
0400
,
0000
0000
0000
0300
0000
0000
0000
0040
,
0000
0030
0000
0400
0000
0300
0000
4000
,
0000
3000
0000
0001
0000
1000
0010
4000
,
0000
3000
0000
0004
0000
0103
0001
0400
,
0000
0300
0000
0040
0000
0030
0000
4000
,
0000
3000
0000
0004
0000
0003
0000
4000
,
0000
3000
0000
0004
0000
0103
0010
0100
,
0000
0001
0000
1000
0000
0001
0010
0100
,
0000
0100
0000
1000
0000
1000
0000
0001
,
0000
0001
0000
0100
0000
0100
0000
0010
,
0000
0010
0000
1000
0000
0004
0000
0003
,
0000
1000
0000
0100
0000
0040
0000
0030
,
0000
0100
0000
1000
0000
1000
0000
0001
,
0000
0001
0000
0100
0000
0100
0000
0001
,
0000
0001
0000
1000
0000
0400
0000
0300
,
0000
2000
0000
0004
0000
0000
0000
0000
,
0000
0000
0000
3000
0000
0000
0000
0003
;

//---------------dance-single - Easy----------------
#NOTES:
     dance-single:
     Ace Of Hearts (2009):
     Easy:
     4:
     0.299,0.000,0.000,0.219,0.000:
0000
0000
0000
0000
,
0000
0000
0000
0000
,
0000
0000
0000
0000
,
0000
0000
0000
0000
,
0002
0000
0003
0000
,
1000
1000
1000
0000
,
0020
0000
0030
0000
,
0100
0100
0100
0000
,
0002
0000
0003
0000
,
1000
1000
1000
0000
,
0200
0000
0300
0000
,
0010
0010
0010
0001
,
0001
1000
1000
0000
,
0010
0010
0010
0000
,
1000
1000
1000
0000
,
0002
0000
0003
0000
,
0010
0040
0030
0000
,
0001
0001
0001
0000
,
1000
0000
0010
0010
,
0010
0000
1000
1000
,
1000
0000
0001
0001
,
0001
0000
0000
0000
0040
0000
0000
0030
,
0000
0000
0000
0000
,
0001
0001
0004
0000
,
0003
0000
1000
1000
,
1000
0000
0020
0000
,
0030
0100
0400
0300
,
0001
0001
0004
0003
,
0000
1000
4000
3000
,
0100
0100
0400
0300
,
0000
1000
4000
3000
,
0001
0001
0004
0003
,
0000
0010
0040
0030
,
0100
0100
0400
0300
,
0000
1000
4000
3000
,
0001
0001
0004
0003
,
0000
0010
0040
0030
,
0100
0100
0400
0300
,
0000
0010
0040
0030
,
0001
0001
0004
0003
,
0000
1000
4000
3000
,
0100
0100
0400
0300
,
0000
0000
0020
0030
,
0001
0001
0001
0000
2000
0000
3000
0000
,
0010
0010
0010
0000
0200
0000
0300
0000
,
0001
0001
0001
0000
2000
0000
3000
0000
,
0100
0100
0100
0000
4000
0000
0000
0000
,
0000
0000
0000
0000
0000
0000
0000
3000
,
0000
0000
0000
0004
0000
0000
0000
0000
,
0000
0000
0000
0003
0000
0000
0000
0000
,
0000
0000
0100
0000
,
0000
0000
0001
0000
0001
0000
0000
1000
,
4000
3000
0004
0003
,
4000
0000
0000
0000
0000
0000
0000
3000
,
0000
0000
0000
0000
0000
0000
0000
0040
,
0000
0000
0000
0000
0000
0000
0000
0030
,
0000
0000
0000
0000
0000
0000
0000
0400
,
0000
0000
0000
0000
0000
0000
0000
0300
,
0000
0000
0000
0000
0000
0000
0000
0004
,
0000
0000
0000
0000
0000
0000
0000
0003
,
0000
0000
0000
0000
0000
0000
0000
4000
,
0000
0000
0000
0000
0000
0000
0000
3000
,
0000
0000
0000
0000
0000
0000
0000
0400
,
0000
0000
0000
0000
0000
0000
0000
0300
,
0000
0000
0000
0000
0000
0000
0000
0040
,
0000
0000
0000
0000
0000
0000
0000
0030
,
0000
0000
0000
0000
0000
0000
0000
0004
,
0000
0000
0000
0000
0000
0000
0000
0003
,
0000
0000
0000
2000
0000
0000
0000
0000
,
3000
0000
0000
0000
,
0001
0001
0001
0000
,
0100
0100
0100
0000
,
0010
0010
0010
0010
,
2000
0000
0000
0000
3004
0000
0000
0003
,
0000
0010
0010
0010
,
0020
0000
0030
0001
,
0001
1000
1000
0010
,
0020
0000
0030
1000
,
1000
0000
0001
0001
0004
0003
0000
1000
,
4000
3000
0100
0100
0400
0300
0000
0000
,
0040
0030
0001
0001
0004
0003
0000
0000
,
4000
3000
0010
0010
0040
0030
0000
0000
,
2000
3000
0004
0000
,
0000
0003
0000
0000
,
0020
0030
0400
0000
,
0000
0300
0000
0000
,
2000
3000
0004
0000
,
0000
0003
0000
0000
,
0200
0300
0040
0000
,
0000
0030
0000
0000
,
1000
1000
4000
0000
,
0000
3000
0000
0000
,
0001
0001
0004
0000
,
0000
0003
0000
0000
,
0010
0010
0040
0000
,
0000
0030
0000
0000
,
0100
0100
0400
0000
,
0300
0000
0000
0000
,
0000
0000
0000
4000
,
0000
0000
0000
0000
0000
0000
0000
3000
,
0000
0000
0000
0000
0000
0000
0000
0040
,
0000
0000
0000
0000
0000
0000
0000
0030
,
0000
0000
0000
0400
,
0000
0000
0000
0000
0000
0000
0000
0300
,
0000
0000
0000
0000
0000
0000
0000
0004
,
0000
0000
0000
0000
0000
0000
0000
0003
,
0000
0000
0000
2000
,
0000
0000
0000
0000
0000
0000
0000
0004
,
0000
0000
0000
3003
0000
0000
0000
0200
,
0000
0000
0000
0000
0000
0040
0000
0330
,
0000
0000
0000
2000
,
0000
0000
0000
0000
0000
0000
0000
0040
,
0000
0000
0000
3030
0000
0000
0000
0200
,
0000
0000
0000
0000
0000
0304
0000
0003
,
0000
2000
0000
0040
0000
0000
0000
0000
,
0000
0000
0000
3030
0000
0000
0000
0000
;

//---------------dance-single - Novice----------------
#NOTES:
     dance-single:
     Ace Of Hearts (2009):
     Beginner:
     2:
     0.173,0.000,0.000,0.248,0.000:
0000
0000
0000
0000
,
0000
0000
0000
0000
,
0000
0000
0000
0000
,
0000
0000
0000
0000
,
0002
0000
0003
0000
,
0020
0000
0030
0000
,
0002
0000
0003
0000
,
2000
0000
3000
0000
,
0200
0000
0300
0000
,
0020
0000
0030
0000
,
0200
0000
0300
0000
,
2000
0000
3000
0000
,
0001
0000
0000
0000
,
0001
0000
0000
0000
,
1000
0000
0000
0000
,
1000
0000
0000
0000
,
0000
0040
0030
0000
,
1000
0000
0000
0000
,
1000
0000
0001
0000
,
0000
0000
0001
0000
,
0000
0000
0100
0000
,
0000
0000
0400
0000
,
0300
0000
0000
0000
,
0000
0000
0040
0000
,
0030
0000
1000
0000
,
0000
0000
2000
0000
,
3000
0000
0001
0000
,
0004
0000
0003
0000
,
0000
0000
0100
0000
,
0400
0000
0300
0000
,
0000
0000
0001
0000
,
0004
0000
0003
0000
,
0000
0000
1000
0000
,
4000
0000
3000
0000
,
0000
0000
0010
0000
,
0040
0000
0030
0000
,
0000
0000
0100
0000
,
0400
0000
0300
0000
,
0000
0000
0001
0000
,
0004
0000
0003
0000
,
0000
0000
0100
0000
,
0400
0000
0300
0000
,
0000
0000
0002
0003
,
0020
0030
0002
0003
,
2000
3000
0200
0300
,
0020
0030
0200
0300
,
2000
3000
0004
0000
,
0000
0000
0000
0003
0000
0000
0000
0000
,
0000
0000
4000
0000
,
0000
0000
0000
3000
0000
0000
0000
0000
,
0000
0000
0001
0000
,
0000
0000
0010
0000
,
0001
0000
1000
0000
,
0004
0000
0000
0000
0000
0000
0000
0003
,
0000
0000
0000
0000
,
0400
0000
0000
0000
0000
0000
0000
0300
,
0000
0000
0000
0000
,
0004
0000
0000
0000
0000
0000
0000
0003
,
0000
0000
0000
0000
,
4000
0000
0000
0000
0000
0000
0000
3000
,
0000
0000
0000
0000
,
0400
0000
0000
0000
0000
0000
0000
0300
,
0000
0000
0000
0000
,
0040
0000
0000
0000
0000
0000
0000
0030
,
0000
0000
0000
0000
,
0004
0000
0000
0000
0000
0000
0000
0003
,
0000
0000
0000
0000
,
0040
0000
0000
0000
0000
0000
0000
0030
,
0000
0000
0001
0000
,
0000
0000
0000
0000
,
1000
0000
0000
0000
,
1000
0000
0000
0000
,
1000
0000
0000
0000
,
0004
0000
0000
0000
0000
0000
0000
0003
,
0000
0000
0000
0000
,
0020
0000
0030
0000
,
0001
0000
0000
0000
,
0001
0000
0000
0000
,
1000
4000
3000
0000
,
0001
0004
0003
0000
,
0010
0040
0030
0000
,
0100
0400
0300
0000
,
1000
0000
4000
0000
,
0000
3000
0000
0000
,
0001
0000
0004
0000
,
0000
0003
0000
0000
,
0010
0000
0040
0000
,
0000
0030
0000
0000
,
0100
0000
0400
0000
,
0000
0300
0000
0000
,
2000
3000
4000
0000
,
0000
3000
0000
0000
,
0002
0003
0004
0000
,
0000
0003
0000
0000
,
0020
0030
0040
0000
,
0000
0030
0000
0000
,
0100
0000
0200
0000
,
0300
0000
0000
0000
,
0000
0000
0000
4000
,
0000
0000
0000
0000
,
0000
0000
0000
3000
0000
0000
0000
0000
,
0004
0000
0000
0000
0000
0000
0000
0003
,
0000
0000
0000
0000
,
0400
0000
0000
0000
0000
0000
0000
0300
,
0000
0000
0000
0000
,
0040
0000
0000
0000
0000
0000
0000
0030
,
0000
0000
0000
2000
,
0000
0000
0000
0000
0000
0000
0000
3000
,
0000
0000
0000
0000
,
0020
0000
0000
0000
0000
0000
0000
0030
,
0000
0000
0000
0000
,
0200
0000
0000
0000
0000
0000
0000
0300
,
0000
0000
0000
0000
,
0002
0000
0000
0000
0000
0000
0000
0003
,
0000
0000
0000
4000
0000
0000
0000
0000
,
0000
0000
0000
3000
0000
0000
0000
0000
;
