#TITLE:Triple Baka;
#SUBTITLE:;
#ARTIST:Miku Hatsune;
#TITLETRANSLIT:;
#SUBTITLETRANSLIT:;
#ARTISTTRANSLIT:;
#GENRE:Vocaloid Pop;
#CREDIT:Ace Of Hearts;
#BANNER:Triple Baka - Bn.png;
#BACKGROUND:Triple Baka - Bg.jpg;
#LYRICSPATH:;
#CDTITLE:Ace Of Hearts.png;
#MUSIC:Triple Baka.ogg;
#OFFSET:-0.240;
#SAMPLESTART:49.440;
#SAMPLELENGTH:12.000;
#SELECTABLE:YES;
#BPMS:0.000=180.000;
#STOPS:;
#BGCHANGES:-1.000=Triple Baka Video.avi=1.000=0=0=0=StretchNoLoop====,
99999=-nosongbg-=1.000=0=0=0 // don't automatically add -songbackground-
;
#KEYSOUNDS:;

//---------------dance-single - Expert----------------
#NOTES:
     dance-single:
     Ace Of Hearts (2009):
     Challenge:
     10:
     0.848,0.363,0.173,0.975,0.271: // measure 1
0000
0000
0000
0000
,  // measure 2
1000
0100
1000
0000
0001
0000
0100
0000
0001
0010
0001
0000
1000
0000
0100
0000
,  // measure 3
0010
0001
0010
0000
0100
0000
1000
0000
0100
1000
0100
0000
0010
0000
0001
0000
,  // measure 4
1000
0010
1000
0000
0001
0000
1000
0000
0001
0100
0001
0000
1000
0000
0100
0000
,  // measure 5
0010
0001
0010
0100
1000
0001
1000
0000
0001
0100
0001
0000
1000
0001
0010
0001
,  // measure 6
1000
0010
1000
0000
0001
0000
0010
0000
0100
0010
0100
0000
1000
0000
0001
0000
,  // measure 7
0010
0100
0010
0000
0001
0000
1000
0000
0010
1000
0010
0000
0100
0000
0001
0000
,  // measure 8
1000
0010
1000
0000
0100
0000
0010
0000
0001
1000
0001
0000
0100
0000
0001
0000
,  // measure 9
1000
0100
1000
0000
0001
0000
0010
0000
0001
0100
0001
0000
1000
0000
0100
0000
,  // measure 10
0010
0100
0010
0000
0001
0000
1000
0000
0010
1000
0010
0000
0100
0000
0001
0000
,  // measure 11
1000
0100
1000
0000
0001
0000
0100
0000
0010
1000
0010
0000
0100
0000
0001
0000
,  // measure 12
0010
0100
0010
0000
0001
0000
1000
0000
0010
1000
0010
0000
0100
0000
0001
0000
,  // measure 13
0010
0001
0010
0000
0100
0000
1000
0000
0001
0010
0001
0000
1000
0000
0100
0000
,  // measure 14
0110
0010
0002
1003
0020
0130
0001
1000
,  // measure 15
0200
0000
0310
0002
0000
1003
0010
0200
,  // measure 16
0000
0301
2000
0000
3000
0000
0000
0000
,  // measure 17
0000
0000
0002
0000
0013
0000
0100
0000
2000
0000
3100
0000
0010
0100
1000
0000
,  // measure 18
0002
0003
0200
0320
,  // measure 19
2030
0000
3000
0001
0020
0130
1000
0002
,  // measure 20
0000
0000
0003
0000
,  // measure 21
2000
3200
0320
0032
,  // measure 22
0003
1000
0010
0100
0002
0000
1003
0100
,  // measure 23
0020
0130
1000
0001
0020
0031
0000
2000
,  // measure 24
0000
3001
0020
0000
0030
0000
0000
0000
,  // measure 25
0000
0000
0001
0000
1000
0000
0010
0000
0200
0000
0301
0000
1000
0100
0010
0000
,  // measure 26
0002
0000
0003
0000
0020
0000
0130
1000
,  // measure 27
0002
0103
0010
0100
0002
1003
0020
0000
,  // measure 28
0030
2000
3001
0010
0200
1300
0002
0103
,  // measure 29
0020
0000
0000
0030
1010
0000
1001
0000
0000
0000
0011
0000
0110
0000
1100
0000
,  // measure 30
1000
0100
0010
0100
1000
0100
0010
0100
,  // measure 31
1000
0100
0010
0100
0000
0000
0000
0000
,  // measure 32
1000
0100
0001
0100
1000
0100
0001
0100
,  // measure 33
1000
0100
0001
0100
0000
0000
0000
0000
,  // measure 34
1000
0010
0001
0010
1000
0010
0001
0010
,  // measure 35
1000
0010
0001
0010
0000
0000
0000
0000
,  // measure 36
1000
0100
0001
0100
1000
0010
0001
0010
,  // measure 37
2000
0000
3100
0010
0000
1001
1100
0000
,  // measure 38
0012
1003
2010
3001
0012
1003
0000
0010
,  // measure 39
0200
0000
0000
0301
2000
3100
0010
0001
,  // measure 40
0020
0000
0230
0000
2300
0000
3001
0100
,  // measure 41
0020
0000
0000
0000
0030
0000
1000
0010
2000
0000
0000
0000
3000
0000
0000
0000
,  // measure 42
0002
0000
2003
0000
3200
0000
1300
0001
,  // measure 43
0020
0230
2300
3002
,  // measure 44
0203
0000
0300
0001
2000
0000
0000
0000
,  // measure 45
3000
0001
1000
0100
1000
0020
0030
0000
,  // measure 46
2010
3001
0012
1003
2010
3001
0000
0010
,  // measure 47
0200
0000
0000
1300
0002
0103
0001
1000
,  // measure 48
0020
0230
0302
2003
,  // measure 49
3200
0000
0000
0000
0300
0000
0010
0001
0020
0000
0000
0000
0030
0000
0000
0000
,  // measure 50
0002
0000
2003
0000
3200
0000
1300
0001
,  // measure 51
0020
0230
2300
3002
,  // measure 52
0203
0000
0300
0001
2000
0000
0000
0000
,  // measure 53
3000
0100
0020
0130
1000
0002
0003
0000
,  // measure 54
0000
1000
0020
0130
0001
2000
3010
0200
,  // measure 55
0000
0000
0300
0001
1000
0100
1000
0000
,  // measure 56
0010
1000
0001
0000
0010
0000
0100
0000
0010
0001
1000
0000
0010
0000
1000
0000
,  // measure 57
0001
1000
0100
0000
0010
0000
0100
0000
1000
0001
0100
0000
0010
0000
0100
0000
,  // measure 58
0001
1000
0010
0000
1000
0000
0001
0000
0010
0100
1000
0000
0001
0000
0010
0000
,  // measure 59
0100
1000
0001
0000
1000
0000
0010
0000
1000
0100
0010
0000
0001
0000
0100
0000
,  // measure 60
0001
1000
0100
0000
0010
0000
0001
0000
1000
0010
0100
0000
0001
0000
1000
0000
,  // measure 61
0100
0010
0001
0000
1000
0000
0001
0000
0100
0010
1000
0000
0001
0000
0010
0000
,  // measure 62
0001
1000
0010
0000
0100
0000
0001
0000
1000
0100
0010
0000
0100
0000
1000
0000
,  // measure 63
0010
1000
0100
0000
1000
0000
0001
0000
0100
0001
0010
0000
0100
0000
1100
0000
,  // measure 64
0000
0000
1000
0100
0010
0000
0200
0000
2300
0000
3002
0000
0203
0000
0310
0000
,  // measure 65
0000
0000
0010
1000
0002
0000
0023
0000
0230
0000
2300
0000
3200
0000
0310
0000
,  // measure 66
2002
0000
0000
0000
,  // measure 67
0000
0000
0000
0000
,  // measure 68
3003
0000
0000
0000
;

//---------------dance-single - Hard----------------
#NOTES:
     dance-single:
     Ace Of Hearts (2009):
     Hard:
     8:
     0.669,0.254,0.033,0.748,0.027: // measure 1
0000
0000
0000
0000
,  // measure 2
0000
1000
0001
1000
0001
0010
0010
0001
,  // measure 3
0000
1000
0010
1000
0010
0100
0100
0001
,  // measure 4
0000
2000
3200
2300
3200
2300
3200
0320
,  // measure 5
0032
0000
4003
0004
0000
0000
0000
0000
0000
0000
3003
0000
0000
0000
0000
0000
,  // measure 6
0000
0001
1000
0001
0010
0100
0100
1000
,  // measure 7
0000
0001
0100
0001
0100
0010
0010
1000
,  // measure 8
0000
0001
0010
0001
0010
0100
0100
1000
,  // measure 9
0000
0010
0100
0010
0100
0001
0001
1000
,  // measure 10
0000
0100
0010
0100
0010
0001
0001
1000
,  // measure 11
0000
0010
1000
0010
1000
0001
0001
0010
,  // measure 12
0000
0001
0100
0001
0100
0010
0010
1000
,  // measure 13
0000
0001
1000
0001
1000
0010
0010
0100
,  // measure 14
0000
0001
1000
0100
1000
0001
0100
0001
,  // measure 15
2000
0000
3100
0020
0000
0032
0000
2003
,  // measure 16
0000
3100
0010
0000
0000
0000
0000
0000
,  // measure 17
0000
0000
0001
0000
1000
0000
0010
0000
1000
0000
0001
0000
0400
0000
0000
0300
,  // measure 18
0000
0000
0002
2003
,  // measure 19
3200
0000
0300
1000
0001
0010
0100
2000
,  // measure 20
0000
0000
3000
0000
,  // measure 21
2000
3020
0230
0302
,  // measure 22
0003
1000
0001
0010
0200
0000
1300
0001
,  // measure 23
0100
0010
1000
0001
0010
0001
0000
2000
,  // measure 24
0000
3100
0010
0000
0000
0000
0000
0000
,  // measure 25
0000
0000
0001
0000
1000
0000
0010
0000
1000
0000
0001
0000
0400
0000
0000
0300
,  // measure 26
0000
0000
0000
0000
0002
0000
1003
0010
,  // measure 27
1000
0001
0010
0100
1000
0001
2000
0000
,  // measure 28
3000
0001
0010
0001
1000
0001
0100
0001
,  // measure 29
2000
0000
3010
0110
0000
0100
0101
0000
,  // measure 30
0100
0001
0010
0001
0100
0001
0010
0001
,  // measure 31
0100
0001
0010
0100
0000
0000
0000
0000
,  // measure 32
0100
1000
0010
1000
0100
1000
0010
1000
,  // measure 33
0100
1000
0010
0100
0000
0000
0000
0000
,  // measure 34
0001
1000
0010
1000
0001
1000
0010
1000
,  // measure 35
0001
1000
0010
1000
0000
0000
0000
0000
,  // measure 36
0001
1000
0010
0001
0010
1000
0010
0100
,  // measure 37
0002
0000
1003
0100
0000
0110
0100
0000
,  // measure 38
0020
0031
0020
0031
0020
0031
0000
1000
,  // measure 39
0200
0000
0000
1300
0001
0100
0010
0100
,  // measure 40
0002
0000
2003
0000
3200
0000
1300
0001
,  // measure 41
2000
0000
3000
0001
0200
0000
0300
0000
,  // measure 42
0002
0000
2003
0000
3200
0000
0310
0001
,  // measure 43
2000
3020
0230
0302
,  // measure 44
2003
0000
0000
3010
0200
0000
0000
0000
,  // measure 45
0300
0001
1000
0100
0010
0002
0003
0000
,  // measure 46
2000
3100
2000
3100
2000
3100
0000
1000
,  // measure 47
0002
0000
0000
1003
0010
1000
0001
0100
,  // measure 48
0020
2030
3002
0023
,  // measure 49
0230
0000
0000
1300
0002
0000
0003
0000
,  // measure 50
2000
0000
3020
0000
0230
0000
0301
1000
,  // measure 51
0020
0230
0302
2003
,  // measure 52
3200
0000
0300
1000
0002
0000
0000
0000
,  // measure 53
0003
1000
0010
0100
0001
2000
0000
3000
,  // measure 54
0000
0001
0010
0100
1000
0100
0010
0200
,  // measure 55
0000
0000
0300
1000
0001
0100
0002
0000
,  // measure 56
0023
0000
0000
0030
,  // measure 57
0100
1000
0100
0010
0001
1000
0010
0000
,  // measure 58
1000
0010
1000
0001
0010
0100
1000
0000
,  // measure 59
0001
1000
0010
1000
0100
0010
0001
0000
,  // measure 60
1000
0000
0001
0000
0100
0000
0001
0000
1000
0100
1000
0000
0001
0000
0000
0000
,  // measure 61
1000
0000
0100
0000
1000
0000
0001
0000
0010
0001
0010
0000
0001
0000
0000
0000
,  // measure 62
1000
0000
0010
0000
1000
0000
0001
0000
1000
0010
1000
0000
0001
0000
0000
0000
,  // measure 63
0100
0000
0010
0000
1000
0000
0001
0000
0100
0001
0100
0000
0010
0000
1000
0000
,  // measure 64
0000
0001
0010
0100
0010
0001
0100
0010
,  // measure 65
0000
1000
0010
0100
0001
1000
0100
1000
,  // measure 66
0020
0000
0000
0000
,  // measure 67
0000
0000
0000
0000
,  // measure 68
0030
0000
0000
0000
;

//---------------dance-single - Medium----------------
#NOTES:
     dance-single:
     Ace Of Hearts (2009):
     Medium:
     6:
     0.395,0.109,0.022,0.607,0.000:
0000
0000
0000
0000
,
0000
0001
0000
0001
0000
0004
0000
0003
,
0000
0000
1000
0000
0000
0000
1000
0000
0000
0000
4000
0000
0000
0000
0000
3000
,
0000
2002
0000
0000
0000
3003
0000
0000
,
0000
0220
0000
0000
0000
0330
0000
0000
,
0000
0000
1000
0000
0000
0000
1000
0000
0000
0000
4000
0000
0000
0000
0000
3000
,
0000
0000
0010
0000
0000
0000
0010
0000
0000
0000
0040
0000
0000
0000
0000
0030
,
0000
0000
0100
0000
0000
0000
0100
0000
0000
0000
0400
0000
0000
0000
0000
0300
,
0000
0000
0001
0000
0000
0000
0001
0000
0000
0000
0004
0000
0000
0000
0000
0003
,
0000
0000
1000
0000
0000
0000
1000
0000
0000
0000
4000
0000
0000
0000
0000
3000
,
0000
0000
0100
0000
0000
0000
0100
0000
0000
0000
0400
0000
0000
0000
0000
0300
,
0000
0000
0010
0000
0000
0000
0010
0000
0000
0000
0040
0000
0000
0000
0000
0030
,
0000
0000
0001
0000
0000
0000
0001
0000
0000
0000
0004
0000
0000
0000
0000
0003
,
0000
0000
1000
0000
0010
1000
0000
0001
,
1000
0000
0020
0000
0000
1030
0000
1000
,
0000
0001
0010
0000
0000
0000
0000
0000
,
0000
0000
0001
0000
1000
0000
0000
0000
0400
0000
0000
0000
0000
0000
0000
0300
,
0000
0000
1000
0001
,
1000
0000
0000
0010
1000
0000
0001
2000
,
0000
0000
0000
3000
0000
0000
0000
0000
,
0002
0023
0032
0003
,
0000
1000
0010
0000
1000
0000
0001
0000
,
1000
0100
0000
2000
0000
3001
0000
2000
,
0000
3001
0010
0000
0000
0000
0000
0000
,
0000
0000
0001
0000
1000
0000
0000
0000
0400
0000
0000
0000
0000
0000
0000
0300
,
0000
0000
2000
3200
,
2300
0000
3000
0000
0001
1000
0001
0000
,
0000
0010
0001
0000
1000
0100
1000
0000
,
0020
0000
0030
0000
0000
1000
0001
0000
,
4000
0000
0000
0000
,
0000
0000
0000
0000
0000
0000
0000
3000
0000
0000
0000
0000
0000
0000
0000
0000
,
0400
0000
0000
0000
,
0000
0000
0000
0000
0000
0000
0000
0300
0000
0000
0000
0000
0000
0000
0000
0000
,
0040
0000
0000
0000
,
0000
0000
0000
0000
0000
0000
0000
0030
0000
0000
0000
0000
0000
0000
0000
0000
,
0004
0000
0000
0000
,
0003
0000
1000
0010
0000
1000
0001
0000
,
0010
0001
0010
0001
0010
0001
0000
0000
,
2000
0000
3000
0010
1000
0000
0001
0000
,
0020
0032
2003
3020
,
2030
0000
0000
3001
0200
0000
0300
0000
,
0002
2003
3200
0320
,
0032
0000
2003
3002
,
2003
0000
3200
0000
,
0300
1000
0001
0000
1000
0000
0000
0000
,
0010
1000
0010
1000
0010
1000
0000
0000
,
0002
0000
0000
1003
0100
0000
1000
0000
,
0002
2003
3002
0023
,
0230
0000
0000
1300
0002
0000
0003
0000
,
2000
3020
0230
0302
,
2003
3200
0320
0032
,
2003
0000
0000
3001
0200
0000
0300
0000
,
0000
0001
1000
0000
0200
0000
0300
0000
,
0000
1000
0001
0000
2000
0000
3001
0200
,
0000
0300
0000
0001
2000
0000
3100
0000
,
0020
0000
0000
0000
,
0000
0000
0000
0030
,
0001
0000
0000
0000
1000
0000
0000
0000
0400
0000
0000
0000
0000
0300
0000
0000
,
1000
0000
0000
0000
0001
0000
0000
0000
0040
0000
0000
0000
0000
0030
0000
0000
,
0001
0000
1000
0000
0001
1000
0001
0000
,
1000
0000
0100
0000
0010
0001
0010
0000
,
0001
0000
1000
0000
0010
1000
0010
0000
,
1000
0000
0100
0000
1000
0001
1000
0000
,
0000
0001
1000
0000
0200
0000
1300
0001
,
0000
1000
0100
0000
0020
0000
0031
1000
,
0200
0000
0000
0000
,
0000
0000
0000
0000
,
0300
0000
0000
0000
;

//---------------dance-single - Easy----------------
#NOTES:
     dance-single:
     Ace Of Hearts (2009):
     Easy:
     3:
     0.181,0.073,0.000,0.325,0.000:
0000
0000
0000
0000
,
0002
0000
0003
0000
,
2000
0000
3000
0000
,
0020
0000
0000
0000
,
0000
0000
0000
0000
0000
0030
0000
0000
,
2000
0000
3000
0000
,
0002
0000
0003
0000
,
0020
0000
0030
0000
,
0200
0000
0300
0000
,
2000
0000
3000
0000
,
0002
0000
0003
0000
,
0200
0000
0300
0000
,
0020
0000
0030
0000
,
1000
0000
1000
0000
,
2000
0000
0000
0000
,
3000
0000
0000
0000
,
0000
0000
0400
0000
,
0300
0000
0000
0000
,
0010
0000
0010
0000
,
0020
0000
0030
0000
,
0200
0000
0300
0000
,
1000
0000
1000
0000
,
2000
0000
0000
0000
,
3000
0000
0000
0000
,
0000
0000
0400
0000
,
0300
0000
0000
0000
,
0020
0000
0030
0000
,
0000
0002
0000
0000
,
0003
0000
0000
0000
,
1000
0001
1000
0001
,
1000
0001
0000
0000
,
1000
0100
1000
0100
,
1000
0100
0000
0000
,
1000
0001
1000
0001
,
1000
0001
0000
0000
,
1000
0010
1000
0010
,
2000
0000
0000
3000
0000
0000
0000
0000
,
0010
0010
0010
0000
,
2000
0000
3000
0000
,
0001
0000
0001
0000
,
0002
0000
0003
0000
,
0100
0000
0100
0000
,
0200
0000
0300
0000
,
0200
0000
0300
0000
,
0000
0000
0000
0000
,
0010
0010
0010
0000
,
0200
0000
0300
0000
,
0001
0000
0001
0000
,
0002
0000
0003
0000
,
1000
0000
1000
0000
,
2000
0000
3000
0000
,
2000
0000
3000
0000
,
0000
0002
0003
0000
,
0000
2000
0000
3000
,
0000
0000
0010
0000
,
0020
0000
0000
0000
,
0030
0000
0000
0000
,
4000
0000
3000
0000
,
0004
0000
0003
0000
,
0040
0000
0030
0000
,
0400
0000
0300
0000
,
4000
0000
3000
0000
,
0004
0000
0003
0000
,
0000
0010
0010
0010
,
0000
0001
0001
0001
,
2000
0000
0000
0000
,
0000
0000
0000
0000
,
3000
0000
0000
0000
;

//---------------dance-single - Novice----------------
#NOTES:
     dance-single:
     Ace Of Hearts (2009):
     Beginner:
     1:
     0.113,0.036,0.000,0.206,0.000:
0000
0000
0000
0000
,
0001
0000
0000
0000
,
0001
0000
0000
0000
,
2000
0000
0000
0000
,
3000
0000
0000
0000
,
0001
0000
0000
0000
,
0001
0000
0000
0000
,
1000
0000
0000
0000
,
1000
0000
0000
0000
,
0010
0000
0000
0000
,
0010
0000
0000
0000
,
0100
0000
0000
0000
,
0100
0000
0000
0000
,
0010
0000
0000
0000
,
0010
0000
0000
0000
,
0010
0000
0000
0000
,
0000
0000
2000
3000
,
0000
0000
0000
0000
,
0001
0000
0000
0000
,
0002
0000
0003
0000
,
0000
0000
0000
0000
,
0010
0000
0000
0000
,
0010
0000
0000
0000
,
0010
0000
0000
0000
,
0000
0000
0002
0003
,
0000
0000
0000
0000
,
0100
0000
0000
0000
,
0000
0020
0000
0000
,
0030
0000
0000
0000
,
2000
0000
0000
0000
,
0000
3000
0000
0000
,
0200
0000
0000
0000
,
0000
0300
0000
0000
,
0020
0000
0000
0000
,
0000
0030
0000
0000
,
0002
0000
0000
0000
,
0003
0000
0000
0000
,
4000
0000
3000
0000
,
1000
0000
0000
0000
,
0001
0000
0000
0000
,
0001
0000
0000
0000
,
0010
0000
0000
0000
,
0010
0000
0000
0000
,
0020
0000
0030
0000
,
0000
0000
0000
0000
,
0004
0000
0003
0000
,
0001
0000
0000
0000
,
1000
0000
0000
0000
,
1000
0000
0000
0000
,
0100
0000
0000
0000
,
0100
0000
0000
0000
,
0200
0000
0300
0000
,
0010
0000
0000
0000
,
0010
0000
0000
0000
,
0010
0000
0000
0000
,
0020
0000
0000
0000
,
0030
0000
0000
0000
,
0002
0000
0003
0000
,
2000
0000
3000
0000
,
0002
0000
0003
0000
,
0020
0000
0030
0000
,
0004
0000
0003
0000
,
4000
0000
3000
0000
,
0000
0020
0000
0030
,
0000
2000
0000
3000
,
0002
0000
0000
0000
,
0000
0000
0000
0000
,
0003
0000
0000
0000
;
