#TITLE:Toradora Anime Mix;
#SUBTITLE:;
#ARTIST:Nico Nico Douga;
#TITLETRANSLIT:;
#SUBTITLETRANSLIT:;
#ARTISTTRANSLIT:;
#GENRE:Compilation Silly-Pop;
#CREDIT:Ace Of Hearts;
#BANNER:Toradora Anime Mix - Bn.png;
#BACKGROUND:Toradora Anime Mix - Bg.jpg;
#LYRICSPATH:;
#CDTITLE:Ace Of Hearts.png;
#MUSIC:Toradora Anime Mix.ogg;
#OFFSET:-0.240;
#SAMPLESTART:0.020;
#SAMPLELENGTH:12.000;
#SELECTABLE:YES;
#BPMS:0.000=158.600;
#STOPS:;
#BGCHANGES:-0.680=Toradora Anime Mix Video.avi=1.000=0=0=0=StretchNoLoop====,
99999=-nosongbg-=1.000=0=0=0 // don't automatically add -songbackground-
;
#KEYSOUNDS:;

//---------------dance-single - Expert----------------
#NOTES:
     dance-single:
     Ace Of Hearts (2009):
     Challenge:
     11:
     1.000,0.852,0.631,1.000,0.617:
1000
0000
0100
1000
0001
0000
0100
0001
1000
0000
0010
1000
0020
0000
0130
0000
,
0102
0000
0000
0000
1003
0010
1000
0001
0010
0100
1000
0001
0100
0010
0100
0000
,
0001
0000
1000
0000
0010
0000
0100
0001
1000
0010
0100
0010
1000
0000
0001
0000
,
0022
0000
0003
0130
1100
0000
1000
0000
,
0001
0000
0010
0000
0100
0000
1000
0000
0001
0100
0000
0100
0010
1000
0001
0000
,
0010
0000
0001
1000
0010
0100
0001
1000
0010
0000
1000
0100
0020
0000
0130
0000
,
1000
0100
0020
0000
0130
0010
0002
0000
,
1003
0000
0010
0100
0001
0000
1000
0100
0010
0000
0100
1000
0001
0100
0020
0030
,
2020
0000
0030
0000
3001
0010
0100
0000
1000
0001
0010
0000
0200
0000
0300
0000
,
2000
3000
1100
0000
0000
0000
0002
0003
0202
0000
0000
0000
1000
0000
0303
0000
,
0011
0000
0000
0000
0010
0100
0000
0100
1000
0000
0001
0100
0010
0000
0000
0000
,
0200
0300
0101
0000
0000
0000
2000
3000
2200
0000
0000
0000
0001
0000
3300
0000
,
1000
0010
0100
0001
1000
0100
1000
0001
0010
0000
0100
1000
0001
0000
0200
0000
,
0310
0000
0100
0001
1000
0000
0200
0000
1300
0000
0001
0100
0010
0000
1000
0001
,
0010
0001
1000
0010
0100
0002
0003
0001
1000
0100
0010
0100
1000
0000
1001
0000
,
0001
0000
0010
0000
0010
0000
0100
0000
0020
0000
0031
0000
1000
0001
2000
0000
,
3010
0000
0100
0001
0100
0001
0100
0001
1000
0100
1000
0000
0001
0000
0010
0000
,
0100
0000
1000
0010
1000
0000
0001
0000
0020
0000
0000
0000
0130
1000
0002
0000
,
0103
0000
0010
1000
0010
1000
0010
1000
0001
0000
1000
0100
1000
0100
1000
0100
,
0010
0000
0001
0000
1000
0001
1000
0001
0020
0000
0130
0000
1000
0000
0002
0000
,
0013
0000
0000
0100
2000
0000
3001
0000
0202
0000
0000
0000
0010
0000
0303
0000
,
1010
0000
1000
0000
1001
0000
2000
3000
2200
0000
0000
0000
0010
0000
3300
0000
,
0011
0000
0001
0200
0310
2000
0000
3100
,
0220
0300
0031
2000
0020
0000
0001
3030
,
1002
0000
0100
0100
0100
0100
0203
0000
,
0310
0000
1010
0000
1000
0000
0200
0000
0310
0001
0000
0000
2000
0000
3000
0000
,
2020
0000
0000
0000
3030
0000
0000
0000
4001
0000
0000
0000
0000
3000
0000
0000
1004
0000
0000
0000
0000
0003
0000
0000
0202
0000
0000
0000
0303
0000
0000
0000
,
0100
0010
0100
0001
1000
0100
0010
0001
1000
0010
1000
0001
0010
0000
0000
0000
,
0001
1000
0001
0100
0010
1000
0001
0010
0001
0000
1000
0010
0100
0000
0002
0000
,
1003
0000
0010
0100
0001
1000
0100
0010
0001
1000
0010
0000
1000
0010
0100
0000
,
0002
0000
1003
0010
0200
0000
0301
1000
,
0002
0000
0000
0000
0013
0000
0100
0000
1000
0010
0000
0010
0200
0000
0300
0000
,
0002
0003
1001
0000
2000
3000
1100
0000
0200
0300
0110
0000
0110
0000
0000
0000
,
0011
0000
0001
1000
0001
1000
0001
0000
0200
0300
0110
0000
0110
0000
0000
0000
,
0200
0300
0101
0000
0002
0003
1001
0000
2000
3000
1100
0000
1100
0000
0000
0000
,
0200
0300
0110
0000
0010
0000
0002
0000
2000
0000
0000
0000
0010
0000
3003
0000
,
1100
0000
0000
0000
0100
0010
0001
0000
1000
0010
0100
0000
0101
0000
0000
0000
,
2200
0000
0000
0000
3300
0000
0000
0000
0140
0000
0000
0000
0000
0030
0000
0000
0011
0000
0000
0000
0000
0000
0001
0000
2000
0000
0000
0000
3000
0000
0000
0000
,
0010
0100
0002
0000
0103
0001
2000
3000
,
1020
0000
0130
0001
2000
3100
0020
0000
,
0230
0000
2300
3002
0023
0000
0230
2300
,
3002
0000
0023
0030
0020
0000
0230
0000
0320
0000
0000
0000
0032
0000
2003
0000
,
3200
0000
0320
0000
0230
2300
3200
2300
3002
0000
0203
0000
0302
0023
0032
0023
,
0230
0000
2300
0000
3200
0320
0230
0320
0032
0000
2003
3200
2300
0000
3020
0030
,
0210
0000
0000
0301
0000
0000
2000
3000
1100
0000
0000
0000
0200
0000
0300
0000
,
0020
0000
0000
0031
0000
0000
0100
0000
0110
0000
0000
0000
0020
0000
0030
0000
,
2010
0000
3100
0000
0110
0010
0000
0001
,
1000
0000
0100
0000
1001
0100
0010
0000
;

//---------------dance-single - Hard----------------
#NOTES:
     dance-single:
     Ace Of Hearts (2009):
     Hard:
     9:
     0.851,0.753,0.206,0.947,0.343:
1000
0000
0001
0100
0001
0000
1000
0010
1000
0000
0001
1000
0002
0000
0103
0000
,
0020
0000
0000
0000
1030
0001
1000
0000
0010
0000
1000
0000
0001
0010
0002
0000
,
1003
0000
0010
0000
0100
0000
0001
0000
1000
0100
2000
0000
3001
0000
0100
0000
,
0020
0000
0000
0130
0001
0000
1000
0000
,
0001
0000
0010
0000
0100
0000
1000
0000
0001
0000
0100
0000
0001
1000
0001
0000
,
1000
0000
0010
0100
0010
0000
1000
0000
0001
0000
1000
0010
2000
0000
3000
0000
,
0100
0010
0002
0000
1003
0100
0020
0000
,
0130
0000
1000
0001
1000
0000
0010
1000
0010
0000
0100
0000
0001
0100
0001
0000
,
2000
0000
0000
0000
3001
0010
0001
0000
1000
0000
0010
0000
0200
0000
0300
0000
,
0002
0003
1001
0000
0000
0000
2000
3000
1001
0000
0000
0000
0220
0000
0330
0000
,
1001
0000
0000
0000
1000
0010
0000
0010
0100
0000
0001
0000
2000
0000
3000
0000
,
0200
0300
0110
0000
0000
0000
0020
0030
0110
0000
0000
0000
2002
0000
3003
0000
,
0001
0100
0001
0100
0001
0000
1000
0000
0100
0000
0010
0001
0010
0000
0100
0000
,
1000
0000
0001
0100
0001
0000
2000
0000
3010
0000
0100
0001
0100
0000
0020
0000
,
1030
0001
1000
0000
0010
0200
0000
0000
0301
0100
0001
0100
0001
0000
0000
0000
,
1000
0010
0010
1000
0010
0100
0002
0003
,
1000
0000
0001
0100
0001
0000
1000
0000
0001
0010
0001
0000
1000
0000
0100
0000
,
0010
0000
0001
0010
0001
0000
1000
0000
0020
0000
0000
0000
1030
0000
0001
0000
,
0100
0000
0010
0000
1000
0010
1000
0000
0001
0000
1000
0000
0001
0010
0001
0000
,
1000
0000
0001
0000
0010
0100
0010
0000
0001
0000
0100
0000
0010
0000
2000
0000
,
3001
0000
0000
0100
0020
0000
1030
0000
1100
0000
0000
0000
0110
0000
0000
0000
,
0010
0001
2000
3010
0110
0000
0101
0000
,
0011
0000
0002
1003
0010
0200
0000
0301
,
0010
0000
0100
2000
0002
0000
0010
3003
,
2000
0000
0100
0100
0100
0100
3200
0000
,
0310
0000
0001
0000
1000
0000
0010
0000
1000
0001
0000
0000
0200
0000
0300
0000
,
0002
0000
0000
0000
0003
0000
0000
0000
4000
0000
0000
0000
0000
3000
0000
0000
0004
0000
0000
0000
0000
0003
0000
0000
0020
0000
0000
0000
0030
0000
0000
0000
,
0100
0000
1000
0000
0001
0100
0001
0000
1000
0000
0010
1000
0010
0000
0000
0000
,
0100
0001
0100
0000
0010
0000
1000
0000
0001
0000
0010
0100
0010
0000
0002
0000
,
1003
0000
0010
1000
0010
0000
0100
0000
0001
0100
0001
0000
1000
0100
1000
0000
,
0002
0000
0103
0010
2000
0000
3100
0010
,
0002
0000
0000
0000
1003
0000
0010
0000
0100
0001
0000
0001
0100
0000
0000
0000
,
0020
0130
0020
0130
0020
1000
1030
0000
,
0001
0000
1000
0100
1000
0100
1000
0000
0002
0000
1000
0000
1003
0000
0000
0000
,
0200
1300
0200
1300
0200
1000
1300
0000
,
0002
0013
0200
1300
0002
0003
0110
0000
,
1000
0000
0001
0000
1000
0010
1000
0000
0001
0000
0000
0000
0101
0000
0000
0000
,
0200
0000
0000
0000
0300
0000
0000
0000
0040
0000
0000
0000
0000
0030
0000
0000
1000
0000
0000
0000
0000
0000
0000
0000
2200
0000
0000
0000
3300
0000
0000
0000
,
0200
0320
0032
2003
,
3020
0230
0302
0003
,
0200
0000
0310
1000
0002
0000
1003
0100
,
1000
0010
0010
1000
0020
0000
0130
0001
,
1000
0000
0010
0000
1000
0001
1000
0000
0010
0000
0100
0000
0001
0100
0001
0000
,
1000
0000
0100
0000
1000
0001
1000
0000
0010
0000
0100
0001
0100
0000
0010
0000
,
2000
0000
0000
3100
0000
0000
0010
0000
0001
0000
0000
0000
2000
0000
3000
0000
,
0002
0000
0000
0103
0000
0000
0010
0000
1000
0000
0000
0000
0200
0000
0300
0000
,
0020
0000
0130
0000
1000
0001
0000
0100
,
0010
0000
1000
0000
0002
1003
0010
0000
;

//---------------dance-single - Medium----------------
#NOTES:
     dance-single:
     Ace Of Hearts (2009):
     Medium:
     7:
     0.641,0.524,0.041,0.576,0.000:
0001
0100
0001
0100
0001
0100
0002
1003
,
0020
0000
1030
0001
0100
0001
1000
0000
,
0100
0010
0001
1000
0010
0100
0001
0000
,
2000
0000
0000
3010
0100
0000
0100
0000
,
0001
0010
0100
1000
0001
1000
0001
0000
,
1000
0010
1000
0001
1000
0100
1000
0000
,
0001
0100
0020
0000
1030
0001
0020
0000
,
0130
1000
0001
0100
0001
1000
0100
0000
,
0020
0000
0130
1000
0001
0100
0010
0000
,
0200
0301
0000
0200
0301
0000
0110
0000
,
1001
0000
1000
0010
1000
0001
0010
0000
,
0200
0310
0000
0200
0310
0000
1001
0000
,
1000
0100
1000
0001
0100
0010
0100
0000
,
0001
0010
0001
0000
1000
0100
1000
0000
,
0001
0100
0010
1000
0001
0010
0100
1000
,
0001
0100
0010
0100
0001
1000
0100
0000
,
2000
0000
3002
0000
0013
0010
0000
0001
,
2000
3100
0100
0100
,
0020
0000
0230
0000
1300
2000
0000
3001
,
0200
0310
0010
0010
,
1000
0010
1000
0001
0010
0000
0100
0000
,
1000
0001
0100
0010
0100
0000
0001
0000
,
1000
0000
0100
1000
0001
0200
0000
0310
,
2000
0000
3001
0100
0001
0000
0010
0000
,
0002
0000
1003
0010
1000
0010
0200
0000
,
0301
2000
0000
3001
0100
0010
0200
0000
,
0301
0000
0000
0000
0000
0000
0000
0000
4000
0000
0000
0000
0000
3000
0000
0000
0004
0000
0000
0000
0000
0003
0000
0000
0200
0000
0000
0000
0000
0000
0000
0000
,
0301
1000
0100
1000
0001
0100
0010
0000
,
0100
0001
1000
0100
0010
0001
1000
0000
,
0010
0100
0001
0000
1000
0100
0010
0001
,
2000
0000
3001
0010
0200
0000
1300
0001
,
2000
0000
3001
0100
0001
1000
0100
0000
,
0010
0001
0010
0001
1000
0001
0001
0000
,
1000
0010
0010
0010
1000
0010
0010
0000
,
0100
0001
0100
0001
0100
0010
0010
0000
,
1000
0001
0020
0000
0032
0000
0103
0000
,
0001
0000
1000
0010
1000
0000
0100
0000
,
0010
0000
0000
0000
0000
0000
0000
0000
0400
0000
0000
0000
0000
0300
0000
0000
1000
0000
0000
0000
0000
0000
0000
0000
0010
0000
0000
0000
0000
0000
0000
0000
,
2000
3002
0203
0320
,
2030
3002
0203
0300
,
0002
0000
1003
0100
2000
0000
3001
0100
,
0001
1000
1000
0100
2000
0000
3001
0010
,
0100
1000
0001
1000
0010
0100
0001
1000
,
0100
0010
0100
1000
0001
0100
0001
1000
,
0020
0000
0130
0001
0100
0000
0010
0000
,
2000
0000
3001
0010
0001
0000
0100
0000
,
0010
0000
1000
0000
0001
0020
0000
0031
,
1000
0100
1000
0010
;

//---------------dance-single - Easy----------------
#NOTES:
     dance-single:
     Ace Of Hearts (2009):
     Easy:
     4:
     0.325,0.229,0.014,0.357,0.000: // measure 1
0001
0001
0002
0003
,  // measure 2
1000
1000
1000
0000
,  // measure 3
0100
0100
0100
0000
,  // measure 4
0020
0000
0030
0000
,  // measure 5
0100
0100
0100
0000
,  // measure 6
1000
1000
1000
0000
,  // measure 7
0002
0003
0020
0030
,  // measure 8
0100
0100
0100
0000
,  // measure 9
1000
1000
1000
0000
,  // measure 10
0002
0003
0000
0002
0003
0000
0001
0000
,  // measure 11
0100
0100
0100
0000
,  // measure 12
0020
0030
0000
0020
0030
0000
0010
0000
,  // measure 13
1000
1000
2000
3000
,  // measure 14
0002
0003
0200
0300
,  // measure 15
0010
0010
0010
0000
,  // measure 16
1000
1000
1000
0000
,  // measure 17
0200
0300
0100
0000
,  // measure 18
0010
0010
0010
0010
,  // measure 19
0002
0003
0001
0000
,  // measure 20
1000
1000
1000
1000
,  // measure 21
0010
0010
0010
0010
,  // measure 22
0100
0100
0100
0100
,  // measure 23
0001
0001
0001
0000
,  // measure 24
1000
0001
1000
0000
,  // measure 25
0002
0000
0000
0000
4003
0000
0000
0000
0000
0000
0000
0000
0000
3000
0000
0000
,  // measure 26
0010
0010
0010
0000
,  // measure 27
1000
0000
0000
0000
0004
0000
0000
0000
0000
0000
0000
0000
0000
0003
0000
0000
,  // measure 28
0100
0100
0100
0000
,  // measure 29
0010
0010
0010
0000
,  // measure 30
1000
1000
1000
0000
,  // measure 31
0002
0000
0203
0000
,  // measure 32
0310
0010
0010
0000
,  // measure 33
1000
1000
2000
3000
,  // measure 34
0002
0003
0001
0001
,  // measure 35
0010
0010
0020
0030
,  // measure 36
0001
0002
0003
1001
,  // measure 37
1000
1000
1000
1000
,  // measure 38
0010
0000
0020
0030
0010
0000
0010
0000
,  // measure 39
2000
3000
0002
0003
,  // measure 40
0020
0000
0030
0000
,  // measure 41
0200
0000
2300
0000
,  // measure 42
3001
0001
0001
1000
,  // measure 43
1000
1000
0100
0100
,  // measure 44
0010
0010
0010
0000
,  // measure 45
0001
0001
0001
0000
,  // measure 46
0100
0100
0100
0000
,  // measure 47
0010
0000
0010
0000
,  // measure 48
1000
1000
1000
0010
;

//---------------dance-single - Novice----------------
#NOTES:
     dance-single:
     Ace Of Hearts (2009):
     Beginner:
     2:
     0.204,0.130,0.082,0.274,0.000: // measure 1
0001
0000
0001
0000
,  // measure 2
1000
0000
1000
0000
,  // measure 3
0100
0000
0100
0000
,  // measure 4
0020
0000
0030
0000
,  // measure 5
0100
0000
0100
0000
,  // measure 6
1000
0000
1000
0000
,  // measure 7
0001
0000
0001
0000
,  // measure 8
2000
0000
3000
0000
,  // measure 9
0010
0000
0010
0000
,  // measure 10
0110
0000
0110
0000
,  // measure 11
0001
0000
0001
0000
,  // measure 12
1001
0000
1001
0000
,  // measure 13
1000
0000
1000
0000
,  // measure 14
0100
0000
0100
0000
,  // measure 15
0010
0000
0010
0000
,  // measure 16
0002
0000
0003
0000
,  // measure 17
1000
0000
1000
0000
,  // measure 18
2000
0000
3000
0000
,  // measure 19
0010
0000
0010
0000
,  // measure 20
0020
0000
0030
0000
,  // measure 21
0100
0000
0100
0000
,  // measure 22
0001
0000
0001
0000
,  // measure 23
1000
0000
1000
0000
,  // measure 24
2000
0000
3000
0000
,  // measure 25
2002
0000
3003
0000
,  // measure 26
0001
0000
0001
0000
,  // measure 27
0220
0000
0330
0000
,  // measure 28
0100
0000
0100
0000
,  // measure 29
1000
0000
1000
0000
,  // measure 30
0001
0000
0001
0000
,  // measure 31
0200
0000
0300
0000
,  // measure 32
0010
0000
0010
0000
,  // measure 33
2000
0000
3000
0000
,  // measure 34
0001
0000
0001
0000
,  // measure 35
0020
0000
0030
0000
,  // measure 36
0200
0300
0000
0000
,  // measure 37
1000
0000
1000
0000
,  // measure 38
0002
0000
0003
0000
,  // measure 39
0100
0000
0100
0000
,  // measure 40
0200
0000
0300
0000
,  // measure 41
0010
0000
0010
0000
,  // measure 42
0020
0000
0030
0000
,  // measure 43
1000
0000
1000
0000
,  // measure 44
2000
0000
3000
0000
,  // measure 45
0002
0000
0003
0000
,  // measure 46
2000
0000
3000
0000
,  // measure 47
0100
0000
1000
0000
,  // measure 48
0001
0000
0010
0000
;
