#TITLE:To Do What I Can;
#SUBTITLE:;
#ARTIST:Yoko Ishida;
#TITLETRANSLIT:;
#SUBTITLETRANSLIT:;
#ARTISTTRANSLIT:;
#GENRE:J-Pop;
#CREDIT:Ace Of Hearts;
#BANNER:To Do What I Can - bn.png;
#BACKGROUND:To Do What I Can - bg.png;
#LYRICSPATH:To Do What I Can Lyrics.lrc;
#CDTITLE:Ace Of Hearts.png;
#MUSIC:To Do What I Can.ogg;
#OFFSET:-0.140;
#SAMPLESTART:59.800;
#SAMPLELENGTH:12.000;
#SELECTABLE:YES;
#BPMS:0.000=160.000;
#STOPS:;
#BGCHANGES:-0.180=Strike Witches S2 OP (Clean).avi=1.000=0=0=0=StretchNoLoop====,
238.000=To Do What I Can - bg.png=1.000=0=0=1=Centered====,
99999=-nosongbg-=1.000=0=0=0 // don't automatically add -songbackground-
;
#KEYSOUNDS:;

//---------------dance-single - Hard----------------
#NOTES:
     dance-single:
     Ace Of Hearts (2009):
     Hard:
     8:
     0.628,0.528,0.033,1.000,0.061:
2000
0000
3010
0200
0000
0302
0000
0023
,
0000
0130
1000
0001
0200
0000
0310
1000
,
0002
0000
1003
0200
0000
0320
0000
0032
,
0000
0203
0000
0301
2000
0000
3100
0000
,
0020
0000
0032
0000
2003
0000
3000
0001
,
0010
0200
0000
1300
0000
0000
0001
0000
,
0200
0000
0300
0010
2000
0000
3000
0000
,
0002
0000
0000
0023
0000
0000
0230
0000
1300
0000
0001
0000
0010
0000
0000
0000
,
0002
0000
1003
0020
0000
2030
0000
3002
,
0000
1003
0010
1000
0200
0000
0310
0001
,
2000
0000
3010
0200
0000
0302
0000
2003
,
0000
3020
0000
1030
0002
0000
0003
0000
,
2000
3002
0203
0302
,
0023
0000
0000
0000
0130
0000
2000
0000
3000
0000
0000
0000
0000
0000
0001
0100
,
0002
0000
2003
3200
0000
0320
0000
0032
,
0003
0000
1000
0000
0100
0000
0010
0001
,
2000
0000
3001
0200
0000
0320
0000
2030
,
0000
3100
0010
0001
,
0020
0000
0000
0230
2000
0000
0000
0000
,
0000
0300
3000
0001
,
0100
0010
1000
0001
,
4000
0004
0000
0000
0000
0000
0000
0000
0000
0000
0000
0000
0000
0000
0000
0000
,
3003
0000
0000
1000
0200
0000
0310
0001
,
0000
0200
0000
0300
0000
0001
1000
0020
,
0000
1030
0002
0000
1003
0200
0000
0320
,
0000
0130
1000
0002
0000
0203
0000
0320
,
0000
0030
0000
0100
0002
0000
1003
0020
,
0000
0230
0000
0300
0000
0001
1000
0200
,
0000
1300
0020
0000
0030
0000
0000
0200
,
0000
0301
2000
0000
3100
0020
0030
0000
,
0002
0000
0000
0000
1003
0000
0400
0040
0000
0000
0000
0000
0330
0000
0110
0000
,
0000
1100
0000
1001
0000
0001
0100
0020
,
0000
1030
0001
0100
0001
0010
0100
1000
,
0000
0100
0010
0001
0000
1000
0001
0100
,
0002
0000
1003
0020
0030
0000
0100
0001
,
2000
0000
0000
3200
0000
0000
0320
0000
0000
0000
0030
0000
0000
0000
0000
0000
,
0002
0000
0000
0023
0000
0000
0130
0000
0020
0000
0000
0230
0000
0000
1300
0000
,
0002
0000
0000
1003
0200
0000
2300
0000
,
3002
0000
0000
0023
0000
0000
0030
0000
,
0400
4000
0000
0000
0000
0000
0000
0000
3300
0000
0000
0000
0200
0000
0000
0000
,
2300
0000
3001
0200
0000
0302
0000
0023
,
0000
0031
1000
0100
0020
0000
0130
1000
,
0002
0000
1003
0200
0000
0320
0000
0032
,
0000
1003
0010
1000
0200
0000
0310
0000
,
0002
0000
0203
0000
0302
0000
0000
1003
,
0010
0000
0000
2000
0000
0000
3200
0000
0000
0000
0300
0000
1000
0000
0001
0000
,
0200
0000
0000
0301
2000
0000
3000
0000
,
0002
0000
0000
0203
0000
0000
0310
0000
2000
0000
0000
0000
3100
0000
0010
0000
,
0002
0000
1003
0020
0000
0230
0000
0302
,
0000
1003
0100
0010
0002
0000
1003
0010
,
0200
0000
0310
2000
0000
3002
0000
0023
,
0000
0031
0010
0100
2000
0000
3001
0000
,
0200
0320
2030
3002
,
0023
0000
0130
2000
0000
3000
0000
0001
,
0020
0000
0031
2000
0000
3020
0000
0230
,
0000
0000
0300
0000
0001
0000
0000
0000
1000
0000
0000
0000
0010
0000
1000
0001
,
2000
0000
3001
0200
0000
0320
0000
2030
,
0000
3020
0230
0302
,
2003
0000
0000
3002
0200
0000
0000
0000
,
0003
0000
0300
0000
;

//---------------dance-single - Expert----------------
#NOTES:
     dance-single:
     Ace Of Hearts (2009):
     Challenge:
     10:
     0.950,0.925,0.622,1.000,0.316: // measure 1
2001
0000
3010
1000
0010
0000
0210
0000
0301
0000
1000
0000
0000
0000
1200
0000
,  // measure 2
0000
0000
0310
0100
1000
0001
0100
0010
1000
0001
0010
0100
1000
0001
0100
0010
,  // measure 3
2000
0000
3100
0010
0001
0000
0200
0000
0010
0000
0320
0000
0000
0000
1030
0000
,  // measure 4
0001
0000
0000
0100
0000
0000
0010
0000
0000
0100
0000
0000
0001
0000
0000
1000
0000
0000
0100
0000
0000
0010
0000
0000
0400
0000
4000
0000
0000
0000
0000
0000
0000
0000
0000
0000
3300
0000
0000
0000
0000
0000
MM00
0000
0000
0000
0000
0000
,  // measure 5
0012
0000
2003
3000
2020
3000
0130
0001
,  // measure 6
0021
0230
0000
1300
0000
0001
0101
0000
,  // measure 7
0200
0300
0120
1030
1002
0000
0103
0000
,  // measure 8
1020
0000
0000
0000
0000
0000
0000
0000
0000
0000
0000
0000
0130
0000
0000
0001
0000
0000
1000
0000
0000
0100
0000
0000
0010
0000
0000
0100
0000
0000
1000
0000
0000
0001
0000
0000
0400
0000
0004
0000
0000
0000
0000
0000
0000
0000
0000
0000
,  // measure 9
0303
0000
1M0M
0010
1000
0000
1200
0000
0000
0000
0310
0001
1000
0000
1020
0000
,  // measure 10
0000
0000
0130
0001
1000
0000
0100
0000
0020
0000
0031
0000
0101
0000
0100
0000
,  // measure 11
0210
0000
0301
1000
0100
0000
0020
0000
0000
0000
0031
0000
0100
0000
0120
0000
,  // measure 12
0000
0000
1030
0000
0002
0000
0013
0000
0200
0000
1300
0001
0020
0000
0031
0000
,  // measure 13
0201
0000
0000
0000
0320
0000
0000
0000
2030
0000
0000
0000
3002
0000
0000
0003
,  // measure 14
0022
0000
0003
0000
0230
0000
2000
0000
0300
0000
3001
0000
0011
0000
0010
0001
,  // measure 15
2000
3001
0200
0320
1030
0002
0013
0200
,  // measure 16
0000
0000
1300
0000
0001
0000
0000
0000
0201
0000
0000
0000
0310
0000
1000
0001
,  // measure 17
0020
0031
1000
0200
1300
0002
0103
0220
,  // measure 18
0030
0301
2000
0000
3020
0000
0230
0000
,  // measure 19
0302
0003
1001
1000
0020
0000
0100
0000
,  // measure 20
1000
0001
1000
0130
,  // measure 21
0001
1000
0100
0010
,  // measure 22
0001
0000
0000
0010
0000
0000
0100
0000
0000
1000
0000
0000
0001
0000
0000
0100
0000
0000
0010
0000
0000
1000
0000
0000
0001
0000
0000
1000
0000
0000
0100
0000
0000
1000
0000
0000
0004
0000
0400
0000
0000
0000
0000
0000
0000
0000
0000
0000
,  // measure 23
0303
0M0M
0000
0001
0021
0130
1000
1020
,  // measure 24
0000
0130
0001
0010
0100
2000
3001
0201
,  // measure 25
0000
0310
1000
0200
0310
0001
1000
1020
,  // measure 26
0000
0130
0001
2000
3100
0020
0031
0100
,  // measure 27
0000
0010
0100
0001
2000
3100
0010
0012
,  // measure 28
0000
1003
0010
0100
0001
1000
0100
2000
,  // measure 29
3001
0100
0010
0000
1000
0001
0000
0021
,  // measure 30
0000
0000
0130
0000
1000
0000
0000
0000
2100
0000
3001
0100
0001
0000
1000
0000
,  // measure 31
1020
0000
0130
0001
1000
0000
0001
0010
0100
0010
0001
1000
0100
0010
0001
0000
,  // measure 32
0000
1001
0000
0101
0000
0100
0010
2010
,  // measure 33
3001
0010
0100
0010
0001
1000
0010
0100
,  // measure 34
0001
2000
3200
0320
0031
1000
0010
0100
,  // measure 35
0002
1003
0100
0020
0030
0000
0100
1000
,  // measure 36
1002
0000
0000
0103
0000
0000
0020
0000
0000
0000
1030
0000
1000
0000
0000
0000
,  // measure 37
1200
0000
0000
0320
0000
0000
0031
0000
0201
0000
0000
0320
0000
0000
1030
0000
,  // measure 38
1002
0000
1003
0010
0200
0301
0020
0130
,  // measure 39
2000
3001
0100
0020
0000
1030
0001
0100
,  // measure 40
0010
0000
0000
1000
0000
0000
0001
0000
0000
0100
0000
0000
0001
0000
0000
1000
0000
0000
0100
0000
0000
0010
0000
0000
0004
0000
4000
0000
0000
0000
0000
0000
0000
0000
0000
0000
3003
0000
0000
0000
0000
0000
M00M
0000
0000
0000
0000
0000
,  // measure 41
1020
0000
0130
0001
1000
0000
0200
0000
0310
0000
0002
0000
0103
0000
0120
0000
,  // measure 42
0000
0000
1030
0001
0010
0000
0100
0000
2000
0000
3001
0000
0101
0000
0100
0000
,  // measure 43
0120
0000
1030
0001
0100
0000
0020
0000
1030
0000
0200
0000
0310
0000
0012
0000
,  // measure 44
0000
0000
1003
0000
0010
0000
1000
0000
0100
0000
1000
0001
0100
0000
0010
0000
,  // measure 45
2000
3100
0020
0130
2000
3001
0100
0020
,  // measure 46
2030
0000
0000
3001
0000
0000
0101
0000
0000
0000
0000
0000
0100
0000
0010
0000
,  // measure 47
2000
3000
1100
0100
0020
0030
0011
0000
,  // measure 48
2001
0000
0000
3010
0000
0000
0100
0000
0404
0000
0000
0000
0303
0000
0M1M
0000
,  // measure 49
2010
0000
3001
0010
0001
0000
0201
0000
0000
0000
0310
0000
0000
0000
0210
0000
,  // measure 50
0000
0001
0010
0001
0320
0000
1030
0010
,  // measure 51
0200
0000
0310
1000
0001
0000
0021
0000
0000
0000
0230
0000
1300
0000
1020
0000
,  // measure 52
0000
0100
1000
0100
2030
0000
3001
0100
,  // measure 53
0120
0000
0000
0000
2030
0000
0000
0000
3002
0000
0000
0000
0203
0000
0000
0300
,  // measure 54
0120
0000
0000
0000
1030
0000
0200
0000
0000
0000
1300
0000
1010
0000
0010
0100
,  // measure 55
0002
1003
0100
0020
0130
2000
3001
0200
,  // measure 56
0000
0000
0301
0000
2000
0000
0000
0000
3200
0000
0000
0000
0320
0000
0031
1000
,  // measure 57
0020
0130
0001
2000
3001
0020
0130
2000
,  // measure 58
0000
3001
0101
0000
0020
0000
2030
0000
,  // measure 59
3200
0000
0000
0300
0110
0000
0020
0000
0002
0000
0000
0000
0000
0000
0000
0000
,  // measure 60
0030
0000
0003
0000
;

//---------------dance-single - Medium----------------
#NOTES:
     dance-single:
     Ace Of Hearts (2009):
     Medium:
     6:
     0.482,0.363,0.000,0.966,0.033:
0002
0000
1003
0020
0000
1030
0000
0001
,
0000
1000
0000
0001
0020
0000
0030
0000
,
0002
0000
1003
0020
0000
1030
0000
0001
,
0000
0100
0000
0001
2000
0000
3000
0000
,
0100
0000
0010
0000
0001
0000
0000
1000
,
0020
0000
0000
0130
0000
0000
0001
0000
,
2000
0000
0000
3001
0100
0000
0000
0000
,
0100
0000
0000
0100
0000
0000
0100
0000
0100
0000
0000
0000
0000
0000
0000
0000
,
0020
0000
1030
0002
0000
1003
0000
0100
,
0000
1000
0000
0001
0200
0000
0300
0000
,
0010
0000
1000
0002
0000
0013
0000
0001
,
0000
1000
0000
0100
0020
0000
0030
0000
,
0200
2300
3002
0203
,
0320
0000
1030
0001
0000
0000
0000
1000
,
0002
0000
1003
0100
0000
0010
0000
0200
,
0000
0000
0000
0000
0300
0000
0000
1000
,
0002
0000
0103
0020
0000
2030
0000
3002
,
0000
0023
0032
2003
,
3020
0000
0000
0130
0002
0000
0000
0000
,
0000
0000
0003
0000
,
1000
0001
1000
0000
,
0004
4000
0000
0000
0000
0000
0000
0000
0000
0000
0000
0000
0000
0000
0000
0000
,
3003
0000
0000
1000
0020
0000
1030
0001
,
0000
0200
0000
0300
0000
0001
0000
1000
,
0000
0001
0000
0000
1000
0020
0000
0130
,
0000
0000
0001
1000
0000
0020
0000
1030
,
0000
0000
0000
0001
0020
0000
0031
2000
,
0000
3100
0000
0000
0000
1000
0010
2000
,
0000
3001
0010
0000
0000
0000
0000
0002
,
0000
1003
0200
0000
1300
0001
0000
0000
,
0200
0000
0301
2000
0000
3010
0000
0100
,
0000
0001
0000
0100
0000
0010
1000
0010
,
0000
0000
1000
0000
0001
0000
1000
0100
,
0000
0000
0000
0000
0000
1000
0010
0000
,
0200
0000
0301
1000
0000
0000
0001
0000
,
0020
0000
0000
0130
0000
0000
0000
0000
,
1000
0000
0000
1000
0000
0000
0000
0000
0001
0000
0000
0001
0000
0000
0000
0000
,
0020
0000
0000
0130
2000
0000
3001
0000
,
0200
0000
0000
0320
0000
0000
0030
0000
,
4000
0004
0000
0000
0000
0000
0000
0000
3003
0000
0000
0000
0001
0000
0000
0000
,
0020
0000
0031
2000
0000
3001
0000
0200
,
0000
0301
1000
0000
0010
0000
0000
0100
,
0002
0000
1003
0020
0000
0130
0000
0002
,
0000
0103
0001
0000
1000
0000
0000
0000
,
0200
0000
0320
0000
0032
0000
0003
1000
,
0020
0000
0000
1030
0000
0000
0001
0010
,
0002
0000
0003
1000
0020
0000
0030
0000
,
0010
0000
0000
0010
0000
0000
0010
0000
0010
0000
0000
0000
0000
0000
1000
0000
,
0020
0000
1030
0002
0000
2003
0000
3020
,
0000
1030
0010
1000
0002
0000
0003
1000
,
0200
0000
1300
0002
0000
0023
0000
0230
,
0000
1300
0002
0000
0013
0000
0000
0000
,
0200
2300
3002
2003
,
3020
0000
1030
0002
0000
0003
0000
1000
,
0002
0000
1003
0020
0000
2030
0000
3002
,
0000
0000
0003
0000
0000
0000
0000
1000
,
0020
0000
1030
0002
0000
0023
0000
0230
,
0000
2300
3002
0203
,
0320
0000
0000
0130
0002
0000
0000
0000
,
0000
0000
0003
0000
;

//---------------dance-single - Easy----------------
#NOTES:
     dance-single:
     Ace Of Hearts (2009):
     Easy:
     3:
     0.187,0.165,0.011,0.089,0.011:
0001
0000
0001
0000
,
0001
0001
0001
0000
,
1000
0000
1000
0000
,
1000
1000
1000
0000
,
0010
0010
0010
0000
,
0100
0000
0100
0000
,
0001
0000
0001
0000
,
0010
0010
0010
0000
,
0100
0000
0100
0000
,
1000
1000
1000
0000
,
0001
0000
0001
0000
,
0100
0100
0100
0000
,
0010
0000
0010
0000
,
0020
0000
0030
0000
,
2000
0000
0000
0000
,
3000
0000
0000
0000
,
0001
0000
0001
0000
,
0001
0000
0001
0000
,
0200
0000
0000
0000
,
0000
0000
0000
0000
,
0300
0000
0000
0000
,
0004
4000
0000
0000
0000
0000
0000
0000
0000
0000
0000
0000
0000
0000
0000
0000
,
3003
0000
0001
0000
,
0001
0000
0000
0000
,
1000
0000
1000
0000
,
1000
0000
0010
0010
,
0010
0000
0100
0000
,
0100
0000
0000
0000
,
0001
0000
0000
0000
,
1000
1000
1000
0000
,
0220
0000
0000
0000
,
0330
0000
0000
0000
,
0001
0001
0001
0000
,
0100
0000
0000
0000
,
0010
0000
0010
0000
,
1000
0000
1000
0000
,
0100
0000
0100
0000
,
0100
0000
0000
0000
,
0020
0000
0030
0000
,
0004
4000
0000
0000
0000
0000
0000
0000
3003
0000
0000
0000
0000
0000
0000
0000
,
0001
0000
0001
0000
,
0010
0010
0010
0000
,
0001
0000
0001
0000
,
1000
1000
1000
0000
,
0010
0000
0010
0000
,
0100
0000
0100
0000
,
0001
0000
0001
0000
,
0010
0010
0010
0000
,
0100
0000
0100
0000
,
1000
1000
1000
0000
,
0001
0000
0001
0000
,
0100
0100
0100
0000
,
0010
0000
0010
0000
,
0020
0000
0030
0000
,
1000
0000
1000
0000
,
1000
0000
0000
0000
,
0001
0000
0001
0000
,
0001
0000
0000
0000
,
2000
0000
0000
0000
,
0000
0000
3000
0000
;

//---------------dance-single - Novice----------------
#NOTES:
     dance-single:
     Ace Of Hearts (2009):
     Beginner:
     2:
     0.116,0.066,0.022,0.067,0.006:
0001
0000
0000
0000
,
0001
0000
0000
0000
,
1000
0000
0000
0000
,
1000
0000
0000
0000
,
0010
0000
0000
0000
,
0010
0000
0000
0000
,
1000
0000
0000
0000
,
0001
0000
0001
0000
,
0001
0000
0000
0000
,
0001
0000
0000
0000
,
0100
0000
0000
0000
,
0100
0000
0000
0000
,
0010
0000
0010
0000
,
0010
0000
0000
0000
,
0100
0000
0000
0000
,
0100
0000
0000
0000
,
0001
0000
0000
0000
,
0001
0000
0000
0000
,
2002
0000
0000
0000
,
0000
0000
0000
0000
,
3003
0000
0000
0000
,
0220
0000
0000
0000
,
0330
0000
0000
0000
,
0001
0000
0000
0000
,
1000
0000
0000
0000
,
0100
0000
0100
0000
,
0100
0000
0000
0000
,
0010
0000
0000
0000
,
0001
0000
0000
0000
,
1000
0000
1000
0000
,
2000
0000
0000
0000
,
3000
0000
0000
0000
,
0001
0000
0001
0000
,
0001
0000
0000
0000
,
0100
0000
0000
0000
,
0010
0000
0000
0000
,
1000
0000
1000
0000
,
1000
0000
0000
0000
,
0001
0000
0000
0000
,
4000
0004
0000
0000
0000
0000
0000
0000
3003
0000
0000
0000
0000
0000
0000
0000
,
0001
0000
0000
0000
,
0001
0000
0000
0000
,
1000
0000
0000
0000
,
1000
0000
0000
0000
,
0010
0000
0010
0000
,
0010
0000
0000
0000
,
0100
0000
0000
0000
,
0001
0000
0001
0000
,
0001
0000
0000
0000
,
0001
0000
0000
0000
,
1000
0000
0000
0000
,
1000
0000
0000
0000
,
0010
0000
0010
0000
,
0010
0000
0000
0000
,
0100
0000
0000
0000
,
0100
0000
0000
0000
,
0001
0000
0000
0000
,
0001
0000
0000
0000
,
0002
0000
0000
0000
,
0000
0000
0003
0000
;
