#TITLE:TaleSpin Theme;
#SUBTITLE:;
#ARTIST:Jim Gilstrap;
#TITLETRANSLIT:;
#SUBTITLETRANSLIT:;
#ARTISTTRANSLIT:;
#GENRE:Cartoon Theme;
#CREDIT:Ace Of Hearts;
#BANNER:TaleSpin Theme - Bn.png;
#BACKGROUND:TaleSpin Theme - Bg.png;
#LYRICSPATH:;
#CDTITLE:Ace Of Hearts.png;
#MUSIC:TaleSpin Theme.ogg;
#OFFSET:-0.280;
#SAMPLESTART:12.960;
#SAMPLELENGTH:12.000;
#SELECTABLE:YES;
#BPMS:0.000=110.000;
#STOPS:;
#BGCHANGES:-0.850=TaleSpin OP.avi=1.000=1=0=0=StretchNoLoop==CrossFade==,
99999=-nosongbg-=1.000=0=0=0 // don't automatically add -songbackground-
;
#KEYSOUNDS:;

//---------------dance-single - Ace Of Hearts (2008)----------------
#NOTES:
     dance-single:
     Ace Of Hearts (2008):
     Challenge:
     10:
     0.807,0.067,0.977,0.729,0.803: // measure 1
0000
0000
0000
0000
,  // measure 2
0000
0000
0000
0000
0000
0000
0000
0000
0000
0000
0000
0000
1001
1000
0000
0000
,  // measure 3
1020
0000
1000
0000
0100
0000
0130
0001
0000
0001
1000
0000
2100
0000
3010
0000
,  // measure 4
0210
0000
0001
0000
0010
0000
0301
1000
0000
0000
0000
0000
0000
1001
0001
0000
,  // measure 5
2100
0000
0001
0000
0100
0000
3001
0010
0000
0001
0100
0000
0210
0000
0301
0000
,  // measure 6
0021
0000
0100
0000
0001
0000
0130
1000
0000
0000
0000
0102
0000
0000
2003
3000
,  // measure 7
2200
0000
0000
3300
0000
0000
0000
0000
0101
0000
0000
0000
0000
0000
2002
0000
0000
0000
3003
0000
0000
0000
2100
0000
0000
0000
0000
0000
3002
0000
0003
0000
,  // measure 8
0202
0000
0303
0000
1001
0000
0000
2010
0000
0000
3001
0000
0101
0000
0000
0000
,  // measure 9
0110
0000
0010
2010
0000
3001
0000
0101
0000
1001
0000
1100
0000
0000
1000
0010
,  // measure 10
0100
0100
0000
0101
0000
0001
0011
0000
0000
0000
0000
0102
0000
0000
2003
3000
,  // measure 11
2020
0000
3030
0000
0110
0000
0000
2002
0000
3003
0000
2100
0000
0000
3002
0003
,  // measure 12
0201
0000
0010
0300
0010
1000
0000
2100
0000
0000
3001
0000
0011
0000
0000
0000
,  // measure 13
0110
0000
0100
2100
0000
3001
0000
0101
0000
0110
0000
1010
0000
0000
1000
0001
,  // measure 14
0010
0010
0000
0110
0000
0100
1100
0000
0000
1000
0010
0000
0110
0100
0000
0000
,  // measure 15
0102
0000
1000
0000
0100
0000
1003
0010
0000
0010
1000
0000
1200
0000
0310
0000
,  // measure 16
0120
0000
0001
0000
0100
0000
0031
1000
0000
0010
0100
0000
0001
0000
0001
0000
,  // measure 17
1000
0000
0001
0100
0001
0000
1000
0000
0010
0100
0010
0000
1000
0000
0001
0000
0010
0000
0100
1000
0100
0000
0010
0000
0001
1000
0001
0000
0010
0000
0000
0000
,  // measure 18
0001
0000
1000
0010
1000
0000
0001
0000
0010
0100
0010
0000
0001
0000
1000
0000
0010
0000
1000
0100
1000
0000
0001
0000
0100
0010
0100
0000
0001
0000
1000
0000
,  // measure 19
0100
0000
1000
0000
0010
0000
0100
0001
0100
0000
0000
0000
0010
0000
1000
0000
0001
0000
1000
0000
0000
0000
2010
0000
0000
0000
0000
0000
3002
0000
0003
0000
,  // measure 20
0101
0000
0000
0000
2010
0000
3002
0003
0101
0000
0000
0000
0012
0000
2003
3000
,  // measure 21
1100
0000
0000
0000
0012
0000
2003
3000
1100
0100
0010
0001
0100
0000
0001
1000
,  // measure 22
0010
0000
0010
1000
0001
0000
0001
1000
0100
0000
0100
1000
0001
1000
0100
0000
,  // measure 23
1100
0000
1000
0000
1010
0000
0010
0000
0110
0000
0100
0101
0001
0000
0000
0000
,  // measure 24
1000
0100
1000
0001
0100
1000
0100
0001
1000
0100
0010
0001
1000
0010
0100
0001
,  // measure 25
0100
1000
0100
0001
1000
0100
0010
0100
1000
0001
0100
0010
1000
0001
1000
0200
,  // measure 26
2000
0000
0000
0000
0010
0000
0000
0001
0000
0000
0010
3300
1100
0001
0000
0000
,  // measure 27
0101
0000
0000
0110
0000
0000
2020
0000
0000
0000
0100
0000
0100
0000
3030
0000
;

//---------------dance-single - Ace Of Hearts (2008)----------------
#NOTES:
     dance-single:
     Ace Of Hearts (2008):
     Hard:
     8:
     0.504,0.000,0.315,0.248,0.447:
0000
0000
0000
0000
,
0000
0000
0000
0000
,
0001
0000
0010
0000
0100
0000
1000
0001
0000
0001
1000
0000
0100
0000
0010
0000
,
0100
0000
1000
0000
0001
0000
0100
0010
0000
0000
0000
0000
0000
0000
0000
0000
,
0100
0000
0001
0000
1000
0000
0010
0100
0000
0100
0010
0000
1000
0000
0100
0000
,
0010
0000
0001
0000
1000
0000
0001
0010
0000
0000
0000
0200
0000
0000
0310
0000
,
0011
0000
0000
0000
0001
0000
0000
2002
0000
3003
0000
2000
0000
0000
3010
0000
,
0110
0000
0000
0000
0100
0000
0000
0102
0000
0000
1003
0000
0100
0000
0000
0000
,
1100
0000
1000
0001
0000
0001
0000
0010
0000
0100
0000
0100
0000
0000
1000
0001
,
1000
0010
0000
1000
0000
0100
1000
0000
0000
0000
0000
0002
0000
0000
1003
0000
,
1100
0000
0000
0000
1000
0000
0000
2020
0000
3030
0000
2000
0000
0000
3010
0000
,
0110
0000
0000
0000
0101
0000
0000
2001
0000
0000
3100
0000
0010
0000
0000
0000
,
0100
0000
0100
1000
0000
1000
0000
0001
0000
0001
0000
0100
0000
0000
0001
1000
,
0001
0100
0000
0010
0000
1000
0001
0000
0000
0000
0000
0000
0100
0001
0000
0000
,
1000
0000
0010
0000
0100
0000
0100
0001
0000
0001
1000
0000
0100
0000
0010
0000
,
0100
0000
1000
0000
0001
0000
0100
0010
0000
0000
0000
0000
0000
0000
0000
0000
,
1000
0001
0100
0001
1000
0000
0100
0000
0010
0000
0100
0000
1000
0000
0010
0000
,
1000
0010
1000
0001
0100
0000
0001
0000
0010
0000
0001
0000
1000
0000
0000
0000
,
0010
1000
0001
1000
0010
0000
1000
0000
0100
0000
0000
2000
0000
0000
3001
0000
,
0010
0000
0002
1003
0010
0000
2000
3001
,
0100
0000
0000
0000
0002
0000
1003
0000
0100
0000
0000
0000
0000
0000
1000
0100
,
1000
0000
0001
0100
0001
0000
1000
0010
1000
0000
0001
0010
0001
0000
0000
0000
,
0011
0000
0000
0000
0110
0000
0000
0000
1100
0000
0000
1000
0001
0000
0000
0000
,
1000
0000
0001
0100
0001
0000
1000
0000
0010
0000
1000
0001
1000
0000
0010
1000
,
0010
0000
1000
0000
0001
0000
0010
0001
0010
0000
0100
0000
1000
0000
0000
0000
,
1020
0000
0000
0000
0100
0000
0000
1000
0000
0000
0130
0000
0000
0000
0000
0000
,
0101
0000
0000
1001
0000
0000
1100
0000
0000
0000
0110
0000
0110
0000
0000
0000
;

//---------------dance-single - Ace Of Hearts (2008)----------------
#NOTES:
     dance-single:
     Ace Of Hearts (2008):
     Medium:
     6:
     0.372,0.000,0.149,0.315,0.215:
0000
0000
0000
0000
,
0000
0000
0000
0000
,
1000
0000
0001
0000
1000
0000
0000
0100
0000
0000
1000
0000
0001
0000
0000
0000
,
0100
0000
0001
0000
0100
0000
0000
0010
0000
0000
0000
0000
0000
0000
0000
0000
,
1000
0000
0010
0000
1000
0000
0000
0001
0000
0000
1000
0000
0100
0000
0000
0000
,
1000
0000
0001
0000
1000
0000
0000
0010
0000
0000
0000
2000
0000
0000
3001
0000
,
0010
0000
0000
0000
0100
0000
0000
2000
0000
3000
0000
0002
0000
0000
1003
0000
,
0100
0000
0000
0000
0010
0000
0000
0200
0000
0000
0000
0000
0300
0000
0000
0000
,
2000
0000
0000
3001
0000
0000
0000
1000
0000
1000
0000
0100
0000
0000
1000
0000
,
0001
0000
0000
0010
0000
0000
0100
0000
0000
0000
0000
2000
0000
0000
3001
0000
,
0010
0000
0000
0000
0001
0000
0000
0200
0000
0300
0000
0002
0000
0000
1003
0000
,
0100
0000
0000
0000
0010
0000
0000
0002
0000
0000
1003
0000
0010
0000
0000
0000
,
0200
0000
0000
0301
0000
0000
0000
0100
0000
0100
0000
0010
0000
0000
1000
0000
,
0010
0000
0000
0100
0000
0000
0100
0000
0000
0000
0000
0000
1001
0000
0000
0000
,
1000
0000
0001
0000
1000
0000
0000
0200
0000
0000
1300
0000
0001
0000
1000
0000
,
0100
0000
1000
0000
0001
0000
0000
0010
0000
0000
0000
0000
0000
0000
0000
0000
,
0001
1000
0001
0000
0200
0000
0310
0000
,
1000
0010
1000
0000
0002
0000
0103
0000
,
0001
0000
0000
0000
1000
0000
0000
0000
0100
0000
0000
2000
0000
0000
3001
0000
,
0010
0000
0002
1003
0010
0000
2000
3001
,
0100
0000
0002
1003
0100
0000
0000
1000
,
1000
0001
0001
0010
0010
0100
0100
0000
,
1100
1000
1000
1001
,
0001
0100
0001
1000
0100
0100
0100
0000
,
1000
0100
1000
0001
0010
0010
0010
0000
,
0022
0000
0000
0000
0000
0033
0000
0000
,
1010
0000
0000
1010
0000
0000
1010
0000
0000
0000
0101
0000
0101
0000
0000
0000
;

//---------------dance-single - Ace Of Hearts (2008)----------------
#NOTES:
     dance-single:
     Ace Of Hearts (2008):
     Easy:
     4:
     0.260,0.000,0.116,0.431,0.124:
0000
0000
0000
0000
,
0000
0000
0000
0000
,
0001
0000
0000
0000
0001
0000
0000
0002
0000
0000
0000
0000
0003
0000
0000
0000
,
0100
0000
0000
0000
0100
0000
0000
0100
0000
0000
0000
0000
0000
0000
0000
0000
,
0010
0000
0000
0000
0010
0000
0000
0020
0000
0000
0000
0000
0030
0000
0000
0000
,
1000
0000
0000
0000
1000
0000
0000
1000
0000
0000
0000
0002
0000
0000
0000
0000
,
1003
0000
0000
0000
1000
0000
0000
1000
0000
0000
0000
0020
0000
0000
0000
0000
,
0130
0000
0000
0000
0100
0000
0000
0200
0000
0000
0000
0000
0300
0000
0000
0000
,
0001
1000
0001
0000
,
2002
0000
0000
0000
0000
0000
3003
0000
0000
0000
0000
2000
0000
0000
0000
0000
,
3001
0000
0000
0000
0001
0000
0000
0001
0000
0000
0000
0200
0000
0000
0000
0000
,
0310
0000
0000
0000
0010
0000
0000
0020
0000
0000
0000
0000
0030
0000
0000
0000
,
0100
0010
0100
0000
,
0220
0000
0000
0330
0000
0000
1001
0000
,
1000
0000
0000
0000
1000
0000
0000
2000
0000
0000
0000
0000
3000
0000
0000
0000
,
0001
0000
0000
0000
0001
0000
0000
0001
0000
0000
0000
0000
0000
0000
0000
0000
,
1000
0010
1000
0000
,
0001
0100
0001
0000
,
0100
0000
0000
0000
0010
0000
0000
0000
0100
0000
0000
0002
0000
0000
0000
0000
,
1003
0002
1003
2000
,
3001
0000
2000
0000
3001
0000
0000
0020
,
0030
0020
0030
0200
0300
0200
0300
0000
,
0220
0000
0000
0330
,
0100
1000
0100
0010
,
0001
1000
0001
0100
,
0020
0000
0000
0000
0000
0030
0000
0000
,
0220
0000
0000
0330
0000
1001
1001
0000
;

//---------------dance-single - Ace Of Hearts (2008)----------------
#NOTES:
     dance-single:
     Ace Of Hearts (2008):
     Beginner:
     1:
     0.142,0.000,0.099,0.282,0.000:
0000
0000
0000
0000
,
0000
0000
0000
0000
,
0001
0000
0001
0000
,
0001
0000
0000
0000
,
1000
0000
1000
0000
,
1000
0000
0000
0020
,
0030
0000
0000
0200
,
0300
0000
0000
0000
,
0001
0000
0001
0000
,
2002
0000
0000
3003
0000
0000
2000
0000
,
3000
0000
0000
0002
,
0003
0000
0000
0000
,
0100
0000
0100
0000
,
0220
0000
0000
0330
0000
0000
0000
0000
,
0100
0000
0100
0000
,
0100
0000
0000
0000
,
0001
0000
0010
0000
,
0001
0000
1000
0000
,
0001
0000
0000
0020
,
0030
0000
0000
0200
,
0300
0000
0000
0000
,
0020
0000
0000
0030
,
2002
0000
0000
3003
,
1000
1000
1000
0000
,
0100
0100
0100
0000
,
0220
0000
0000
0000
0000
0330
0000
0000
,
2002
0000
0000
3003
0000
1001
0000
0000
;
