#TITLE:Starstrukk;
#SUBTITLE:;
#ARTIST:3Oh!3;
#TITLETRANSLIT:;
#SUBTITLETRANSLIT:;
#ARTISTTRANSLIT:;
#GENRE:;
#CREDIT:Ace Of Hearts;
#BANNER:Starstrukk - bn.PNG;
#BACKGROUND:Starstrukk - bg.png;
#LYRICSPATH:;
#CDTITLE:Ace Of Hearts.png;
#MUSIC:Starstrukk.ogg;
#OFFSET:-0.160;
#SAMPLESTART:41.880;
#SAMPLELENGTH:12.000;
#SELECTABLE:YES;
#BPMS:0.000=140.000,324.000=70.000,356.000=140.000;
#STOPS:;
#BGCHANGES:;
#KEYSOUNDS:;

//---------------dance-single - Hard----------------
#NOTES:
     dance-single:
     Ace Of Hearts (2009):
     Hard:
     8:
     0.859,0.000,0.257,0.676,0.371: // measure 1
0000
0000
0000
0000
,  // measure 2
0000
0000
0000
0000
,  // measure 3
0000
0000
0000
0000
,  // measure 4
0000
0000
0000
0000
,  // measure 5
0000
0000
0000
0000
,  // measure 6
0001
0000
0001
0000
1000
0010
2000
0000
,  // measure 7
3100
0010
0001
1000
0020
0000
0230
0000
,  // measure 8
0301
0000
0000
1000
0010
0000
0100
0000
0001
0000
1000
0000
0001
0000
0100
0000
,  // measure 9
0020
2030
3020
2030
,  // measure 10
3100
0100
0010
0010
,  // measure 11
0001
0100
0010
1000
0002
0000
0203
0000
,  // measure 12
0310
0000
0000
1000
0001
0000
0010
0000
0200
0000
0000
0000
1300
0000
0001
0000
,  // measure 13
2000
0000
3200
0000
2300
0000
3100
0040
,  // measure 14
0000
0000
0000
0000
0031
0000
0000
0000
1000
0000
0000
1000
0000
0000
2000
0000
,  // measure 15
3000
0000
0000
0000
0001
0000
0000
0000
0010
0000
0000
0010
0000
0000
0020
0000
,  // measure 16
0030
0000
0000
0000
0001
0000
0000
0000
1000
0000
0000
1000
0000
0000
2000
0000
,  // measure 17
3000
0000
0100
0000
0100
0000
0100
0040
,  // measure 18
0000
0000
0000
0000
0031
0000
0000
0000
1000
0000
0000
1000
0000
0000
2000
0000
,  // measure 19
3000
0000
0000
0000
0010
0000
0000
0000
0100
0000
0000
0100
0000
0000
0200
0000
,  // measure 20
0300
0000
0000
0000
0001
0000
0000
0000
1000
0000
0000
1000
0000
0000
2000
0000
,  // measure 21
3000
0002
0013
0100
,  // measure 22
1100
0000
0000
0000
1000
0000
0000
1000
0000
0000
1000
0000
0000
0000
0000
0000
,  // measure 23
0001
0000
0000
0000
0001
0000
0000
0001
0000
0000
0001
0000
1000
0000
0010
0000
,  // measure 24
1000
0000
0000
0000
0100
0000
0000
0100
0000
0000
0100
0000
0000
0000
2000
0000
,  // measure 25
3000
0000
0000
0001
0010
0100
1000
1000
,  // measure 26
0000
0000
0000
0000
1000
0000
0000
0010
0000
0000
0010
0000
0000
0000
0000
0000
,  // measure 27
1010
0000
0000
0000
0010
0000
0000
0100
0000
0000
0100
0000
0001
0000
0000
0000
,  // measure 28
1000
0100
1000
0001
0100
0010
0100
0001
,  // measure 29
1000
0100
0010
0001
1000
0001
0100
0100
,  // measure 30
0000
0000
0000
0000
0001
0000
0000
1000
0000
0000
1000
0000
0000
0000
0000
0000
,  // measure 31
1100
0000
0000
0000
0100
0000
0000
0010
0000
0000
0010
0000
0000
0000
0000
0000
,  // measure 32
0001
1000
0001
0100
0010
1000
0001
0010
,  // measure 33
0001
1000
0010
0100
0001
1000
0100
0100
,  // measure 34
0000
0000
2000
0000
3000
0001
0010
0000
,  // measure 35
0110
0000
0200
0000
0300
1000
0001
0000
,  // measure 36
0100
0010
0100
0001
1000
0010
0100
0001
,  // measure 37
1000
0100
0010
0001
1000
0010
0100
0001
,  // measure 38
0000
0000
0200
0000
0300
0001
1000
0000
,  // measure 39
1100
0000
0200
0000
0300
0010
0001
0000
,  // measure 40
1000
0001
1000
0010
1000
0001
0010
0100
,  // measure 41
1000
0001
0100
0010
0100
0001
1000
1000
,  // measure 42
0000
0000
0000
0000
0004
4000
0000
0000
0000
0000
0000
0000
0000
0000
0000
0000
,  // measure 43
0000
0000
3003
0000
,  // measure 44
0100
0000
0100
0000
0001
1000
0100
0000
,  // measure 45
0010
0100
1000
0001
2000
0000
3200
0000
,  // measure 46
0310
0000
0000
0001
1000
0000
0010
0000
1000
0000
0001
0000
0010
0000
0100
0000
,  // measure 47
2000
3002
2003
3002
,  // measure 48
0013
0010
0001
0001
,  // measure 49
1000
0010
1000
0001
0020
0000
0230
0000
,  // measure 50
1300
0000
0000
0001
0100
0000
0010
0000
0100
0000
0001
0000
1000
0000
0100
0000
,  // measure 51
0020
0000
0032
0000
0023
0000
0032
4003
,  // measure 52
0000
0000
0000
0000
3010
0000
0000
0000
1000
0000
0000
0001
0000
0000
2000
0000
,  // measure 53
3000
0000
0000
0000
0010
0000
0000
0000
0100
0000
0000
0001
0000
0000
0200
0000
,  // measure 54
0300
0000
0000
0000
0001
0000
0000
0000
1000
0000
0000
0100
0000
0000
2000
0000
,  // measure 55
3000
0000
0100
0000
0100
0000
0100
0040
,  // measure 56
0000
0000
0000
0000
0031
0000
0000
0000
1000
0000
0000
1000
0000
0000
2000
0000
,  // measure 57
3000
0000
0000
0000
0001
0000
0000
0000
0010
0000
0000
0010
0000
0000
0020
0000
,  // measure 58
0030
0000
0000
0000
0001
0000
0000
0000
1000
0000
0000
1000
0000
0000
2000
0000
,  // measure 59
3000
0002
0013
0100
,  // measure 60
1100
0000
0000
0000
1000
0000
0000
0001
0000
0000
0001
0000
0000
0000
0000
0000
,  // measure 61
0100
0000
0000
0000
0100
0000
0000
0010
0000
0000
0010
0000
1000
0000
0001
0000
,  // measure 62
1000
0000
0000
0000
0100
0000
0000
0010
0000
0000
0010
0000
0000
0000
0002
0000
,  // measure 63
0003
0000
0000
1000
0010
1000
0001
0100
,  // measure 64
0000
0000
0000
0000
0100
0000
0000
0010
0000
0000
0010
0000
0000
0000
0000
0000
,  // measure 65
1010
0000
0000
0000
1000
0000
0000
0001
0000
0000
0001
0000
0010
0000
0000
0000
,  // measure 66
0001
1000
0010
0100
0001
1000
0100
0010
,  // measure 67
0100
1000
0001
0100
0010
0100
0001
0001
,  // measure 68
0000
0000
0000
0000
1000
0000
0000
0010
0000
0000
0010
0000
0000
0000
0000
0000
,  // measure 69
0110
0000
0000
0000
0100
0000
0000
0001
0000
0000
0001
0000
0000
0000
0000
0000
,  // measure 70
1000
0100
0010
0001
0010
0100
1000
0001
,  // measure 71
0100
0010
1000
0010
0100
0001
0010
0010
,  // measure 72
0000
0000
0002
0000
0003
1000
0010
0000
,  // measure 73
0110
0000
0200
0000
0300
0001
1000
0000
,  // measure 74
0100
0010
0100
1000
0001
0100
0001
0010
,  // measure 75
0100
1000
0001
0100
0010
1000
0100
0010
,  // measure 76
0000
0000
0002
0000
0003
1000
0001
0000
,  // measure 77
0101
0000
0200
0000
0300
0010
1000
0000
,  // measure 78
0001
0010
0001
1000
0010
1000
0001
0100
,  // measure 79
0001
1000
0100
1000
0100
0010
0001
0001
,  // measure 80
0000
0000
0000
0000
4000
0004
0000
0000
0000
0000
0000
0000
0000
0000
0000
0000
,  // measure 81
0000
0000
3003
0000
,  // measure 82
0002
0013
0001
0001
2000
3010
0100
0100
0002
1003
0100
0120
0000
0031
1000
0010
,  // measure 83
0100
0000
0010
0000
1000
0000
0001
1000
0010
0010
0100
0202
0000
0000
0303
0000
,  // measure 84
0002
0013
0100
0100
2000
3010
0100
0100
0001
1000
0001
0021
0000
0130
1000
0001
,  // measure 85
0200
0000
0302
0000
0013
0000
0001
1000
0010
0100
0100
0002
0000
0000
0003
0000
,  // measure 86
2000
3010
0100
0100
0002
0013
0100
0100
1000
0001
0100
0120
0000
1030
0001
0010
,  // measure 87
0001
0000
1000
0000
0010
0000
0100
0001
1000
1000
0100
0220
0000
0000
0330
0000
,  // measure 88
0020
0031
1000
0001
0200
0310
1000
0001
0010
0100
0010
0012
0000
1003
0010
1000
,  // measure 89
0200
0000
0320
0000
0031
0000
0010
0100
1000
0001
0100
0010
0100
0001
1000
0001
,  // measure 90
0011
0101
1010
1100
,  // measure 91
0011
0000
0110
0000
0100
1000
0001
0000
,  // measure 92
0100
0010
1000
0001
0010
0001
0100
0010
,  // measure 93
1000
0100
0010
0100
1000
0001
0100
0100
,  // measure 94
0010
1010
1100
0011
,  // measure 95
0101
0000
0110
0000
0010
1000
0001
0000
,  // measure 96
0010
0010
0100
0100
1000
0001
0100
0100
,  // measure 97
0010
1000
0001
0001
0010
0100
1000
1000
;

//---------------dance-single - Expert----------------
#NOTES:
     dance-single:
     Ace Of Hearts (2009):
     Challenge:
     10:
     1.000,0.000,0.819,1.000,0.795:
0000
0000
0000
0000
,
0000
0000
0000
0000
,
0000
0000
0000
0000
,
0000
0000
0000
0000
,
0000
0000
0000
0000
,
1001
0000
0100
0000
1001
1000
0020
0030
,
0110
0000
0100
0000
0001
0000
1000
0000
1020
0000
0000
0000
0230
0000
0000
0300
,
0201
0000
0000
0301
0010
0000
0100
0000
1100
0000
1000
0000
1002
0000
0103
0000
,
0120
0000
0000
0000
2030
0000
0000
3000
1020
0000
0000
0000
0230
0000
0000
0300
,
0101
0010
0101
0010
,
0101
0000
1000
0000
1100
0000
0100
0000
0120
0000
0000
0000
0032
0000
0000
0003
,
2001
0000
0000
3100
0010
0000
0001
0000
0201
0000
0000
0000
0310
0000
0100
0000
,
0102
0000
0000
0000
2003
0000
0000
3000
1002
0000
0000
0000
0203
0300
0240
0000
,
0000
0000
0300
0000
2030
0000
0000
0000
0100
0000
0000
0010
0000
0000
3002
0000
,
0003
0000
0000
0000
0200
0000
0000
0000
0010
0000
0000
1000
0000
0000
0302
0000
,
0003
0000
0000
0000
0020
0000
0000
0000
1000
0000
0000
0001
0000
0000
0230
0000
,
0300
0000
2000
0000
3001
0000
1000
2400
,
0000
0000
3000
0000
0320
0000
0000
0000
0001
0000
0000
1000
0000
0000
0230
0000
,
0300
0000
0000
0000
2000
0000
0000
0000
0001
0000
0000
0100
0000
0000
3020
0000
,
0030
0000
0000
0000
0200
0000
0000
0000
0010
0000
0000
1000
0000
0000
0302
0000
,
0003
0000
0000
0000
2000
0000
0000
3000
1M02
0000
0000
0000
M200
0000
0000
0000
,
10M0
0000
0000
0000
0000
0000
0303
0000
0000
0000
0000
0000
1001
0000
0000
0000
0000
0000
0000
0000
0000
11MM
0000
0000
0000
0000
0000
0000
0000
0000
0011
0000
0000
0000
0000
0000
0001
0000
0000
0000
0000
0000
1000
0000
0001
0000
1000
0000
,
0001
0000
1000
0001
0010
0000
0001
1000
000M
0000
1000
0000
0010
0100
0010
1000
,
00M1
0000
0000
0000
0000
0000
1000
0000
0000
0100
0000
0000
0010
0000
0000
0000
0000
0000
0010
0000
0000
0100
0000
0000
00M0
0000
0000
0000
0000
0000
0100
0000
0000
0000
0000
0000
0000
0000
0000
0000
0000
0000
1000
0000
0001
0000
1000
0000
,
0001
0000
0000
1000
1010
1000
0001
0100
,
011M
0000
0010
1000
0001
0000
0001
0100
000M
0100
0010
0000
0010
1000
0001
0000
,
010M
0010
1000
0001
0010
0000
0010
0100
00M0
0100
1000
0000
0001
0100
0010
0000
,
10M0
0100
0M01
0100
1M00
0010
01M0
0010
,
00M1
0010
10M0
0100
0M10
0010
00M1
1000
,
M010
0000
0100
0001
1000
0000
1000
0100
M000
0100
0010
0000
0010
0001
1000
0000
,
101M
0000
0010
0000
0100
0000
0001
1000
000M
1000
0100
0000
1000
0001
0100
0000
,
0M10
0010
10M0
1000
M001
0010
01M0
0100
,
0M10
1000
M010
0010
00M1
1000
M001
0001
,
010M
0000
0010
0100
0001
0000
0001
2000
000M
0000
3001
0010
0100
1000
0100
0010
,
0002
0000
1003
0010
0100
0000
0100
0020
0M00
0000
0130
0000
0001
0010
0001
0010
,
M001
0100
1M00
0100
0M10
0010
10M0
0100
,
0M10
1000
M010
0010
01M0
1000
M001
0100
,
001M
0000
1000
0100
0010
0000
0010
0002
00M0
0000
1003
0100
0010
0001
0010
0100
,
1000
0000
0001
0100
0010
0000
0010
2000
0000
0000
3100
0010
0100
1000
0010
0100
,
M010
0000
0010
0000
0001
00M0
0001
0000
001M
0000
1000
0000
M100
0000
0100
0000
,
0M10
1000
M010
0010
00M1
0100
0M01
0001
,
400M
0040
0M00
0000
000M
0000
0M00
0000
000M
0000
0M00
0000
000M
0000
0M00
0000
,
000M
0000
0M00
0000
000M
0000
0M00
0000
000M
0000
0M00
0000
000M
0000
0M00
3030
,
1001
0000
0100
0000
0110
0010
1001
0000
,
1100
0000
0100
0000
0010
0000
0001
0000
0102
0000
0000
0000
2003
0000
0000
3000
,
1200
0000
0000
0310
0100
0000
0100
0000
1000
0000
0001
0000
0100
0000
0010
0000
,
2010
0000
0000
0000
3002
0000
0000
0003
0012
0000
0000
0000
2003
0000
0000
3000
,
1100
0010
1100
0010
,
1010
0000
1000
0000
0100
0000
0010
0000
0012
0000
0000
0000
0203
0000
0000
0300
,
0120
0000
0000
1030
0001
0000
0001
0000
0010
0000
0100
0000
1000
0000
0001
0000
,
0102
0000
0000
0000
2003
0000
0000
3000
2100
0000
0000
0000
3002
0003
0042
0000
,
0000
0000
0003
0000
0230
0000
0000
0000
1000
0000
0000
0001
0000
0000
0320
0000
,
0030
0000
0000
0000
0002
0000
0000
0000
0100
0000
0000
0010
0000
0000
2003
0000
,
3000
0000
0000
0000
0200
0000
0000
0000
0010
0000
0000
0001
0000
0000
2300
0000
,
3000
0000
0002
0000
1003
0000
0010
0420
,
0000
0000
0030
0000
0302
0000
0000
0000
0010
0000
0000
0100
0000
0000
2003
0000
,
3000
0000
0000
0000
0020
0000
0000
0000
0100
0000
0000
0001
0000
0000
2030
0000
,
3000
0000
0000
0000
0200
0000
0000
0000
0010
0000
0000
0001
0000
0000
2300
0000
,
3000
0000
0002
0003
2M01
0000
020M
0000
,
00M1
0000
0000
0000
0000
0000
3300
0000
0000
0000
0000
0000
1001
0000
0000
0000
0000
0000
0000
0000
0000
M1M1
0000
0000
0000
0000
0000
0000
0000
0000
1010
0000
0000
0000
0000
0000
0000
0000
0000
0000
0000
0000
1000
0000
0001
0000
1000
0000
,
0001
0000
0100
0010
1000
0000
1000
0100
0000
0000
0100
0000
1000
0001
1000
0001
,
M100
0000
0000
0000
0000
0000
0010
0000
0000
0100
0000
0000
0001
0000
0000
0000
0000
0000
0001
0000
0000
1000
0000
0000
000M
0000
0000
0000
0000
0000
1000
0000
0000
0000
0000
0000
0000
0000
0000
0000
0000
0000
0001
0000
0100
0000
0001
0000
,
0100
0000
0000
0001
0011
0001
1000
0010
,
M110
0000
0100
0001
1000
0000
1000
0100
M000
0100
0010
0000
0100
1000
0001
0100
,
001M
0000
0010
1000
0001
0000
0001
0010
000M
0010
0100
0000
1000
0001
0100
0000
,
0M10
1000
M001
0001
001M
1000
M010
0001
,
010M
0010
00M1
0010
10M0
1000
M001
0010
,
00M1
0000
1000
0100
0010
0000
0010
0001
00M0
0001
1000
0000
0010
0100
0001
0000
,
0M11
0000
0010
0100
1000
0000
1000
0010
M000
0010
0100
0000
0001
1000
0100
0010
,
0M01
0010
10M0
1000
M010
0100
1M00
1000
,
M001
0100
0M10
0010
00M1
0010
10M0
1000
,
M100
0000
1000
0001
0100
0000
0100
0020
0000
0M00
1030
0001
0100
0010
0100
0001
,
1M00
0000
0001
1000
0100
0000
0100
0020
0M00
0000
0031
0000
0100
0010
0100
0010
,
1M00
0100
0M01
0100
1M00
1000
M001
0100
,
0M10
0001
001M
1000
M100
0100
0M10
0001
,
100M
0000
0010
1000
0001
0000
0001
0020
000M
0000
0130
1000
0001
1000
0001
0100
,
0010
0000
1000
0001
0010
0000
0010
0200
00M0
0000
1300
0001
0100
0001
0010
0100
,
10M0
1000
M010
0010
01M0
0001
0M10
0010
,
10M0
0010
00M1
0001
010M
0010
10M0
1000
,
M004
0400
00M0
0000
M000
0000
00M0
0000
M000
0000
00M0
0000
M000
0000
00M0
0000
,
M000
00M0
M000
00M0
M000
00M0
M000
03M3
,
1M2M
1030
0100
0100
M21M
0310
0001
0001
1M02
10M3
0M10
M22M
0030
0301
0010
0100
,
110M
0000
0000
0000
M101
0000
0000
0000
1M10
0000
0000
0000
1000
0000
0100
0000
0010
0000
0020
M000
0M02
0000
1M00
0000
0M00
M000
0000
0000
0033
0000
0000
0000
,
2MM1
3001
0100
0100
M21M
0310
1000
1000
21M0
310M
001M
MM22
0030
1003
0010
0100
,
01M2
0000
2M03
3000
110M
0000
0100
0010
01M0
2000
0020
0001
0000
0000
3030
0000
,
M12M
0130
0001
0001
1MM2
1003
0100
0100
M210
031M
00M1
M2M2
0003
0310
1000
0001
,
M011
0000
0000
0000
01M1
0000
0000
0000
1M10
0000
0000
0000
1000
0000
0100
0000
M010
0M00
0002
00M0
2M00
0000
0M10
0000
0M00
00M0
0000
0000
3003
0000
0000
0000
,
MM01
00M0
020M
00M0
M000
03M2
0M00
1003
0M2M
M000
2M30
00M0
300M
M200
032M
M230
,
23M0
0000
3M02
00M0
M003
0M2M
M000
023M
00M0
M000
032M
0031
1001
0001
0100
0010
,
1010
0000
1100
0000
0202
0000
0010
0303
,
1010
0000
1100
0000
0110
0010
0011
0000
,
00M1
0100
1M00
0100
0M01
0010
001M
1000
,
M010
0001
01M0
1000
M100
0100
0M01
1000
,
1010
0000
0011
0000
2200
0000
0010
3300
,
0011
0000
0101
0000
0110
0010
1010
0000
,
10M0
1000
M100
0100
1M00
0010
00M1
0001
,
001M
0100
0001
0010
0010
1000
0010
0001
,
0M0M
0000
0000
0000
;

//---------------dance-single - Medium----------------
#NOTES:
     dance-single:
     Ace Of Hearts (2009):
     Medium:
     6:
     0.652,0.000,0.143,0.562,0.105:
0000
0000
0000
0000
,
0000
0000
0000
0000
,
0000
0000
0000
0000
,
0000
0000
0000
0000
,
0000
0000
0000
0000
,
1000
0000
1000
0000
0001
0100
0001
0000
,
1000
0010
1000
0000
0002
0000
0103
0000
,
0010
0000
0010
0000
1000
0001
1000
0000
,
0020
0130
0020
0130
,
0001
0001
1000
1000
,
0010
1000
0010
0000
2000
0000
3001
0000
,
0010
0000
0010
0000
0001
0000
0001
1000
,
0020
0000
0130
0000
0020
0000
0130
0002
,
0000
2003
0100
0010
,
3002
0010
1000
0010
,
2003
0100
0001
0010
,
3020
0000
0130
0000
0100
0000
0100
0020
,
0000
2030
0100
0010
,
0100
3002
0100
1000
,
0010
2003
0010
0001
,
3020
0130
0100
0100
,
0110
0100
0100
0000
,
0001
0000
0001
0000
0001
0000
1000
0001
,
1000
0100
0100
0000
,
0010
0000
0000
0001
1000
0001
1000
0002
,
0000
0010
0013
0000
,
0200
1000
1300
0000
,
0001
0100
0001
0000
1000
0000
1000
0000
,
0001
0100
0001
0000
1000
0000
0001
0020
,
0000
0100
0130
0000
,
2000
0001
3001
0000
,
1000
0010
1000
0000
0001
0000
0010
0001
,
0010
0000
0001
0000
0001
0000
1000
0100
,
0000
0000
0010
0000
,
0010
0000
0001
0000
,
0100
0000
0100
0000
0010
1000
0010
0000
,
1000
0000
0001
0100
0001
0000
1000
0010
,
0000
0000
0100
0000
,
0100
0000
0001
0000
,
1000
0100
1000
0000
0001
0000
0100
0010
,
0100
0000
0001
0000
1000
0000
0001
0010
,
0000
0000
0000
0000
,
0220
0000
0330
0000
,
0100
0000
0100
0000
1000
0001
1000
0000
,
0010
0000
1000
0001
2000
0000
3200
0000
,
1300
0000
0001
0000
0100
0001
0100
0000
,
0020
0230
0320
0230
,
0301
0001
1000
1000
,
0100
0010
0100
0000
2000
0000
3002
0000
,
1003
0000
1000
0000
0010
0100
0010
0000
,
2000
0000
3200
0000
2300
0000
3200
0320
,
0000
0032
1000
0010
,
0203
0010
0001
0010
,
0302
1000
0100
1000
,
0023
0000
0130
0000
0100
0000
0100
2000
,
0000
3002
1000
0010
,
2003
0001
0100
0001
,
3020
0100
1000
0100
,
2030
3100
0100
0100
,
0110
0010
0010
0000
,
0001
0000
0001
0000
0001
0000
1000
0010
,
1000
0100
0100
0000
,
1000
0000
0000
0001
0100
0001
0100
0002
,
0000
1000
1003
0000
,
0200
0010
0310
0000
,
0001
0010
0001
0000
1000
0000
1000
0000
,
0010
1000
0010
0000
1000
0000
0001
0020
,
0000
0100
0130
0000
,
2000
0001
3001
0000
,
1000
0010
1000
0000
0001
0000
0001
0000
,
0010
0100
0010
0000
0001
0000
1000
0100
,
0000
0000
0010
0000
,
0001
0000
0001
0000
,
1000
0000
1000
0000
0010
0100
0010
0000
,
1000
0000
0100
1000
0100
0000
1000
0001
,
0000
0000
0100
0000
,
0010
0000
1000
0000
,
0001
0010
0001
0000
1000
0000
1000
0000
,
0001
0010
0001
0000
0100
0000
0010
1000
,
0000
0000
0000
0000
,
2002
0000
3003
0000
,
0001
1000
0001
0000
1000
0001
1000
0000
0001
0000
0001
0020
0000
0000
0030
0000
,
0001
0000
0001
0000
0001
0000
0010
0001
0010
0000
0001
2000
0000
0000
3000
0000
,
0010
1000
0010
0000
0100
0001
0100
0000
0010
0000
1000
0002
0000
0000
1003
0000
,
0010
0000
0010
0000
0010
0000
1000
0001
1000
0000
0000
0200
0000
0000
0300
0000
,
0010
0001
0010
0000
0001
1000
0001
0000
0100
0000
0100
0020
0000
0000
0030
0000
,
1000
0000
1000
0000
1000
0000
0001
0100
0001
0000
1000
0020
0000
0000
0030
0000
,
1000
0001
1000
0000
0001
0100
0001
0000
1000
0000
1000
0020
0000
0000
1030
0000
,
0100
0000
0010
0000
0001
0000
1000
0010
2000
0000
0000
3001
0100
0001
0100
0002
,
0000
0003
1001
0000
1001
0000
1001
0000
,
1100
1100
1100
1000
,
0001
0100
0001
0000
1000
0001
1000
0000
,
0010
1000
0010
0000
1000
0001
1000
0100
,
0000
0110
0110
0110
,
0010
0011
0011
0000
,
0001
1000
0001
0000
1000
0010
1000
0001
,
0100
0000
0001
0000
1000
0001
1000
0100
;

//---------------dance-single - Easy----------------
#NOTES:
     dance-single:
     Ace Of Hearts (2009):
     Easy:
     4:
     0.392,0.000,0.105,0.286,0.000:
0000
0000
0000
0000
,
0000
0000
0000
0000
,
0000
0000
0000
0000
,
0000
0000
0000
0000
,
0000
0000
0000
0000
,
0001
0001
1000
1000
,
0010
0010
0020
0030
,
1000
1000
1000
0000
,
0020
0030
0020
0030
,
1000
1000
0001
0001
,
1000
1000
0020
0030
,
1000
1000
1000
0000
,
0002
0003
0002
0003
,
0010
0000
0001
0001
,
0001
0000
1000
1000
,
1000
0000
0010
0010
,
0010
0000
0100
0000
,
0100
0000
0001
0001
,
0001
0000
1000
1000
,
1000
0000
0010
0010
,
0010
0100
0100
0100
,
0100
0000
0000
0000
,
0001
0000
0000
0000
,
0001
0000
0000
0000
,
0001
0000
1000
1000
,
1000
0000
0000
0000
,
0020
0000
0030
0000
,
0100
0100
0100
0000
,
0001
0001
0001
0000
,
0001
0000
0000
0000
,
2000
0000
3000
0000
,
0010
0010
0010
0000
,
0100
0000
0100
0100
,
0100
0000
0000
0000
,
0002
0000
0003
0000
,
1000
1000
1000
0000
,
0001
0001
0001
0000
,
0001
0000
0000
0000
,
0020
0000
0030
0000
,
0001
0001
0001
0000
,
1000
0000
0010
0010
,
0010
0000
0000
0000
,
2002
0000
3003
0000
,
0001
0001
1000
1000
,
0010
0000
0010
0000
2000
3000
2000
3000
,
0001
0001
0001
0001
,
0020
0030
0020
0030
0200
0300
0200
0300
,
1000
1000
0001
0001
,
0100
0000
0100
0000
0020
0030
0020
0030
,
1000
1000
0001
0001
,
0020
0030
0020
0030
0002
0003
0002
0003
,
1000
0000
0001
0001
,
0001
0000
1000
1000
,
1000
0000
0010
0010
,
0010
0000
0100
0100
,
0001
0000
0001
0001
,
0001
0000
1000
1000
,
1000
0000
0010
0010
,
0010
0100
0100
0100
,
0110
0000
0000
0000
,
0100
0000
0000
0000
,
0001
0000
0000
0000
,
0001
0000
1000
1000
,
1000
0000
0000
0000
,
0200
0000
0300
0000
,
0010
0010
0010
0000
,
0001
0001
0001
0000
,
0001
0000
0000
0000
,
2000
0000
3000
0000
,
0010
0010
0010
0000
,
0010
0000
0100
0100
,
0100
0000
0000
0000
,
0002
0000
0003
0000
,
1000
1000
1000
0000
,
0010
0010
0010
0000
,
0010
0000
0000
0000
,
0200
0000
0300
0000
,
0001
0001
0001
0000
,
0001
0000
1000
1000
,
1000
0000
0000
0000
,
2002
0000
3003
0000
,
0001
0000
0001
0000
0001
0001
0001
0000
,
1000
0000
1000
0000
1000
1000
1000
0000
,
0010
0000
0010
0000
0010
0010
0010
0000
,
0100
0000
0100
0000
0100
0100
0100
0000
,
0001
0000
0001
0000
1000
1000
1000
0000
,
0010
0000
0010
0000
0100
0100
0100
0000
,
0001
0000
0001
0000
1000
1000
1000
0000
,
0100
0000
0100
0000
0010
0010
0000
0000
,
1001
0000
1001
0000
,
0110
0000
0110
0000
,
1000
1000
1000
0000
,
0001
0001
0001
0000
,
0011
0000
0110
0000
,
1100
0000
1001
0000
,
0001
0001
1000
1000
,
0100
0100
0010
0010
,
0010
0000
0000
0000
;

//---------------dance-single - Novice----------------
#NOTES:
     dance-single:
     Ace Of Hearts (2009):
     Beginner:
     2:
     0.235,0.000,0.067,0.267,0.000:
0000
0000
0000
0000
,
0000
0000
0000
0000
,
0000
0000
0000
0000
,
0000
0000
0000
0000
,
0000
0000
0000
0000
,
0001
0000
0001
0000
,
0001
0000
0002
0003
,
1000
0000
1000
0000
,
2000
3000
2000
3000
,
0010
0000
0010
0000
,
0010
0000
0020
0030
,
0100
0000
0100
0000
,
0200
0300
0200
0300
,
0000
0000
0001
0000
,
0000
0000
1000
0000
,
0000
0000
0001
0000
,
0000
0000
1000
0000
,
1000
0000
1000
0000
,
0000
0000
0001
0000
,
0000
0000
0001
0000
,
0000
0000
0100
0100
,
0100
0000
0000
0000
,
0010
0000
0000
0000
,
0010
0000
0000
0000
,
0000
0000
1000
0000
,
1000
0000
0000
0000
,
0001
0000
0000
0000
,
0100
0000
0100
0000
,
0200
0000
0300
0000
,
0000
0000
0000
0000
,
0001
0000
0000
0000
,
1000
0000
1000
0000
,
2000
0000
3000
0000
,
0000
0000
0000
0000
,
0100
0000
0000
0000
,
0010
0000
0010
0000
,
0020
0000
0030
0000
,
0000
0000
0000
0000
,
0001
0000
0000
0000
,
1000
0000
1000
0000
,
2000
0000
3000
0000
,
0000
0000
0000
0000
,
0000
0000
0000
0000
,
0001
0000
0001
0000
,
0100
0000
0200
0300
,
0010
0000
0010
0000
,
2000
3000
2000
3000
,
0001
0000
0001
0000
,
1000
0000
2000
3000
,
0010
0000
0010
0000
,
0020
0030
0020
0030
,
0100
0000
0100
0000
,
0000
0000
0001
0000
,
0000
0000
1000
0000
,
0000
0000
0100
0000
,
0100
0000
0010
0000
,
0000
0000
0001
0000
,
0000
0000
1000
0000
,
0000
0000
0100
0100
,
0100
0000
0000
0000
,
0010
0000
0000
0000
,
0001
0000
0000
0000
,
0000
0000
0010
0000
,
0010
0000
0000
0000
,
0001
0000
0000
0000
,
1000
0000
1000
0000
,
2000
0000
3000
0000
,
0000
0000
0000
0000
,
0010
0000
0000
0000
,
0100
0000
0100
0000
,
0200
0000
0300
0000
,
0000
0000
0000
0000
,
0001
0000
0000
0000
,
0010
0000
0010
0000
,
0020
0000
0030
0000
,
0000
0000
0000
0000
,
0001
0000
0000
0000
,
0100
0000
0100
0000
,
0200
0000
0300
0000
,
0000
0000
0000
0000
,
0000
0000
0000
0000
,
0001
0000
0000
0000
0001
0000
0000
0000
0002
0000
0000
0003
0000
0000
0000
0000
,
1000
0000
0000
0000
1000
0000
0000
0000
2000
0000
0000
3000
0000
0000
0000
0000
,
0100
0000
0000
0000
0100
0000
0000
0000
0200
0000
0000
0300
0000
0000
0000
0000
,
0010
0000
0000
0000
0010
0000
0000
0000
0020
0000
0000
0030
0000
0000
0000
0000
,
0001
0000
0000
0000
0001
0000
0000
0000
2000
0000
0000
3000
0000
0000
0000
0000
,
0010
0000
0000
0000
0010
0000
0000
0000
0200
0000
0000
0300
0000
0000
0000
0000
,
0001
0000
0000
0000
0001
0000
0000
0000
0200
0000
0000
0300
0000
0000
0000
0000
,
0010
0010
1000
0000
,
0110
0000
0110
0000
,
1001
0000
1001
0000
,
1000
1000
1000
0000
,
1000
0000
0000
0000
2000
0000
0000
3000
,
0000
0000
1001
0000
,
0110
0000
1001
0000
,
0001
0001
0001
0000
,
0100
0100
0100
0000
,
0010
0000
0000
0000
;
