#TITLE:Speedy Speed Boy;
#SUBTITLE:;
#ARTIST:Marko Polo;
#TITLETRANSLIT:;
#SUBTITLETRANSLIT:;
#ARTISTTRANSLIT:;
#GENRE:Pop;
#CREDIT:Ace Of Hearts;
#BANNER:Speedy Speed Boy - bn.png;
#BACKGROUND:Speed Speed Boy - bg.jpg;
#LYRICSPATH:;
#CDTITLE:Ace Of Hearts.png;
#MUSIC:Speedy Speed Boy.ogg;
#OFFSET:-0.210;
#SAMPLESTART:62.980;
#SAMPLELENGTH:12.000;
#SELECTABLE:YES;
#BPMS:0.000=152.090;
#STOPS:;
#BGCHANGES:;
#KEYSOUNDS:;

//---------------dance-single - Hard----------------
#NOTES:
     dance-single:
     Ace Of Hearts (2009):
     Hard:
     8:
     0.912,0.593,0.419,1.000,0.214:
0000
0000
0000
0000
,
0000
0000
0000
0000
,
0001
0100
0010
0100
0001
2000
0000
0000
,
3100
0010
0001
1000
0040
0000
0030
0000
,
0100
0001
1000
0100
0010
0002
0000
0000
,
0103
0010
1000
0001
0010
0200
0000
0000
,
1300
0001
0010
0001
0100
0020
0000
0030
,
1000
0100
0010
0001
0010
0002
0003
2001
,
0000
3010
0100
0000
0202
0000
0303
0000
,
0100
0010
1000
0002
0000
0103
0010
2010
,
0000
3001
0010
0000
0220
0000
0330
0000
,
0100
1000
0001
0200
0000
0310
0100
0102
,
0000
1003
0001
0000
0022
0000
0033
0000
,
0010
0100
1000
0002
0000
1003
0100
0110
,
0000
0011
0000
0101
0000
1010
0000
2200
,
0000
0000
0000
0000
0300
3004
0000
0003
,
1000
0000
0010
0000
1000
0000
0000
0001
0000
0000
0001
0000
0000
0000
1000
0000
,
0100
0000
0000
0000
0100
0000
0000
0010
0000
0000
0002
0000
0000
0000
0103
0000
,
0010
1000
0000
1000
0002
0000
0000
0000
1003
0100
0000
0100
0020
0000
0000
0000
,
0032
0000
0000
1003
0000
0000
0010
0000
0100
0000
0001
2000
0000
0000
3000
0000
,
0020
0000
0000
0000
0130
0000
0000
0001
0000
0000
0002
0000
0000
0000
1003
0000
,
0100
0000
0000
0000
0010
0000
0000
0001
0000
0000
1000
0000
0000
0000
0010
0000
,
0100
0000
0000
0000
0002
0000
0000
0000
1003
0100
0000
0000
0020
0000
0000
0000
,
0130
0000
1000
0000
0001
0010
0000
0010
0200
0000
0000
0000
0300
0000
0000
0000
,
1000
0001
0100
0010
1000
0001
0010
0100
,
0010
0001
1000
0010
0100
0001
1000
0100
,
0020
0000
0100
0000
,
1000
0000
0001
0030
,
1000
0001
0100
0001
0010
0100
1000
0010
,
0100
0001
0010
0100
1000
0010
0100
0001
,
0020
0000
1000
0000
,
0001
0000
0100
0030
,
1000
0000
1010
0000
1000
0001
1000
1100
,
0000
0200
0300
0120
0000
0030
0001
1000
,
1010
0000
0020
0000
0130
0001
1000
1010
,
0000
0010
0000
0220
0000
0330
0100
0001
,
1001
0000
1000
1000
0010
0100
0000
0001
,
0000
0010
0000
0100
0000
1000
0001
0100
,
0010
0000
2020
3030
2002
3003
0000
0000
0022
0033
0020
0000
0000
0000
0230
0300
,
2200
3300
2000
3000
0002
0003
0000
0000
0202
0303
0200
0000
0000
0000
0340
4000
,
0000
3030
0200
0300
,
0001
0000
1000
0000
0100
0000
0020
0000
0000
0000
0130
0000
1000
0000
0004
0400
,
0000
0303
2000
3000
,
0010
0000
0100
0000
0001
0000
0020
0000
0000
0000
0130
0000
1000
0000
0004
0040
,
0000
0033
0020
0030
,
0001
1000
0001
0200
0000
0310
1000
1100
,
0000
0100
0000
0110
0000
0010
0000
0022
,
0030
0000
0000
0000
0000
0000
0000
0000
0003
0000
0000
0000
0000
0000
4000
0004
,
0000
3003
0200
0300
,
1000
0000
0001
0000
0100
0000
0020
0000
0000
0000
1030
0000
0001
0000
0400
0004
,
0000
0303
0020
0030
,
1000
0000
0100
0000
0010
0000
0002
0000
0000
0000
1003
0000
0010
0000
0400
0040
,
0000
0330
0002
0003
,
1000
0100
0010
0200
0000
1300
0010
0110
,
0000
0100
0000
0101
0000
0001
0000
1000
,
0100
1000
0001
0100
0010
4000
3000
0000
,
0001
0000
0000
0000
0001
0000
0000
0001
0000
0000
0001
0000
0000
0000
0100
0000
,
0010
0000
0000
0000
0010
0000
0000
0010
0000
0000
0010
0000
0000
0000
1000
0000
,
0001
0100
0000
0100
0020
0000
0000
0000
1030
0001
0000
0001
0200
0000
0000
0000
,
0320
0000
0000
1030
0000
0000
0001
0000
1000
0000
0010
0200
0000
0000
0300
0000
,
0010
0000
0000
0000
0010
0000
0000
1000
0000
0000
2000
0000
0000
0000
3001
0000
,
0010
0000
0000
0000
0010
0000
0000
0010
0000
0000
0002
0000
0000
0000
1003
0000
,
0010
0000
0000
0000
0100
0000
0000
0000
0001
1000
0000
0000
0200
0000
0000
0000
,
1300
0000
0001
0000
0100
0010
0000
0010
2000
0000
3004
0000
0003
0000
0000
0000
,
0010
0100
1000
0001
0100
0010
0100
0001
,
0010
0100
1000
0001
1000
0100
0010
0001
,
0002
0000
0100
0000
,
0010
0000
0100
0003
,
1000
0001
1000
0100
0010
0100
1000
0001
,
0100
0010
1000
0100
0010
0001
0100
0010
,
2000
0000
0001
0000
,
0100
0000
0010
3000
,
1000
0000
1100
0000
0100
0010
0001
0101
,
0000
0100
0000
0120
0000
0030
1000
0001
,
0011
0000
0020
0000
0130
1000
0010
0110
,
0000
0100
0000
0102
0000
0000
1003
0100
,
0010
0000
0100
0100
1000
0001
0000
0100
,
0000
0010
0000
1000
0000
0001
0000
0010
,
0100
0000
2200
3300
2002
3003
0000
0000
0202
0303
2020
3030
0000
0000
0020
0030
,
0220
0330
0200
0300
0002
0003
0000
0000
2002
3003
2000
0000
0000
0000
3004
0040
,
0000
0033
2000
3000
,
0010
0000
0100
0000
0001
0000
2000
0000
0000
0000
3100
0000
0010
0000
0400
4000
,
0000
3300
0020
0030
,
0100
0000
0001
0000
0100
0000
0020
0000
0000
0000
1030
0000
0001
0000
4000
0400
,
0000
3300
0020
0030
,
0001
0010
0001
0200
0000
0310
1000
1001
,
0000
0001
0000
0101
0000
0100
0000
0010
,
0100
0000
0001
0000
1000
0000
0100
0000
0020
0000
0000
0000
0000
0000
0034
4000
,
0000
3003
0200
0300
,
0010
0000
0100
0000
0001
0000
0020
0000
0000
0000
0130
0000
1000
0000
0040
0400
,
0000
0330
2000
3000
,
0100
0000
0010
0000
0001
0000
0020
0000
0000
0000
0130
0000
1000
0000
0004
0400
,
0000
0303
0020
0030
,
0100
1000
0001
0200
0000
0310
1000
1100
,
0000
0100
0000
0110
0000
0010
0000
0001
,
1000
0010
0100
0001
1000
0400
0300
0000
,
0020
0000
0000
0000
0031
0000
0000
1000
0000
0000
0200
0000
0000
0000
0300
0000
,
0000
0000
0020
0130
0000
0020
0130
0000
,
1000
0000
0000
0002
0000
0000
0003
0000
1000
0000
0000
0002
0000
0000
0003
0000
,
0000
0000
2000
3100
0000
2000
3100
0000
,
1000
0000
0001
0000
1000
0000
0000
0010
0000
0000
0020
0000
0000
0000
0030
0000
,
0000
0000
0200
0301
0000
0200
0301
0000
,
1000
0000
0000
0000
0100
0000
0000
0000
0010
0001
0000
0000
1000
0000
0000
0000
,
0010
0000
0100
0000
0001
0010
0000
0010
0100
0000
4000
0000
3000
0000
0000
0000
;

//---------------dance-single - Expert----------------
#NOTES:
     dance-single:
     Ace Of Hearts (2009):
     Challenge:
     10:
     1.000,0.692,0.648,1.000,0.914:
0000
0000
0000
0000
,
0000
0000
0000
0000
,
0100
0010
0001
0010
0100
0020
0000
0000
,
0130
1000
0001
0100
0004
2000
0003
0000
,
3100
0010
0001
0100
0001
0020
0000
0000
,
0130
1000
0001
0100
0010
2000
0000
0000
,
3100
0010
0001
0010
0100
2000
0000
0000
,
3001
0100
0010
0100
0001
0010
0100
2100
,
0000
3001
0100
0000
0210
0000
0301
0000
,
2001
3100
0010
0200
0000
1300
0001
0201
,
0000
0310
1000
0000
1200
0000
0310
0000
,
0012
1003
0100
0120
0000
0031
1000
1200
,
0000
0310
0001
0000
2001
0000
3010
0000
,
0210
0301
1000
0020
0000
0130
0001
0011
,
0000
1100
0000
1010
0000
0101
0000
0001
,
0010
0100
1000
0001
0100
0010
0100
0001
0100
0000
0010
0100
0001
1000
0100
0010
,
0001
1000
0010
0000
0200
0000
0301
1000
0000
0000
0020
0000
0000
0000
1030
0000
,
0100
0000
0010
0000
0001
0000
1000
0010
0000
0000
0200
0000
0000
0000
0301
0000
,
1000
0100
1000
0100
0020
0000
0000
0000
0031
1000
0001
1000
0200
0000
0000
0000
,
0310
0000
0001
0100
0010
0000
0100
0000
0001
0000
1000
0100
0020
0000
0031
1000
,
0010
0100
0001
0000
2000
0000
0000
3100
0000
0000
0020
0000
0000
0000
0031
0000
,
0100
0000
0000
0000
0110
0000
0100
0001
1000
0000
0200
0000
0000
0000
0310
0000
,
0001
1000
0001
1000
0002
0000
0000
0000
0103
0010
0000
0010
0200
0000
0000
0000
,
0301
0000
0000
0000
0000
0000
1000
0000
0000
0000
0000
0000
0100
0000
0000
0010
0000
0000
0000
0000
0000
0010
0000
0000
0002
0000
0000
0000
0000
0000
1003
0000
0100
0000
1000
0000
0100
0000
0000
0000
0000
0000
0000
0000
0000
0000
0000
0000
,
0010
0001
1000
0000
0010
0000
0100
0000
0001
0010
0100
0000
1000
0000
0001
0000
,
0100
0010
1000
0000
0010
0000
0100
0000
0001
1000
0100
0000
0010
0000
0001
0000
,
2000
3200
0302
2003
3002
0203
2300
3002
,
0203
2300
3002
2003
3200
0302
2003
3200
,
0310
0001
1000
0000
0001
0000
0100
0000
0010
0100
0001
0000
1000
0000
0100
0000
,
0010
0100
1000
0000
0001
0000
0100
0000
0010
1000
0001
0000
0010
0000
0100
0000
,
2000
3020
0032
2003
3002
0023
2030
3200
,
0302
0000
0000
2003
0000
0000
3020
0000
0000
0032
0000
0000
0203
0000
0000
0310
1000
0010
1000
0000
0000
0000
0000
0000
,
1100
0100
0110
0000
0010
0001
0100
0002
,
0000
0020
0000
1000
0000
0033
0001
0100
,
0110
0000
0020
0030
1010
1000
0001
2000
,
0000
0020
0000
0001
0000
3030
1000
0100
,
0120
0000
0031
0001
0100
0010
0000
0110
,
0000
0100
0000
0101
0000
0001
0000
1000
,
0010
0000
0220
0330
0220
0330
0000
0000
0202
0303
2020
3030
0000
0000
2002
3003
,
2002
3003
2002
3003
2002
3003
0000
0000
2200
3300
0022
0030
0000
0000
1003
0010
,
0100
0010
1000
0001
0020
0000
0031
0000
0200
0000
0310
1000
0001
0000
0010
0000
,
0100
1000
0001
0000
0100
0000
0020
0000
1030
0000
0001
0010
0100
0000
0010
0100
,
1000
0001
1000
0010
0200
0000
0301
0000
0020
0000
0130
1000
0001
0000
0100
0000
,
0010
1000
0001
0000
0010
0000
0210
0000
0000
0000
1300
0000
0010
0000
0100
0010
,
1000
0001
0010
0100
2000
0000
3010
0000
0200
0000
0301
1000
0100
0000
0010
0000
,
0001
1000
0010
0000
0100
0000
0002
0000
0000
0000
1003
0010
0100
0000
0101
0000
,
0000
0011
0000
1100
0000
1010
0000
0010
,
0100
0001
1000
0100
1000
0001
0100
0010
1000
0001
0010
0100
1000
0001
1000
0010
,
1000
0001
0010
0100
2000
0000
3001
0000
0100
0000
0001
1000
0100
0000
1000
0000
,
0010
1000
0001
0000
0010
0000
0100
0000
0010
0000
0001
1000
0010
0000
0100
0010
,
1000
0001
0010
0100
0020
0000
0031
0000
1000
0000
0001
0100
0010
0000
1000
0000
,
0100
0010
0001
0000
1000
0000
1010
0000
0010
0000
0100
0000
0001
0000
0010
0100
,
1000
0100
0010
0001
0200
0000
0310
0000
1000
0000
0001
0010
0100
0000
1000
0000
,
0001
1000
0010
0000
0100
0000
0010
0000
1000
0000
0001
0010
0100
0000
1100
0000
,
0000
1010
0000
0101
0000
0011
0000
0010
,
0001
0000
0000
1000
0000
0000
0010
0000
0000
0100
0000
0000
0010
0000
0000
1000
0000
0000
0001
0000
0000
0010
0000
0000
0100
0000
0000
0000
0000
0000
0010
0000
0001
0000
0010
0000
0001
0000
0000
0000
0000
0000
0000
0000
0000
0000
0000
0000
,
1000
0000
0010
0000
0100
0001
1000
0100
0000
0100
0020
0000
0031
0000
1000
0000
,
0100
0010
0001
0000
0010
0100
1000
0001
0000
0001
0200
0000
0301
0000
0010
0000
,
0001
0010
0100
0010
0002
0000
0003
0000
1000
0100
0010
0100
2000
0000
3000
0000
,
0001
0000
0100
0010
1000
0000
0001
0000
1000
0100
0010
0001
2000
0000
3010
0000
,
0100
0000
0001
0000
1000
0100
0010
0001
0000
0001
0200
0000
0310
0000
1000
0000
,
0001
0100
0010
0000
0100
0001
1000
0100
0000
0100
0010
0000
0001
0000
0100
0000
,
0001
0010
0001
0010
0002
0000
0003
0000
1000
0100
0000
0100
2000
0000
3000
0000
,
0010
0000
0000
0000
0000
0000
0100
0000
0000
0000
0000
0000
0001
0000
0000
1000
0000
0000
0000
0000
0000
1000
0000
0000
0020
0000
0000
0000
0000
0000
0130
0000
0001
0000
0100
0000
0001
0000
0000
0000
0000
0000
0000
0000
0000
0000
0000
0000
,
1000
0100
0010
0000
0100
0000
1000
0000
0001
1000
0010
0000
0100
0000
0001
0000
,
0010
0001
0100
0000
0010
0000
1000
0000
0001
0010
0100
0000
1000
0000
0001
0000
,
2000
3020
0032
2003
3200
0302
0023
2030
,
3002
0203
2300
3002
0203
2300
3200
0302
,
1003
0100
0010
0000
0001
0000
1000
0000
0010
1000
0001
0000
0010
0000
0100
0000
,
0010
0001
0100
0000
0010
0000
1000
0000
0100
0010
0001
0000
0010
0000
0100
0000
,
2000
3020
0032
2003
3200
0302
0023
2030
,
3002
0000
0000
0203
0000
0000
2300
0000
0000
3020
0000
0000
0230
0000
0000
0301
1000
0001
1000
0000
0000
0000
0000
0000
,
0010
0100
0001
0000
0010
0000
0100
0000
1000
0001
0100
0000
0010
0000
2000
0000
,
0000
0200
0000
0001
3300
0000
1000
0001
,
0100
0000
0010
1000
0001
0000
0010
0000
0001
0100
0010
0000
1000
0000
0002
0000
,
0000
0200
0000
1000
0303
0000
0001
1000
,
0100
0000
0010
0010
0001
2000
3000
1010
,
0000
0010
0000
0110
0000
0100
0001
1000
,
0100
0000
0220
0330
0220
0330
0000
0000
2200
3300
0022
0000
0033
0000
0202
0303
,
2020
3030
2200
3300
2002
3003
0000
0000
2200
3300
0022
0000
0033
0000
0001
0100
,
0010
1000
0001
0010
0200
0000
0310
0000
0001
0000
1000
0001
0010
0000
0100
0000
,
1000
0001
0100
0000
0010
0000
1000
0000
0001
0010
0100
0000
1000
0000
0010
0100
,
0010
1000
0001
0010
0002
0000
0103
0000
0010
0000
1000
0001
0010
0000
0100
0000
,
0010
0001
1000
0000
0010
0000
1000
0000
0100
0000
0010
0001
1000
0000
0100
0010
,
0001
1000
0001
0100
0020
0000
1030
0000
0001
0000
0010
0001
0100
0000
0010
0000
,
1000
0001
0010
0000
0001
0000
0100
0010
1000
0000
0001
0000
0010
0000
0110
0000
,
0000
1100
0000
1010
0000
0101
0000
0001
,
1000
0100
0010
0001
1000
0010
0100
0001
1000
0010
1000
0100
0010
0001
1000
0010
,
1000
0100
0010
0001
0200
0000
0310
0000
1000
0000
0001
0010
0100
0000
1000
0000
,
0010
1000
0100
0000
1000
0000
0001
0100
0010
0000
1000
0000
0001
0000
0010
0001
,
1000
0010
0100
0001
2000
0000
3100
0000
0010
0000
0001
1000
0100
0000
0010
0000
,
0100
1000
0001
0000
0100
0000
0010
0000
1000
0000
0001
0100
0010
0000
1000
0100
,
1000
0001
0100
0001
0020
0000
0130
0000
1000
0000
0001
0010
0100
0000
1000
0000
,
0001
0100
0010
0000
0100
0000
0001
1000
0100
0000
0010
0000
0001
0000
0101
0000
,
0000
1100
0000
0011
0000
1010
0000
1000
,
0100
0000
0000
0010
0000
0000
0100
0000
0000
1000
0000
0000
0001
0000
0000
0100
0000
0000
0010
0000
0000
1000
0000
0000
0001
0000
0000
0000
0000
0000
0010
0000
0100
0000
0010
0000
0100
0000
0000
0000
0000
0000
0000
0000
0000
0000
0000
0000
,
1000
0001
0100
0000
0010
0000
0100
0001
0000
0000
2000
0000
0000
0000
3000
0000
,
0000
0000
1020
0130
0000
0102
1003
0000
,
0010
1000
0010
0200
0000
0000
0301
0000
1000
0100
0010
0200
0000
0000
1300
0000
,
0001
0000
0000
0100
0020
0000
1030
0000
0000
0000
0002
0000
0103
0000
0000
0000
,
0010
1000
0001
0000
0010
0000
0010
0100
0000
0000
2000
0000
0000
0000
3001
0000
,
0100
0000
0120
1030
0000
2010
3001
0000
,
0100
0001
1000
0200
0000
0000
1300
0000
0001
0100
0010
2000
0000
0000
3001
0000
,
0201
0000
0000
0310
0000
0000
0000
0000
0000
0120
0000
0000
1030
0000
0000
0100
1000
0100
1000
0000
0000
0000
0000
0000
;

//---------------dance-single - Medium----------------
#NOTES:
     dance-single:
     Ace Of Hearts (2009):
     Medium:
     6:
     0.709,0.593,0.000,0.857,0.057:
0000
0000
0000
0000
,
0000
0000
0000
0000
,
0001
0100
0001
0000
1000
0020
0000
0030
,
1000
0001
1000
0000
0001
0020
0000
0030
,
0001
0100
0001
0000
1000
0020
0000
0030
,
1000
0010
1000
0000
0001
0200
0000
0300
,
0001
1000
0001
0000
1000
0020
0000
0030
,
1000
0010
1000
0000
0001
0020
0000
0032
,
0000
1003
0010
0000
0200
0000
0300
0000
,
0002
0000
1003
0200
0000
1300
0001
2000
,
0000
3010
1000
0000
0002
0000
0003
0000
,
2000
0000
3001
0200
0000
0310
1000
0020
,
0000
1030
0001
0000
0200
0000
0300
0000
,
0002
0000
1003
0200
0000
1300
0001
1000
,
0000
0001
0000
0010
0000
0100
0000
2000
,
0000
0000
0000
3000
0000
0000
0000
0000
,
0002
0000
0000
0000
1003
0000
0000
0010
0000
0000
2000
0000
0000
0000
3000
0000
,
0001
0000
0000
0000
1000
0000
0000
0010
0000
0000
0020
0000
0000
0000
0030
0000
,
1000
0100
1000
0000
0001
0010
0001
0000
,
1000
0000
0000
0010
0000
0000
1000
0000
0001
0000
0000
0000
0001
0000
0000
0000
,
2000
0000
0000
0000
3001
0000
0000
0010
0000
0000
0002
0000
0000
0000
0003
0000
,
1000
0000
0000
0000
0010
0000
0000
1000
0000
0000
0002
0000
0000
0000
0003
0000
,
1000
0010
1000
0000
0001
0000
1000
0000
,
0001
0010
0100
0000
2000
0000
3000
0000
,
0001
0000
1000
0010
1000
0000
0000
0000
,
0001
0000
0100
0001
0100
0000
0010
1000
,
0020
0030
0200
0300
,
0002
0003
2000
3000
,
0000
0010
1000
0000
0001
0000
1000
0100
,
1000
0000
0001
0100
0001
0000
0010
0001
,
0020
0030
0200
0300
,
2000
3000
0002
0003
,
1000
0000
1000
0000
1000
0000
0001
0010
,
0000
0100
0000
1000
0000
0000
0001
0100
,
0001
0000
0001
0000
0001
0000
1000
0010
,
0000
0100
0000
0001
0000
0000
1000
0010
,
1000
0000
0001
1000
0001
0000
0000
1000
,
0000
0001
0000
0100
0000
0001
1000
0000
,
0001
2000
3002
0003
2000
3020
0000
2030
,
3002
0003
0002
0003
0200
0320
0000
4030
,
0000
3001
0100
0000
0010
0000
0000
0000
,
1000
0001
1000
0002
0000
1003
0010
0400
,
0000
0301
1000
0000
0100
0000
0000
0000
,
1000
0000
0001
0200
0000
0310
1000
0040
,
0000
0130
0001
0000
1000
0000
0000
0000
,
0001
0100
0001
0200
0000
0301
1000
0100
,
0000
0010
0000
0001
0000
1000
0000
0002
,
0000
0000
0000
0003
0000
0000
0000
4000
,
0000
3100
0010
0000
0001
0000
0000
0000
,
1000
0010
1000
0020
0000
1030
0001
4000
,
0000
3001
0010
0000
0100
0000
0000
0000
,
1000
0000
0001
0020
0000
0031
1000
0004
,
0000
1003
0010
0000
0100
0000
0000
0000
,
0001
1000
0001
2000
0000
3001
0010
0001
,
0000
0100
0000
0001
0000
0010
0000
0200
,
0000
0000
0000
0300
0000
0000
0000
0000
,
1000
0000
0000
0000
1000
0000
0000
0001
0000
0000
0001
0000
0000
0000
1000
0000
,
0100
0000
0000
0000
0100
0000
0000
0010
0000
0000
0010
0000
0000
0000
0001
0000
,
0040
0030
0400
0300
,
0010
0000
0000
0010
0000
0000
0001
0000
1000
0000
0000
0000
1000
0000
0000
0000
,
0001
0000
0100
0000
0001
0000
0000
1000
0000
0000
2000
0000
0000
0000
3001
0000
,
0100
0000
0000
0000
0100
0000
0000
0001
0000
0000
0002
0000
0000
0000
0003
0000
,
1000
0100
1000
0000
0001
0100
0001
0000
,
1000
0100
0010
0000
0002
0000
0003
0000
,
1000
0010
1000
0000
0001
0000
0000
0000
,
0100
0000
0001
1000
0001
0000
0010
0100
,
0020
0030
0002
0003
,
2000
3000
0020
0030
,
1000
0010
1000
0000
0001
0000
0000
0000
,
0010
0000
0100
1000
0100
0000
1000
0001
,
2000
3000
0020
0030
,
0200
0300
0002
0003
,
1000
0000
1000
0000
1000
0000
0001
0010
,
0000
0100
0000
0100
0000
0000
1000
0001
,
1000
0000
1000
0000
1000
0000
0001
0100
,
0000
0010
0000
0100
0000
0000
0001
0100
,
0001
0000
1000
0100
1000
0000
0000
0100
,
0000
0010
0000
0001
0000
1000
0001
0000
,
1000
0020
2030
0000
3002
0023
0000
0032
,
2003
3000
2000
0000
3002
0023
0000
0034
,
0000
1003
0010
0000
1000
0000
0000
0000
,
0001
0010
0001
0020
0000
0031
1000
0400
,
0000
1300
0001
0000
0010
0000
0000
0000
,
0001
1000
0001
2000
0000
3010
1000
0004
,
0000
1003
0010
0000
0100
0000
0000
0000
,
0001
1000
0001
2000
0000
3001
0100
0010
,
0000
0100
0000
0001
0000
1000
0000
0200
,
0000
0000
0000
0300
0000
0000
0000
4000
,
0000
3001
0100
0000
0010
0000
0000
0000
,
1000
0001
1000
0020
0000
1030
0001
0040
,
0000
0031
1000
0000
0100
0000
0000
0000
,
0010
0001
0010
0002
0000
1003
0010
4000
,
0000
3001
0010
0000
0001
0000
0000
0000
,
1000
0010
1000
0002
0000
1003
0100
0010
,
0000
0100
0000
1000
0000
0001
0000
0200
,
0000
0000
0000
0300
0000
0000
0000
0000
,
0002
0000
0000
0000
1003
0000
0000
0010
0000
0000
0020
0000
0000
0000
0030
0000
,
0000
0000
2000
3000
0000
0002
0003
0000
,
4000
3000
0040
0030
,
1000
0000
0002
0003
0000
0200
0300
0000
,
0002
0000
0000
0000
1003
0000
0000
0010
0000
0000
0020
0000
0000
0000
0030
0000
,
0000
0000
2000
3000
0000
0200
0300
0000
,
0010
0001
0010
0000
0001
1000
0001
0000
,
1000
0010
0100
0000
0002
0000
0003
0000
;

//---------------dance-single - Easy----------------
#NOTES:
     dance-single:
     Ace Of Hearts (2009):
     Easy:
     4:
     0.354,0.296,0.000,0.267,0.000:
0000
0000
0000
0000
,
0000
0000
0000
0000
,
0001
0001
0001
0000
,
0100
0100
0100
0000
,
0010
0010
0010
0000
,
1000
1000
1000
0000
,
0001
0001
0001
0000
,
1000
1000
1000
0000
,
0010
0010
0010
0000
,
0100
0000
0100
0000
,
0001
0001
0001
0000
,
1000
0000
1000
0000
,
0100
0100
0100
0000
,
1000
0000
0000
0000
1000
0000
0000
0001
,
0000
0001
0000
0100
0000
0100
0000
0200
,
0000
0000
0300
0000
,
0010
0010
0010
0000
,
1000
1000
1000
0000
,
0004
0003
0004
0003
,
1000
0000
1000
0000
,
0010
0010
0010
0000
,
1000
1000
1000
0000
,
0010
0000
0010
0000
,
0100
0100
0200
0300
,
0001
0001
0001
0000
,
1000
1000
1000
0000
,
0200
0000
0000
0000
,
0000
0000
0300
0000
,
1000
1000
1000
0000
,
0001
0001
0001
0000
,
0020
0000
0000
0000
,
0000
0000
0000
0030
,
0001
0001
0001
0000
,
0100
0100
0100
0000
,
0010
0010
0010
0000
,
1000
1000
1000
0000
,
0100
0100
0100
0000
,
0010
0000
0010
0000
,
0000
0000
0002
0003
0002
0003
0000
0000
,
0200
0300
0200
0300
0200
0300
0000
0000
,
0040
0000
0030
0000
,
1000
1000
1000
0000
,
0004
0000
0003
0000
,
0010
0010
0010
0000
,
0400
0000
0300
0000
,
1000
0000
0000
0000
1000
0000
0000
0001
,
0000
0001
0000
0010
0000
0010
0000
0020
,
0000
0000
0030
0000
,
0004
0000
0003
0000
,
1000
1000
1000
0000
,
0040
0000
0030
0000
,
0100
0000
0100
0000
,
0004
0000
0003
0000
,
1000
0000
0000
0000
1000
0000
0000
0001
,
0000
0001
0000
0100
0000
0100
0000
0200
,
0000
0000
0300
0000
,
0010
0010
0010
0000
,
1000
1000
1000
0000
,
0040
0030
0040
0030
,
0100
0000
0100
0000
,
0001
0001
0001
0000
,
0010
0010
0010
0000
,
0100
0000
0100
0000
,
1000
1000
2000
3000
,
0001
0001
0001
0000
,
0100
0100
0100
0000
,
0002
0000
0000
0000
,
0000
0000
0003
0000
,
1000
1000
1000
0000
,
0010
0010
0010
0000
,
2000
0000
0000
0000
,
0000
0000
0000
3000
,
0001
0001
0001
0000
,
0100
0000
0100
0000
,
0010
0010
0010
0000
,
1000
0000
1000
0000
,
0001
0001
0001
0000
,
0100
0000
0100
0000
,
0000
0000
0020
0030
0020
0030
0000
0000
,
2000
3000
2000
3000
2000
3000
0000
0000
,
0004
0000
0003
0000
,
1000
1000
1000
0000
,
0400
0000
0300
0000
,
0010
0010
0010
0000
,
0004
0000
0003
0000
,
0100
0000
0000
0000
0100
0000
0000
0010
,
0000
0010
0000
1000
0000
1000
0000
2000
,
0000
0000
3000
0000
,
0040
0000
0030
0000
,
1000
1000
1000
0000
,
0004
0000
0003
0000
,
0010
0010
0010
0000
,
0400
0000
0300
0000
,
1000
0000
0000
0000
1000
0000
0000
0001
,
0000
0001
0000
0100
0000
0100
0000
0200
,
0000
0000
0000
0300
,
0010
0010
0010
0000
,
0000
0000
2000
3000
0000
2000
3000
0000
,
0040
0030
0040
0030
,
0000
0000
0200
0300
0000
0200
0300
0000
,
0001
0001
0001
0000
,
0000
0000
2000
3000
0000
2000
3000
0000
,
0100
0000
0100
0000
,
0010
0010
0020
0030
;

//---------------dance-single - Novice----------------
#NOTES:
     dance-single:
     Ace Of Hearts (2009):
     Beginner:
     1:
     0.200,0.099,0.019,0.352,0.000:
0000
0000
0000
0000
,
0000
0000
0000
0000
,
0002
0000
0000
0000
,
0003
0000
0000
0000
,
2000
0000
0000
0000
,
3000
0000
0000
0000
,
0200
0000
0000
0000
,
0300
0000
0000
0000
,
0020
0000
0030
0000
,
0010
0000
0000
0000
,
0002
0000
0003
0000
,
0001
0000
0000
0000
,
2000
0000
3000
0000
,
1000
0000
0000
0000
,
0020
0000
0000
0000
,
0030
0000
0000
0000
,
0100
0000
0000
0000
,
0100
0000
0000
0000
,
0004
0000
0000
0000
,
0003
0000
0000
0000
,
1000
0000
0000
0000
,
1000
0000
0000
0000
,
0100
0000
0100
0000
,
0200
0000
0300
0000
,
0010
0000
0000
0000
,
0010
0000
0000
0000
,
0020
0000
0000
0000
,
0000
0000
0030
0000
,
0001
0000
0000
0000
,
0001
0000
0000
0000
,
0002
0000
0000
0000
,
0000
0000
0003
0000
,
1000
0000
1000
0000
,
1000
0000
0000
0000
,
0010
0000
0010
0000
,
0010
0000
0000
0000
,
0100
0000
0000
0000
,
0100
0000
0000
0000
,
2002
0000
0000
0000
,
3003
0000
0000
0000
,
0002
0000
0003
0000
,
1000
0000
1000
0000
,
2000
0000
3000
0000
,
0100
0000
0100
0000
,
0200
0000
0300
0000
,
0010
0000
0010
0000
,
0020
0000
0000
0000
,
0030
0000
0000
0000
,
0002
0000
0003
0000
,
0100
0000
0100
0000
,
0200
0000
0300
0000
,
0010
0000
0010
0000
,
0020
0000
0030
0000
,
1000
0000
1000
0000
,
2000
0000
0000
0000
,
3000
0000
0000
0000
,
0010
0000
0000
0000
,
0010
0000
0000
0000
,
4000
0000
0000
0000
,
3000
0000
0000
0000
,
0001
0000
0000
0000
,
0001
0000
0000
0000
,
0100
0000
0100
0000
,
0200
0000
0300
0000
,
0001
0000
0000
0000
,
0001
0000
0000
0000
,
0002
0000
0000
0000
,
0000
0000
0003
0000
,
1000
0000
0000
0000
,
1000
0000
0000
0000
,
2000
0000
0000
0000
,
0000
0000
3000
0000
,
0010
0000
0010
0000
,
0010
0000
0000
0000
,
0100
0000
0100
0000
,
0100
0000
0000
0000
,
0001
0000
0000
0000
,
0001
0000
0000
0000
,
2002
0000
0000
0000
,
3003
0000
0000
0000
,
2000
0000
3000
0000
,
0001
0000
0001
0000
,
0002
0000
0003
0000
,
0100
0000
0100
0000
,
0200
0000
0300
0000
,
0010
0000
0010
0000
,
0020
0000
0000
0000
,
0030
0000
0000
0000
,
0200
0000
0300
0000
,
0001
0000
0001
0000
,
0002
0000
0003
0000
,
1000
0000
1000
0000
,
2000
0000
3000
0000
,
0100
0000
0100
0000
,
0200
0000
0000
0000
,
0300
0000
0000
0000
,
0010
0000
0010
0000
,
0000
0000
0002
0000
0000
0003
0000
0000
,
1000
0000
1000
0000
,
0000
0000
0200
0000
0000
0300
0000
0000
,
1000
0000
1000
0000
,
0000
0000
0020
0000
0000
0030
0000
0000
,
0100
0000
0100
0000
,
0002
0000
0000
0003
;

//---------------dance-double - Expert----------------
#NOTES:
     dance-double:
     Ace Of Hearts (2009):
     Challenge:
     11:
     0.894,0.000,0.352,0.448,0.810: // measure 1
00000000
00000000
00000000
00000000
,  // measure 2
00000000
00000000
00000000
00000000
,  // measure 3
10000000
01000000
00100000
01000000
10000000
00020000
00000000
00030000
,  // measure 4
00100000
00001000
00010000
00000100
00040000
00000000
00030000
00000000
,  // measure 5
00000001
00000010
00000100
00000010
00000001
00002000
00000000
00003000
,  // measure 6
00000010
00001000
00000001
00000010
00000100
00020000
00000000
00000000
,  // measure 7
00031000
01000000
00010000
10000000
01000000
00200000
00000000
00000000
,  // measure 8
01300000
10000000
00010000
01000000
00001000
00010000
00000100
00002100
,  // measure 9
00000000
00003001
00000100
00000000
00000220
00000000
00000330
00000000
,  // measure 10
00001010
00000010
00010000
00002000
00000000
00103000
01000000
21000000
,  // measure 11
00000000
30010000
01000000
00000000
02200000
00000000
03300000
00000000
,  // measure 12
10100000
10000000
00010000
00200000
00000000
00301000
00010000
00010020
,  // measure 13
00000000
00001030
00000001
00000000
00000202
00000000
00000303
00000000
,  // measure 14
00000110
00000010
00010000
00002000
00000000
01003000
00010000
10010000
,  // measure 15
00000000
11000000
00000000
00110000
00000000
00011000
00000000
00010000
,  // measure 16
00001000
00010000
00001000
00010000
00000100
00001000
00000100
00001000
00000001
00001000
00000010
00001000
00000010
00000100
00000010
00001000
,  // measure 17
00000010
00001000
00000010
00000000
00010000
00001000
00010000
00001000
00000000
00001000
02000000
00000000
00000000
00000000
03100000
00000000
,  // measure 18
10000000
00010000
10000000
00000000
00010000
00100000
00010000
00100000
00000000
00100000
00002000
00000000
00000000
00000000
00013000
00000000
,  // measure 19
00010000
00100000
01000000
00100000
00020000
00000000
00000000
00000000
10030000
00100000
01000000
00100000
20000000
00000000
00000000
00000000
,  // measure 20
30010000
00000000
00100000
00001000
00100000
00000000
00001000
00000000
00010000
00000000
00010000
00000100
00000000
00000100
00000020
00000000
,  // measure 21
00000031
00001000
00000001
00000000
00001000
00000010
00001000
00000010
00000000
00000010
00020000
00000000
00031000
00000000
00100000
00000000
,  // measure 22
00010000
10000000
00010000
00000000
10000000
01000000
10000000
01000000
00000000
01000000
00200000
00000000
00301000
00000000
00010000
00000000
,  // measure 23
00000100
00001000
00000100
00001000
00000002
00000000
00000000
00000000
00001003
00000010
00001000
00000010
00020000
00000000
00000000
00000000
,  // measure 24
00031000
00000000
00000000
00000000
00000000
00000000
00100000
00000000
00000000
00000000
00000000
00000000
01000000
00000000
00000000
10000000
00000000
00000000
00000000
00000000
00000000
10000000
00000000
00000000
00020000
00000000
00000000
00000000
00000000
00000000
10030000
00000000
01000000
00000000
10000000
00000000
01000000
00000000
00000000
00000000
00000000
00000000
00000000
00000000
00000000
00000000
00000000
00000000
,  // measure 25
00100000
00001000
00010000
00000010
00001000
00000001
00000100
00000010
,  // measure 26
00000100
00000001
00001000
00000100
00010000
00001000
01000000
00010000
,  // measure 27
10000000
01000000
00100000
00010000
00001000
00000100
00000010
00000001
,  // measure 28
00000001
00000010
00000100
00001000
00010000
00100000
01000000
10000000
,  // measure 29
00010000
01000000
00010000
00100000
00001000
00010000
00000100
00001000
,  // measure 30
00000001
00000100
00000010
00001000
00000001
00000100
00000010
00001000
,  // measure 31
00000010
00010000
00001000
00100000
01000000
10000000
00010000
01000000
,  // measure 32
00001000
00000000
00000000
00010000
00000000
00000000
00000010
00000000
00000000
00000100
00000000
00000000
00000001
00000000
00000000
00001000
00000010
00001000
00000010
00000000
00000000
00000000
00000000
00000000
,  // measure 33
00010000
00001000
00100000
00000000
00010000
00100000
01000000
20000000
,  // measure 34
00000000
00020000
00000000
00100000
00000000
30030000
10100000
00100000
,  // measure 35
01100000
00000000
01002000
00000000
00013000
00000100
00001000
00000002
,  // measure 36
00000000
00002000
00000000
00000010
00000000
00003003
00001010
00000010
,  // measure 37
00020010
00000000
00031000
00100000
01100000
01000000
00000000
21000000
,  // measure 38
00000000
30010000
00000000
01010000
01000000
00100000
10000000
00000000
,  // measure 39
00010000
00110000
00210000
00300000
00101000
00002000
00003000
00011000
,  // measure 40
00001100
00011000
00001100
00000000
00000110
00000020
00000031
00001000
,  // measure 41
00000010
00001000
00000010
00000100
00000010
00001000
00000010
00001000
00000001
00001000
00000100
00010000
00001000
00010000
00001000
00010000
,  // measure 42
00100000
00010000
00100000
01000000
10000000
01000000
10000000
00010000
01000000
00010000
01000000
00100000
01000000
00010000
01000000
00010000
,  // measure 43
10000000
00010000
00100000
00001000
00010000
00001000
00010000
00000100
00001000
00000100
00001000
00000001
00000100
00000001
00001000
00000100
,  // measure 44
00001000
00000100
00010000
00000100
00010000
00000100
00002000
00000000
00000000
00000000
00003001
00000000
00000100
00000000
00000010
00000000
,  // measure 45
00010000
00001000
00010000
00001000
00100000
00010000
00100000
00010000
10000000
00100000
10000000
00100000
01000000
00100000
01000000
00100000
,  // measure 46
10000000
00010000
10000000
01000000
10000000
00010000
01000000
00010000
01000000
00001000
00010000
00001000
00010000
00000000
00010010
00000000
,  // measure 47
00000000
00001010
00000000
00000101
00000000
00001001
00000000
00001000
,  // measure 48
00000010
00001000
00000010
00001000
00000001
00001000
00000100
00010000
00001000
00010000
00001000
00010000
00100000
00010000
00100000
01000000
,  // measure 49
00100000
01000000
00100000
00010000
00100000
00010000
10000000
00010000
01000000
00010000
10000000
00010000
01000000
00001000
01000000
00001000
,  // measure 50
00010000
00001000
00010000
00001000
00100000
00001000
00100000
00001000
00010000
00001000
00010000
00000100
00001000
00000100
00001000
00000100
,  // measure 51
00000010
00000100
00000010
00001000
00000001
00001000
00000001
00000100
00000001
00000100
00000001
00001000
00000100
00001000
00000100
00010000
,  // measure 52
00001000
00010000
00001000
00010000
00001000
00100000
00020000
00000000
00000000
00000000
10030000
00000000
00100000
00000000
01000000
00010000
,  // measure 53
01000000
00010000
01000000
00100000
01000000
00100000
01000000
00100000
10000000
00010000
01000000
00010000
01000000
00001000
01000000
00001000
,  // measure 54
00010000
00001000
00010000
00000100
00010000
00000100
00001000
00000001
00000100
00000001
00000100
00000010
00001000
00000000
00001001
00000000
,  // measure 55
00000000
00000101
00000000
00000110
00000000
00010010
00000000
00010000
,  // measure 56
00001000
00000000
00000000
00010000
00000000
00000000
00001000
00000000
00000000
00100000
00000000
00000000
00001000
00000000
00000000
00100000
00000000
00000000
00001000
00000000
00000000
00010000
00000000
00000000
00001000
00000000
00000000
00000000
00000000
00000000
01000000
00000000
00010000
00000000
01000000
00000000
00010000
00000000
00000000
00000000
00000000
00000000
00000000
00000000
00000000
00000000
00000000
00000000
,  // measure 57
10000000
01000000
00100000
00000000
01000000
10000000
01000000
10000000
00000000
10000000
00020000
00000000
00000000
00000000
01030000
00000000
,  // measure 58
00100000
10000000
00100000
00000000
01000000
00010000
01000000
00010000
00000000
00010000
20000000
00000000
00000000
00000000
30010000
00000000
,  // measure 59
00100000
00001000
00100000
00001000
00200000
00000000
00000000
00000000
00301000
00010000
00001000
00010000
00002000
00000000
00000000
00000000
,  // measure 60
00013000
00000000
00000100
00000010
00000000
00000010
00000001
00000000
00001000
00000000
00000010
00001000
00000000
00001000
00000001
00000000
,  // measure 61
00000010
00000100
00000010
00000000
00000001
00001000
00000001
00001000
00000000
00001000
00000020
00000000
00000000
00000000
00010030
00000000
,  // measure 62
00001000
00100000
00001000
00000000
00100000
00001000
00100000
00001000
00000000
00001000
00020000
00000000
00000000
00000000
00031000
00000000
,  // measure 63
00100000
00010000
10000000
00010000
00200000
00000000
00000000
00000000
00310000
10000000
00100000
10000000
00020000
00000000
00000000
00000000
,  // measure 64
10030000
00000000
00000000
00000000
00000000
00000000
00100000
00000000
00000000
00000000
00000000
00000000
01000000
00000000
00000000
00010000
00000000
00000000
00000000
00000000
00000000
00010000
00000000
00000000
20000000
00000000
00000000
00000000
00000000
00000000
30010000
00000000
01000000
00000000
00010000
00000000
01000000
00000000
00000000
00000000
00000000
00000000
00000000
00000000
00000000
00000000
00000000
00000000
;
