#TITLE:Sakuranbo;
#SUBTITLE:;
#ARTIST:Ai Otsuka;
#TITLETRANSLIT:;
#SUBTITLETRANSLIT:;
#ARTISTTRANSLIT:;
#GENRE:J-Rock;
#CREDIT:Ace Of Hearts;
#BANNER:Sakuranbo - bn.png;
#BACKGROUND:Sakuranbo - bg.png;
#LYRICSPATH:;
#CDTITLE:Ace Of Hearts.png;
#MUSIC:Sakuranbo.ogg;
#OFFSET:0.058;
#SAMPLESTART:52.840;
#SAMPLELENGTH:12.000;
#SELECTABLE:YES;
#BPMS:0.000=42.500,8.000=170.000;
#STOPS:;
#BGCHANGES:0.800=Sakuranbo Video.avi=1.000=1=0=0=StretchNoLoop==CrossFade==,
99999=-nosongbg-=1.000=0=0=0 // don't automatically add -songbackground-
;
#KEYSOUNDS:;

//---------------dance-single - Hard----------------
#NOTES:
     dance-single:
     Ace Of Hearts (2009):
     Hard:
     8:
     0.579,0.228,0.223,0.904,0.014:
0000
0000
0000
0000
,
0000
0000
0000
0000
0000
0000
0000
0000
0000
0000
0000
0000
0000
0000
0000
0000
0000
0000
0000
0000
0000
0000
0000
0000
0002
0000
1003
0010
1000
0001
0010
0000
,
0200
0300
1001
0000
1000
0100
0010
0200
,
0000
1300
0001
0010
0000
0001
1000
0020
,
0000
1030
0001
0100
0000
0001
1000
0010
,
0000
1000
0001
0010
0000
0100
1000
0001
,
0100
0000
0110
0000
0100
0001
1000
0100
,
0000
0010
0001
0000
0001
0100
0010
2000
,
0000
3100
0010
0011
0000
0001
1000
0100
,
0000
0000
2002
0000
3000
1000
1003
1000
,
0020
0000
0130
0002
0000
1003
0100
0010
,
0200
0000
0000
1300
0002
0000
0003
0100
,
0200
0000
0310
2000
0000
3001
0000
0200
,
0000
0000
0000
0010
0020
0000
0330
0000
,
2000
0000
3001
0020
0000
0032
0000
1003
,
0020
0000
1030
1000
0002
0000
0003
1000
,
0100
0010
0100
2000
0000
3001
0100
0010
,
1010
0110
0202
0303
,
0200
0000
0301
2000
0000
3100
0010
0001
,
0100
0001
0100
0001
1000
0010
0200
0000
,
0301
1000
0100
2000
0000
3001
0010
0002
,
0000
1000
2000
0000
0000
0000
3003
0000
,
0001
0000
0010
0000
0100
0000
2000
0000
0000
3000
2000
0000
0000
0000
3001
0000
,
0020
0030
0010
0200
0000
1300
0001
0100
,
0010
0100
0001
2000
0000
3100
0010
0001
,
1001
1010
0101
1001
,
1000
0100
1000
0100
2000
0000
3001
0100
,
0001
0020
0000
0000
0130
2000
0000
3001
,
0100
0001
0100
0002
0000
0013
0001
1000
,
1020
0000
0130
0000
0001
1000
0100
0010
,
0002
0000
0000
1003
0200
0000
0000
0310
,
0022
0000
0033
0000
0001
1000
0010
0100
,
0002
0000
0003
1000
,
0020
0000
0000
0130
0002
0000
0003
0000
,
2000
0000
0000
0000
3000
0100
0010
0001
,
0020
0000
0000
0130
2000
0000
3000
0000
,
0002
0000
0203
0000
0310
1000
0010
1000
,
0002
0000
0000
1003
0200
0000
0300
1000
,
0002
0000
2003
0000
3200
0000
0310
0001
,
1000
0010
0100
0001
0100
0010
1000
0001
,
0200
0000
0300
0001
,
0020
0000
0000
0031
2000
0000
3000
0000
,
0020
0000
0000
0000
0030
1000
0001
0100
,
0002
0000
0003
1000
0020
0000
0030
0000
,
2000
0000
3002
0000
0013
0001
1000
0010
,
0200
0320
2030
3002
,
0023
0000
0031
1000
0010
1000
0002
0000
,
0200
0000
0000
0000
,
0000
0000
0303
0000
,
0020
0000
0000
2030
0000
0000
3200
0000
,
0000
0320
0000
0000
0230
0000
0300
0000
,
1100
1000
0000
1001
0001
0000
0101
0100
,
0000
0110
0010
0000
1010
0000
1001
0000
,
1200
0000
0000
0300
0100
0000
1000
0000
0001
0000
1000
0000
0010
0000
0100
0000
,
0020
0000
0000
0000
1030
0100
0010
0001
,
2000
0000
3000
0100
,
0020
0000
0000
0031
2000
0000
3000
0000
,
0200
0000
0000
0000
0300
0010
0100
1000
,
0002
0000
0003
0100
0020
0000
0030
0000
,
2000
0000
3002
0000
0103
0010
1000
0001
,
2000
0000
0000
3001
0200
0000
0300
0001
,
2000
0000
3200
0000
0320
0000
0031
1000
,
0001
0010
0100
1000
0001
1000
0100
0010
,
0002
0000
0003
1000
,
0020
0000
0030
1000
0200
0000
0300
0000
,
0020
0000
0000
0000
0030
0001
1000
0100
,
0020
0000
0000
0031
2000
0000
3000
0000
,
0002
0000
0023
0000
0130
1000
0001
0100
,
0002
0000
0000
0000
0023
0000
0000
0000
0230
0000
0000
0000
2300
0000
0000
3000
,
1020
0000
0130
0001
1000
0100
1000
0000
,
2020
0000
0000
0000
,
3030
0000
0000
0000
1000
0001
0100
0010
,
0200
0000
0300
0001
,
0020
0000
0030
0100
2000
0000
3000
0000
,
0200
0000
0000
0000
0300
0010
0100
1000
,
0002
0000
0000
1003
0200
0000
0300
0000
,
0000
1100
0011
1100
,
0000
0101
1010
0101
,
0000
0001
0100
0001
1000
0100
0010
0001
,
0200
0000
0300
0000
0010
0100
0001
1000
,
0200
0000
0300
1000
,
0020
0000
0030
0100
0002
0000
0003
0000
,
2000
0000
0000
0000
3000
0100
1000
0100
,
0020
0000
0000
0031
0200
0000
0300
0000
,
0020
0000
2030
0000
3001
0100
0001
0010
,
0200
0000
0000
0000
0320
0000
0000
0000
0032
0000
0000
0000
2003
0000
0000
3000
,
1020
0000
0130
0001
1000
0001
0100
0000
,
0220
0000
0000
0000
,
0330
0000
0000
0000
0100
0001
1000
0020
,
0000
1030
0001
0100
0000
0001
1000
0100
,
0000
0010
0001
1000
0010
0100
0001
0010
,
0100
0000
0110
0000
0100
1000
0001
0100
,
0000
0001
0010
0000
0100
1000
0001
0020
,
0000
0130
1000
0001
0000
1000
0100
0110
;

//---------------dance-single - Medium----------------
#NOTES:
     dance-single:
     Ace Of Hearts (2009):
     Medium:
     6:
     0.390,0.131,0.125,0.647,0.007:
0000
0000
0000
0000
,
0000
0000
0000
0000
0000
0000
0000
0000
0000
0000
0000
0000
0001
1000
0010
1000
,
0001
2002
3003
0000
,
0000
0000
0000
0000
0000
0000
1000
0020
,
0000
1030
0001
1000
0000
0000
0000
1100
,
0000
0000
0000
0000
0000
0000
1000
0001
,
0000
0110
0000
0000
,
0000
0000
0000
0000
0000
1000
0000
0002
,
0000
1003
0100
1000
0000
0000
0000
2020
,
0000
0000
3030
0000
,
1000
0000
0001
0100
0000
0000
0001
0000
,
2000
0000
3100
0000
,
2000
0000
3001
0200
0000
0000
0301
0000
,
2000
0000
3000
0001
0020
0000
0030
0000
,
0002
0000
0000
2003
0000
0000
3001
0000
,
0002
0000
0023
0000
0130
0000
0000
0100
,
2000
0000
0000
3002
0000
0000
1003
0000
,
0010
1000
0001
0000
,
2000
0000
3001
0020
0000
0000
0031
0000
,
1000
0100
1000
0000
0001
0100
0001
0000
,
0200
0000
0000
0302
0000
0000
1003
0100
,
0000
0020
0000
0030
,
0001
1000
0001
0000
0200
0000
0310
0000
,
2000
0000
0000
3001
0000
0000
0001
0000
,
0020
0000
0000
0130
0000
0000
1000
0000
,
0010
0100
0100
0001
,
1000
0010
1000
0000
0001
0000
1000
0000
,
0100
0020
0000
0000
0031
0000
0000
0000
,
1000
0001
1000
0000
0010
0000
0100
0000
,
0002
1003
0002
0013
,
0200
0300
2000
3000
,
1001
0000
0000
0000
0001
0100
0001
0000
,
2000
0000
3000
0100
,
0020
0000
0130
0000
,
2000
0000
3000
0001
,
0200
0000
0310
0000
,
0100
0001
1000
0100
,
0020
0000
0130
0000
,
1000
0001
0100
0010
,
1000
0000
0001
0000
1000
0100
1000
0000
,
0002
0000
0003
0100
,
0020
0000
1030
0000
,
0200
0000
0300
1000
,
0002
0000
0103
0000
,
0020
0000
2030
0000
3001
0100
0001
0000
,
2000
3002
2003
3100
,
0010
0000
0001
1000
0001
0000
0010
0000
,
0200
0000
0000
0000
,
0000
0000
0300
0000
,
2200
0000
3300
0220
,
0000
0330
0022
0033
,
1001
0000
0000
1001
0000
0000
1001
0000
,
0000
0110
0000
0000
0110
0000
0000
0000
,
2000
0000
0000
3000
0001
0100
0001
0100
,
0020
0000
0030
0000
1000
0010
1000
0000
,
0002
0000
0003
1000
,
0020
0000
0130
0000
,
0002
0000
0003
1000
,
0020
0000
0130
0000
,
0002
2003
3200
0320
,
0032
0000
0103
0000
,
0010
0000
0100
0000
0001
0000
1000
0100
,
1000
0000
0001
0000
0100
0001
0100
0000
,
0002
0000
0003
1000
,
0020
0000
0130
0000
,
0002
0000
0003
1000
,
0200
0000
0310
0000
,
0002
0000
2003
0000
3001
0010
0001
0000
,
2000
3020
2030
3002
,
0103
0000
0010
1000
0010
0000
0200
0000
,
0002
0000
0000
0000
,
0303
0000
0000
0000
1000
0010
1000
0000
,
0002
0000
0003
1000
,
0020
0000
0130
0000
,
0002
0000
0003
0010
,
0200
0000
1300
0000
,
0000
0001
1001
1000
,
0000
1000
1001
0001
,
0000
1000
0100
0000
1000
0001
1000
0000
,
0200
0000
0300
0000
0010
0001
0010
0000
,
0002
0000
0003
0100
,
0020
0000
1030
0000
,
0002
0000
0003
1000
,
0200
0000
0310
0000
,
0002
0000
2003
0000
3010
0100
0010
0000
,
2000
3002
0203
0302
,
2003
0000
3001
0100
0001
0100
0010
0000
,
2000
0000
0000
0000
,
3000
0000
0000
0000
0001
0000
1000
0200
,
0000
1300
0001
1000
0000
0000
0000
1010
,
0000
0000
0000
0000
0010
0000
0000
1000
,
0100
0000
1100
0000
0000
1000
0000
0001
,
0000
0000
0000
0100
0001
0000
1000
0020
,
0000
1030
0001
0100
0000
0010
0000
0110
;

//---------------dance-single - Easy----------------
#NOTES:
     dance-single:
     Ace Of Hearts (2009):
     Easy:
     4:
     0.228,0.065,0.070,0.334,0.000:
0000
0000
0000
0000
,
0000
0000
0000
0000
0000
0000
0001
0001
,
0002
0003
0000
0000
,
0000
0000
0000
0000
,
1000
1000
1000
0000
,
0000
0000
0000
0000
,
0000
0110
0000
0000
,
0000
0000
0000
0000
,
0001
0001
0001
0000
,
2002
0000
3003
0000
,
1000
0000
1000
0000
,
0001
0000
0001
0000
,
0100
0000
0100
0000
,
0010
0000
0010
0000
,
1000
0000
1000
0000
,
0001
0001
0001
0000
,
1000
0000
1000
0000
,
0100
0100
0100
0000
,
0010
0000
0010
0000
,
0001
0001
0001
0000
,
1000
1000
1000
0000
,
0020
0000
0030
0000
,
0100
0100
0100
0000
,
0002
0000
0003
0000
,
2000
0000
3000
0000
,
0010
0010
0010
0000
,
0100
0100
0100
0000
,
0002
0000
0003
0000
,
1000
1000
1000
0000
,
0010
0010
0010
0000
,
2000
0000
0002
3003
,
1001
0000
1000
1000
,
2000
0000
3000
0010
,
0020
0000
0030
0000
,
2000
0000
3000
0001
,
0002
0000
0003
0000
,
1000
1000
1000
0000
,
0020
0000
0030
0000
,
0100
0100
0100
0000
,
0001
0000
0001
0001
,
0002
0000
0003
0010
,
0020
0000
0030
0000
,
0002
0000
0003
1000
,
2000
0000
3000
0000
,
0100
0100
0100
0000
,
0020
0000
0030
0000
,
0001
1000
0001
0000
,
0200
0000
0000
0000
,
0000
0000
0300
0000
,
2002
0000
0000
0000
,
0000
0000
3003
0000
,
0110
0000
0000
1001
,
0000
0000
0000
0000
,
2000
0000
0001
0001
,
3001
0000
0100
0100
,
0200
0000
0300
0010
,
0020
0000
0030
0000
,
2000
0000
3000
0001
,
0002
0000
0003
0000
,
0100
0100
0100
0000
,
0020
0000
0030
0000
,
1000
1000
1000
0000
,
0001
0000
0100
0100
,
0200
0000
0300
0010
,
0020
0000
0030
0000
,
2000
0000
3000
0100
,
0200
0000
0300
0000
,
0010
0010
0010
0000
,
0001
0001
0001
0000
,
1000
0001
1000
0000
,
0200
0000
0000
0000
,
0300
0000
1000
1000
,
2000
0000
3000
0001
,
0002
0000
0003
0000
,
0200
0000
0300
0010
,
0020
0000
0030
0000
,
0000
2020
0000
3030
,
0000
0202
0000
0303
,
0000
0000
0001
0001
,
0002
0003
1000
1000
,
2000
0000
3000
0010
,
0020
0000
0030
0000
,
0200
0000
0300
0001
,
0002
0000
0003
0000
,
1000
1000
1000
0000
,
0020
0000
0030
0000
,
1000
0010
1000
0000
,
0002
0000
0000
0000
,
0003
0000
0000
0000
,
0100
0100
0100
0000
,
0010
0000
0000
0000
,
0000
1001
0000
0000
,
1000
0000
0000
0000
,
0010
0000
0010
0000
0010
0000
0000
0110
;

//---------------dance-single - Novice----------------
#NOTES:
     dance-single:
     Ace Of Hearts (2009):
     Beginner:
     1:
     0.116,0.000,0.063,0.202,0.000:
0000
0000
0000
0000
,
0000
0000
0000
0000
,
0000
1001
0000
0000
,
0000
0000
0000
0000
,
2000
0000
3000
0000
,
0000
0000
0000
0000
,
0000
1001
0000
0000
,
0000
0000
0000
0000
,
0002
0000
0003
0000
,
1001
0000
0000
0000
,
1000
0000
0000
0000
,
1000
0000
0000
0000
,
0001
0000
0000
0000
,
0001
0000
0000
0000
,
0010
0000
0000
0000
,
0010
0000
0000
0000
,
0100
0000
0000
0000
,
0100
0000
0000
0000
,
1000
0000
0000
0000
,
1000
0000
0000
0000
,
0010
0000
0000
0000
,
0020
0000
0030
0000
,
1000
0000
0000
0000
,
1000
0000
0000
0000
,
0001
0000
0000
0000
,
0001
0000
0000
0000
,
1000
0000
1000
0000
,
1000
0000
0000
0000
,
0010
0000
0000
0000
,
0100
0000
0000
0000
,
0010
0000
0010
0000
,
0010
0000
0000
0000
,
2000
0000
0000
0000
,
3000
0000
0000
0000
,
0002
0000
0000
0000
,
0003
0000
0000
0000
,
0010
0000
0010
0000
,
0020
0000
0030
0000
,
0100
0000
0000
0000
,
0100
0000
0000
0000
,
2000
0000
0000
0000
,
3000
0000
0000
0000
,
0200
0000
0000
0000
,
0300
0000
0000
0000
,
0010
0000
0000
0000
,
0010
0000
0000
0000
,
0001
0000
0001
0000
,
0002
0000
0000
0000
,
0003
0000
0000
0000
,
2002
0000
0000
3003
,
0000
0000
0000
0000
,
0220
0000
0000
0330
,
0000
0000
0000
0000
,
0010
0000
0010
0000
,
0010
0000
0000
0000
,
2000
0000
0000
0000
,
3000
0000
0000
0000
,
0002
0000
0000
0000
,
0003
0000
0000
0000
,
0010
0000
0010
0000
,
0010
0000
0000
0000
,
0001
0000
0001
0000
,
0001
0000
0000
0000
,
0200
0000
0000
0000
,
0300
0000
0000
0000
,
0020
0000
0000
0000
,
0030
0000
0000
0000
,
1000
0000
0000
0000
,
1000
0000
0000
0000
,
0010
0000
0010
0000
,
0020
0000
0000
0000
,
0030
0000
0000
0000
,
2000
0000
0000
0000
,
3000
0000
0000
0000
,
0002
0000
0000
0000
,
0003
0000
0000
0000
,
0000
2002
0000
3003
,
0000
0220
0000
0330
,
0000
0000
0000
0000
,
1000
0000
0000
0000
,
0002
0000
0000
0000
,
0003
0000
0000
0000
,
0200
0000
0000
0000
,
0300
0000
0000
0000
,
0010
0000
0000
0000
,
0010
0000
0000
0000
,
1000
0000
1000
0000
,
2000
0000
0000
0000
,
3000
0000
0000
0000
,
0002
0000
0003
0000
,
0000
0000
0000
0000
,
0000
1001
0000
0000
,
0000
0000
0000
0000
,
2000
0000
0000
3000
0000
0000
0000
0110
;

//---------------dance-single - Expert----------------
#NOTES:
     dance-single:
     Ace Of Hearts (2011):
     Challenge:
     10:
     0.816,0.261,0.494,0.654,0.049: // measure 1
0000
0000
0000
0000
,  // measure 2
0000
0000
0000
0000
0000
0000
0000
0000
0000
0000
0000
0000
0000
0000
0000
0000
0000
0000
0000
0000
0000
0000
0000
0000
2000
0000
3001
0010
0100
0010
0002
0000
,  // measure 3
1003
0000
1010
0010
0100
0001
1000
0100
,  // measure 4
0000
0010
0100
1000
0001
0100
0010
1000
,  // measure 5
1002
0013
0100
1000
0001
0100
0010
1000
,  // measure 6
0100
0010
0001
1000
0010
0100
0001
1000
,  // measure 7
1200
0300
0110
0010
0001
1000
0010
0100
,  // measure 8
0010
1000
0001
0010
0100
1000
0001
0100
,  // measure 9
0102
1003
0100
0010
0001
0010
0100
1100
,  // measure 10
0000
2000
0000
0000
0000
0001
3001
0001
,  // measure 11
0100
0010
1000
0001
0010
0100
1000
0001
,  // measure 12
0100
0010
1000
0001
0010
0001
1000
0010
,  // measure 13
0100
0001
1000
0100
1000
0001
0100
0010
,  // measure 14
0100
0000
0001
0000
1000
0000
0100
0000
0020
0000
0100
0030
0100
0000
1000
0000
,  // measure 15
0001
0100
0010
2000
0000
3001
0010
0100
,  // measure 16
0010
0000
0001
0001
1000
0010
0100
0010
,  // measure 17
1000
0001
0010
0200
0000
1300
0001
0100
,  // measure 18
0110
0000
1010
0000
0101
0001
1001
1000
,  // measure 19
1200
0310
0001
1000
0010
0100
0010
1000
,  // measure 20
0001
0010
0100
1000
0001
0100
0010
1000
,  // measure 21
0010
0100
0001
1000
0100
0010
0001
1001
,  // measure 22
0000
1000
0020
1030
0001
0010
0100
1000
,  // measure 23
0001
0100
0010
0100
0001
1000
0100
0010
,  // measure 24
0011
0001
1000
0020
0000
0130
0001
1000
,  // measure 25
1100
0100
0010
0002
1003
0010
1000
0001
,  // measure 26
0101
0000
1010
0000
1001
0001
0101
0100
,  // measure 27
0120
1030
0001
0010
0100
0010
0001
1000
,  // measure 28
0010
0100
0010
1000
0001
0010
0100
1000
,  // measure 29
0001
0100
0010
0100
0001
1000
0100
0010
,  // measure 30
0120
0130
1200
1300
2001
3001
0100
0010
,  // measure 31
2000
0000
3001
0010
0210
1300
0001
1000
,  // measure 32
1200
0000
0300
0000
0010
0001
1000
0010
,  // measure 33
1000
0100
0001
0100
1000
0001
0100
0010
,  // measure 34
0001
0010
0100
0010
2000
0000
3001
0000
,  // measure 35
1000
0010
0001
0010
1000
0001
0010
0100
,  // measure 36
1000
0100
0001
0100
4000
0000
3001
0000
,  // measure 37
0020
0000
0032
0000
0013
0100
1000
0001
,  // measure 38
0200
0000
0010
0300
0010
0000
1000
0000
0002
0000
1000
0003
1000
0000
0010
0000
,  // measure 39
0200
0000
0302
0000
2003
0000
3010
0100
,  // measure 40
0001
0000
1000
0000
0100
0000
0010
0000
0100
0000
1000
0000
0001
0000
0010
0100
,  // measure 41
2000
3001
0100
1000
0100
0001
1000
0100
,  // measure 42
0010
1000
0010
0001
2000
0000
3010
0000
,  // measure 43
1000
0001
0010
0100
1000
0001
0100
0010
,  // measure 44
0001
0010
1000
0001
0020
0000
0031
0000
,  // measure 45
2000
0000
3020
0000
1030
0001
0010
0100
,  // measure 46
2200
3300
0220
0330
0022
0033
2002
3003
,  // measure 47
1020
0000
0130
0001
1001
1000
0100
0010
,  // measure 48
0012
0000
1003
1200
0000
0310
0011
0000
,  // measure 49
0001
0000
1001
2000
0000
3010
0110
0100
,  // measure 50
0102
0000
1003
1010
0010
1000
1002
0000
,  // measure 51
0013
0100
1100
1000
0002
0103
0110
0010
,  // measure 52
2010
3001
0010
0210
1300
0001
0201
0310
,  // measure 53
1000
1002
0013
0100
2100
0001
3001
0001
,  // measure 54
0201
0000
0310
1000
0100
0001
0100
1000
,  // measure 55
0020
0000
0000
0000
0130
0001
2001
3100
,  // measure 56
0010
0100
1000
0001
0100
0010
1000
0001
,  // measure 57
1000
0010
0001
0010
2000
0000
3001
0000
,  // measure 58
0010
0001
1000
0010
0001
0010
1000
0001
,  // measure 59
0010
0100
1000
0001
0400
0000
0310
0000
,  // measure 60
1000
0001
0010
0001
1000
0010
0100
0001
,  // measure 61
2000
0000
0100
3000
0100
0000
0010
0000
0002
0000
1000
0003
1000
0000
0010
0000
,  // measure 62
0100
0001
1000
0100
0010
0100
1000
0001
,  // measure 63
0100
0000
0010
0000
1000
0000
0001
0000
0010
0000
0001
0000
1000
0000
0001
0010
,  // measure 64
0200
1300
0001
0100
1000
0100
0001
1000
,  // measure 65
0100
0010
1000
0010
0002
0000
1003
0000
,  // measure 66
0010
1000
0001
0100
1000
0100
0001
1000
,  // measure 67
0001
0010
0100
1000
0004
0000
1003
0000
,  // measure 68
0020
0000
2030
0000
3001
0100
0001
1000
,  // measure 69
2200
3300
0022
0033
2002
3003
0202
0303
,  // measure 70
1020
0000
0130
0001
1000
0100
0010
0100
,  // measure 71
2000
0000
0000
0000
0001
0000
0001
0000
0010
0000
0010
0000
0001
3000
0001
0000
,  // measure 72
0010
0001
0010
0001
1000
0100
1000
0100
0010
0001
0010
0100
1000
0100
0010
0001
,  // measure 73
2000
3001
0100
0010
0001
0010
1000
0001
,  // measure 74
0010
0100
0010
1000
0020
0000
0130
0000
,  // measure 75
1000
0001
0100
1000
0100
0001
1000
0100
,  // measure 76
0010
0001
1000
0010
0400
0000
0300
0000
,  // measure 77
0000
0101
0111
0110
,  // measure 78
0000
1010
1110
1100
,  // measure 79
0000
0100
0010
0100
1000
0001
0100
0010
,  // measure 80
0200
0301
1000
0100
0010
0100
1000
0001
,  // measure 81
0200
0310
1000
0010
0001
0010
1000
0001
,  // measure 82
0010
0100
1000
0001
0200
0000
0310
0000
,  // measure 83
1000
0100
0001
0100
1000
0001
1000
0010
,  // measure 84
0100
0001
1000
0100
4000
0000
3001
0000
,  // measure 85
0200
0000
0320
0000
1030
0001
0010
0001
,  // measure 86
0202
0303
0220
0330
2020
3030
2002
3003
,  // measure 87
0021
0000
0130
1000
1001
0001
0010
0100
,  // measure 88
2200
3300
0110
0000
0010
0001
1000
0010
,  // measure 89
0100
0010
1000
0001
0010
0100
1000
0001
,  // measure 90
0201
0310
1000
0001
0010
0100
0010
0001
,  // measure 91
0000
1000
0010
0100
0010
1000
0001
0010
,  // measure 92
0210
0300
1100
1000
0001
0100
0010
1000
,  // measure 93
0001
0100
0010
0100
0001
1000
0100
0010
,  // measure 94
0012
1003
0100
0010
0100
1000
0001
0101
;
