#TITLE:Princess Bride;
#SUBTITLE:-Rock Mix-;
#ARTIST:Kotoko;
#TITLETRANSLIT:;
#SUBTITLETRANSLIT:;
#ARTISTTRANSLIT:;
#GENRE:J-Rock;
#CREDIT:Ace Of Hearts;
#BANNER:Princess Bride -Rock Mix- bn.png;
#BACKGROUND:Princess Bride -Rock Mix- bg.png;
#LYRICSPATH:;
#CDTITLE:Ace Of Hearts.png;
#MUSIC:Princess Bride -Rock Mix-.ogg;
#OFFSET:-0.280;
#SAMPLESTART:28.420;
#SAMPLELENGTH:12.000;
#SELECTABLE:YES;
#BPMS:0.000=170.000;
#STOPS:;
#BGCHANGES:;
#KEYSOUNDS:;

//---------------dance-single - Hard----------------
#NOTES:
     dance-single:
     Ace Of Hearts (2009):
     Hard:
     9:
     0.733,0.000,0.128,0.567,0.182: // measure 1
0000
0000
0000
0000
,  // measure 2
0000
0000
0000
0000
,  // measure 3
0000
0000
0000
0000
,  // measure 4
0000
0000
0000
0000
,  // measure 5
1001
0000
1000
0000
0010
0010
1000
0000
,  // measure 6
1100
0000
0000
0200
0000
0000
0310
0000
,  // measure 7
0011
0000
0001
0000
1000
1000
0010
0000
,  // measure 8
0110
0000
0000
0200
0000
0000
0301
0000
,  // measure 9
1001
1000
1100
0100
,  // measure 10
0110
0000
0000
0010
0000
0000
0001
0000
,  // measure 11
1001
0000
0000
1000
0000
0000
0200
0310
,  // measure 12
0000
0100
1000
0001
0100
0000
0110
0000
,  // measure 13
0010
0100
0001
1000
0100
0000
0100
1000
,  // measure 14
0000
1000
0010
0100
0001
1000
0400
0000
,  // measure 15
1300
0001
0100
0010
0100
0000
0100
0001
,  // measure 16
0000
0001
1000
0001
0100
0010
4000
0000
,  // measure 17
3001
0100
0010
0100
0001
0000
0001
1000
,  // measure 18
0000
1000
0010
0100
0001
1000
0040
0000
,  // measure 19
1030
0100
0010
0001
1000
0000
1000
0100
,  // measure 20
0000
0000
0100
0000
1000
0000
0010
0000
1000
0000
0001
0100
0001
0000
0100
0000
,  // measure 21
0010
0000
1000
0010
1000
0000
0001
0000
1000
0000
0100
0000
0010
0000
0100
0000
,  // measure 22
1000
0000
0001
0010
0001
0000
1000
0000
0010
0000
0100
0000
0001
0000
0000
0000
,  // measure 23
1000
0010
1000
0000
0001
0000
1000
0000
0010
0000
0010
0000
0010
0000
0010
0000
,  // measure 24
1000
0000
0001
0100
0001
0000
1000
0000
0100
0000
0010
0000
0001
0000
0000
0000
,  // measure 25
1000
0000
0010
0000
1000
0000
0001
0010
0001
0000
0010
0000
0100
0000
1000
0000
,  // measure 26
0001
0000
0100
0010
0100
0000
0001
0000
1000
0000
0100
0000
0010
0000
0000
0000
,  // measure 27
0100
0000
1000
0000
0001
0000
0100
0001
0200
0000
0000
0310
1000
0000
0001
0000
,  // measure 28
1000
0000
0001
0010
0001
0000
1000
0000
0040
4000
0000
0000
0000
0000
3030
0000
,  // measure 29
1000
0001
0010
0001
1000
0000
1000
0100
,  // measure 30
0000
0100
1000
0001
0100
0001
0040
0000
,  // measure 31
0130
1000
0001
0100
0010
0000
0010
0100
,  // measure 32
0000
0000
0100
0000
0001
0000
0100
0000
0010
0000
1000
0001
1000
0000
0010
0000
,  // measure 33
0100
0001
0100
0000
0020
0000
1030
0000
0001
0000
0010
0000
0100
0000
1000
0000
,  // measure 34
0001
0000
0100
0020
0000
1030
0000
0001
1000
0000
0010
0000
0010
0000
0000
0000
,  // measure 35
1000
0000
0001
0100
0001
0000
1000
0000
0100
0000
0010
0000
0100
0000
1000
0000
,  // measure 36
0001
0000
1000
0000
0010
1000
0010
0000
0100
0000
0001
0000
0001
0000
0000
0000
,  // measure 37
1000
0000
0001
0000
0100
0001
0100
0000
0010
0000
1000
0000
0100
0000
0010
0000
,  // measure 38
0001
0000
1000
0010
1000
0000
0001
0000
1000
0000
0100
0000
0100
0000
0000
0000
,  // measure 39
0010
0000
0001
1000
0001
0000
0100
0000
0010
0000
1000
0000
0001
0000
0010
0000
,  // measure 40
0100
1000
0100
0000
0010
0000
0001
0000
0101
0000
0000
0000
0000
0000
0000
0000
,  // measure 41
0100
0000
0010
1000
0010
0000
0100
0001
0100
0000
0001
0000
1000
0000
0010
0000
,  // measure 42
0100
0000
0001
0000
0000
0000
0400
0000
0000
0000
0300
0000
0000
0000
0010
1000
,  // measure 43
0020
0000
0000
0000
0000
0000
1030
0001
1000
0000
0001
0000
0100
0000
0001
0000
,  // measure 44
1000
0010
0000
0200
0000
0000
0300
0001
,  // measure 45
0010
0100
1000
0002
0000
0103
0010
0100
,  // measure 46
0001
0001
0000
2000
0000
3100
0010
0001
,  // measure 47
0020
0000
0400
0000
,  // measure 48
0330
0000
0000
0000
1000
0000
0000
0000
0002
0000
0000
1003
0200
0000
0000
0310
,  // measure 49
0002
1003
0020
0130
0002
0013
0000
0240
,  // measure 50
0000
0000
0000
0000
0000
0000
0330
0000
0000
0000
0000
0000
0000
0000
0010
0001
,  // measure 51
0020
0000
0030
0100
1000
0001
0100
0010
,  // measure 52
2000
0000
3000
0100
0010
0100
1000
0001
,  // measure 53
0200
1300
0200
0301
0200
1300
0200
0301
,  // measure 54
2000
0000
3100
0000
1000
0001
1000
0000
0020
0000
0130
0000
0000
0000
0001
0100
,  // measure 55
0002
0000
0003
1000
0100
0010
0100
1000
,  // measure 56
0020
0000
0030
0100
0002
1003
0200
1300
,  // measure 57
0020
0031
0020
1030
0020
0031
0020
1030
,  // measure 58
0002
0103
0002
1003
0002
0103
0001
1000
,  // measure 59
0020
0000
0030
0010
0100
0001
0100
0010
,  // measure 60
2000
0000
3000
0100
0010
0100
1000
0001
,  // measure 61
0200
1300
0200
0301
2000
3100
0002
0103
,  // measure 62
2000
0000
3010
0000
1000
0001
1000
0000
0020
0000
0130
0000
0000
0000
0001
0100
,  // measure 63
0002
0000
0003
1000
0010
1000
0001
0010
,  // measure 64
0200
0000
0310
0001
1000
0010
0100
0001
,  // measure 65
2000
0000
3100
0000
2000
0000
3010
0000
2000
0000
3100
0000
2000
0000
3001
0100
,  // measure 66
0001
1000
0002
0013
0220
0330
0000
0000
;

//---------------dance-single - Expert----------------
#NOTES:
     dance-single:
     Ace Of Hearts (2009):
     Challenge:
     11:
     0.931,0.000,0.460,0.931,0.588: // measure 1
0000
0000
0000
0000
,  // measure 2
0000
0000
0000
0000
,  // measure 3
0000
0000
0000
0000
,  // measure 4
0000
0000
0000
0000
,  // measure 5
1010
0000
0010
0000
0200
0301
1000
0000
,  // measure 6
1200
0000
0000
0020
0000
0000
0001
0330
,  // measure 7
0011
0000
0001
0000
2000
3010
0100
0000
,  // measure 8
0201
0000
0000
0020
0000
0000
1000
0330
,  // measure 9
1001
0002
0103
0010
,  // measure 10
0110
0000
0000
0010
0000
0000
1000
0000
,  // measure 11
2200
0000
0000
0010
0000
0000
0010
0001
,  // measure 12
3300
0001
1000
0010
1000
0100
0010
0000
,  // measure 13
0M01
0000
1000
001M
1M00
0000
0001
M000
0010
000M
0100
00M0
M010
0M00
0001
0000
,  // measure 14
10M0
0000
001M
M100
0010
0000
1M00
0000
00M1
0000
M001
0000
0M40
000M
0000
0000
,  // measure 15
M130
00M0
1000
0M01
1000
0000
M010
000M
1M00
00M0
0100
000M
M010
0000
0100
00M0
,  // measure 16
1000
0M00
0001
M100
00M1
0000
1M00
000M
0100
M000
01M0
0000
0040
0M00
000M
0000
,  // measure 17
M031
0000
1M00
001M
1000
0000
00M1
M000
0010
0M00
0001
00M0
1000
000M
0010
M000
,  // measure 18
0100
00M0
0001
1M00
0001
00M0
M100
000M
0010
0M00
0010
000M
4000
0M00
0000
00M0
,  // measure 19
3010
M000
0100
00M1
0100
000M
0010
0M00
1000
00M0
0001
M000
0010
0M00
0001
00M0
,  // measure 20
1000
000M
0010
1M00
0010
M000
010M
00M0
0001
1M00
0001
M100
00M1
0000
1000
010M
,  // measure 21
1000
0000
0001
0100
0001
0000
1000
0000
0010
0000
0100
0000
0001
0000
1000
0000
,  // measure 22
0100
0000
0010
0001
0010
0000
0100
0000
1000
0000
0001
0000
0010
0000
0000
0000
,  // measure 23
0100
0000
1000
0001
1000
0000
0100
0000
0001
0000
0100
0000
1000
0000
0001
0000
,  // measure 24
0100
0000
0010
1000
0010
0000
0100
0001
0100
0000
0010
0000
1000
0000
0000
0000
,  // measure 25
0001
0000
0010
0100
0010
0000
0001
0010
0001
0000
1000
0000
0010
0000
1000
0001
,  // measure 26
1000
0000
0010
1000
0010
0000
0100
0000
0001
0000
1000
0000
0100
0000
0000
0000
,  // measure 27
0010
0000
0100
1000
0100
0000
0010
0001
0010
0000
0100
0010
0100
0000
1000
0000
,  // measure 28
0001
0000
0100
0010
0100
0000
0001
1000
0001
0000
0100
0000
0010
0000
1000
0000
,  // measure 29
M001
0000
0010
010M
0010
0M00
0001
00M0
1000
000M
M010
0000
01M0
0000
001M
0000
,  // measure 30
1M00
0000
0001
M010
0001
00M0
1000
000M
0010
M000
0010
000M
4000
0M00
0000
00M0
,  // measure 31
3001
M000
0100
001M
0100
M000
0001
0M00
1000
00M0
0100
000M
M010
0000
010M
0000
,  // measure 32
1M00
0000
00M1
0100
M001
0000
1M00
0000
001M
0000
0100
0001
0100
0001
1000
0010
,  // measure 33
0100
0001
0100
0000
0020
0000
1030
0000
0001
0000
1000
0000
0001
0000
0100
0000
,  // measure 34
0010
0100
0001
0200
0000
0310
0000
1000
0001
0000
0200
0000
0310
0000
0000
0000
,  // measure 35
1000
0001
0010
0001
0010
1000
0010
0001
,  // measure 36
1000
0000
0010
0000
0100
0001
0100
0001
2000
0000
3100
0000
0010
0000
0000
0000
,  // measure 37
0001
0000
1000
0000
0001
0010
0001
0010
0200
0000
1300
0000
0001
0000
0100
0000
,  // measure 38
0010
0000
1000
0010
1000
0000
0001
0100
0002
0000
1003
0000
0100
0000
0000
0000
,  // measure 39
0010
0000
0100
1000
0100
0000
0010
0000
0001
0000
1000
0000
0010
0000
0100
0000
,  // measure 40
0001
0100
0001
0000
1000
0000
0100
0000
0220
0000
0000
0000
0001
0000
0330
0000
,  // measure 41
1000
0000
0001
0100
0001
0000
1000
0010
1000
0000
0100
0000
0010
0000
0001
0000
,  // measure 42
0102
0000
1000
0000
0000
0000
0400
0000
0000
0000
0303
0000
0000
0000
0010
1000
,  // measure 43
0020
0000
0000
0000
0030
0000
0100
0001
0100
0000
0010
0000
1000
0000
0100
0000
,  // measure 44
0120
0000
0002
0030
0000
0000
0200
0000
0000
0000
0000
0000
0303
0000
0001
0000
,  // measure 45
1001
0100
0010
0020
0000
0130
1000
0001
,  // measure 46
0101
0000
2000
0000
0000
3000
2020
0000
3030
0000
0100
0000
0001
0000
1000
0000
,  // measure 47
2100
0000
0000
3002
0200
0000
0000
0000
,  // measure 48
1010
0000
0303
0000
0001
0000
0000
0000
0021
0000
0030
0010
0200
0000
0300
0100
,  // measure 49
2000
3001
2000
3001
0200
0310
0000
2040
,  // measure 50
0000
0000
0000
0000
0000
0000
3030
0000
1000
0001
1000
0010
0100
0001
1000
0100
,  // measure 51
0020
0130
1000
0002
0203
0320
2030
3200
,  // measure 52
0320
0000
0130
0000
1000
0000
0002
0000
0203
0000
0320
0000
2030
0000
3002
0003
,  // measure 53
0011
0010
0110
0100
1100
1000
1001
0001
,  // measure 54
0101
0000
0100
0000
0010
1000
0001
0000
0101
0000
0100
0000
0000
0000
0010
1000
,  // measure 55
0002
1003
0010
2000
3200
2300
3002
0203
,  // measure 56
0320
0000
1030
0000
0001
0000
2000
0000
3020
0000
0230
0000
0302
0000
2003
3000
,  // measure 57
1100
0100
0110
0010
0011
0001
1001
1000
,  // measure 58
1010
0010
0110
0100
0101
0001
0011
0010
,  // measure 59
0210
1300
0001
0200
0320
0230
0302
0023
,  // measure 60
0230
0000
1300
0000
0001
0000
0200
0000
0320
0000
2030
0000
3002
0000
0203
0300
,  // measure 61
0110
0010
1010
1000
1100
0100
0110
0010
,  // measure 62
0011
0000
0001
0000
1000
0100
0010
0000
0011
0000
0001
0000
0000
0000
1000
0010
,  // measure 63
0200
0301
1000
0200
2300
3002
0203
0320
,  // measure 64
2030
0000
3001
0000
0020
0000
0230
0000
0320
0000
0032
0000
2003
0000
3020
0030
,  // measure 65
1010
0000
1000
0000
1100
0000
0100
0000
0110
0000
0010
0000
0011
0000
0001
0100
,  // measure 66
0010
1000
0020
0130
0202
0303
0000
0000
;

//---------------dance-single - Medium----------------
#NOTES:
     dance-single:
     Ace Of Hearts (2009):
     Medium:
     6:
     0.410,0.000,0.000,0.182,0.005: // measure 1
0000
0000
0000
0000
,  // measure 2
0000
0000
0000
0000
,  // measure 3
0000
0000
0000
0000
,  // measure 4
0000
0000
0000
0000
,  // measure 5
0000
0000
1000
0000
0001
1000
0001
0000
,  // measure 6
0100
0000
0000
0002
0000
0000
0013
0000
,  // measure 7
0000
0000
0001
0000
1000
0010
1000
0000
,  // measure 8
0001
0000
0000
0200
0000
0000
0310
0000
,  // measure 9
0000
1000
0100
0010
,  // measure 10
0001
0000
0000
1000
0000
0000
0001
0000
,  // measure 11
0010
0000
0000
0001
0000
0000
1000
0010
,  // measure 12
0000
0000
0000
0000
,  // measure 13
1000
0000
0100
0000
1000
0000
0001
0100
,  // measure 14
0000
0010
0000
0100
0004
0000
0003
0000
,  // measure 15
1000
0000
0100
0000
1000
0000
0001
0010
,  // measure 16
0000
0001
0000
1000
0400
0000
0300
0000
,  // measure 17
1000
0000
0001
0000
0100
0000
0001
1000
,  // measure 18
0000
0100
0000
1000
0040
0000
0030
0000
,  // measure 19
1000
0000
0001
0000
1000
0000
0100
0010
,  // measure 20
0000
0000
0100
0000
0000
0000
0000
0000
4000
0004
0000
0000
0000
3003
0000
0000
,  // measure 21
0001
0000
0100
0000
0010
1000
0010
0000
,  // measure 22
1000
0000
0001
0000
0010
0001
0010
0000
,  // measure 23
0001
0000
1000
0000
0010
1000
0010
0000
,  // measure 24
0100
0000
0001
0000
1000
0100
1000
0000
,  // measure 25
0001
0010
0001
0000
1000
0000
0010
0000
,  // measure 26
0100
0001
0100
0000
0010
0000
1000
0000
,  // measure 27
0001
0000
0100
0000
0010
1000
0010
0000
,  // measure 28
0100
0000
0001
0000
1000
0100
1000
0000
,  // measure 29
0001
0000
0010
0000
0001
0000
1000
0010
,  // measure 30
0000
0100
0000
0001
4000
0000
3000
0000
,  // measure 31
0100
0000
1000
0000
0001
0000
1000
0010
,  // measure 32
0000
1000
0000
0001
0040
0000
0030
0000
,  // measure 33
0001
0000
1000
0000
0001
0100
0001
0000
,  // measure 34
1000
0000
1000
0000
0010
1000
0010
0000
,  // measure 35
0100
0000
0001
0000
1000
0100
1000
0000
,  // measure 36
0001
0000
1000
0000
0010
1000
0010
0000
,  // measure 37
0100
0000
0001
0000
0010
0001
0010
0000
,  // measure 38
0001
1000
0010
1000
,  // measure 39
0001
0100
0001
0000
1000
0000
0100
0000
,  // measure 40
0010
0001
0010
0000
0100
0000
0000
0000
,  // measure 41
1000
0001
1000
0000
0010
1000
0010
0000
,  // measure 42
1000
0001
0000
0200
0000
0300
0000
0000
,  // measure 43
0020
0000
0030
0000
1000
0010
1000
0000
,  // measure 44
0001
0010
0000
0200
0000
0000
0300
0000
,  // measure 45
1000
0001
0000
0200
0000
0300
0000
0000
,  // measure 46
0010
1000
0000
0002
0000
0003
1000
0000
,  // measure 47
0020
0000
0200
0000
,  // measure 48
0330
0001
1000
0100
,  // measure 49
0010
0001
0010
0000
0100
1000
0000
0004
,  // measure 50
0000
0000
0000
0003
0000
0000
0000
1000
,  // measure 51
0020
0000
0030
1000
0001
0000
0100
0000
,  // measure 52
0020
0000
0030
0100
0001
0000
1000
0000
,  // measure 53
0100
0100
0010
0010
,  // measure 54
0001
0000
0001
0000
1000
0000
0000
0001
,  // measure 55
2000
0000
3000
0001
0010
0000
0100
0000
,  // measure 56
0020
0000
0030
0001
1000
0000
0100
0000
,  // measure 57
1000
1000
0010
0010
,  // measure 58
0100
0000
0100
0000
0001
0000
1000
0100
,  // measure 59
2000
0000
3000
0001
0100
0000
0010
0000
,  // measure 60
0200
0000
0300
0001
1000
0000
0100
0000
,  // measure 61
0010
0010
0100
0100
,  // measure 62
1000
0000
1000
0000
0001
0000
0000
1000
,  // measure 63
0020
0000
0030
1000
0001
0000
1000
0000
,  // measure 64
0200
0000
0300
1000
0001
0000
0100
0000
,  // measure 65
0010
0010
1000
1000
,  // measure 66
0001
0010
0001
1000
0100
0000
0000
0000
;

//---------------dance-single - Easy----------------
#NOTES:
     dance-single:
     Ace Of Hearts (2009):
     Easy:
     4:
     0.219,0.000,0.043,0.118,0.000: // measure 1
0000
0000
0000
0000
,  // measure 2
0000
0000
0000
0000
,  // measure 3
0000
0000
0000
0000
,  // measure 4
0000
0000
0000
0000
,  // measure 5
0000
1000
1000
1000
,  // measure 6
1000
0000
0000
2000
0000
0000
3010
0000
,  // measure 7
0000
0100
0100
0100
,  // measure 8
0100
0000
0000
0200
0000
0000
0301
0000
,  // measure 9
0000
1000
1000
1000
,  // measure 10
1000
0000
0000
1000
0000
0000
0100
0000
,  // measure 11
0100
0000
0000
0010
0000
0000
0000
1001
,  // measure 12
0000
0000
0000
0000
,  // measure 13
1000
1000
1000
0000
,  // measure 14
4000
0000
3000
0000
,  // measure 15
0001
0001
0001
0000
,  // measure 16
0004
0000
0003
0000
,  // measure 17
0010
0010
0010
0000
,  // measure 18
0040
0000
0030
0000
,  // measure 19
0100
0100
0100
0000
,  // measure 20
0400
0000
0300
0000
,  // measure 21
1000
1000
1000
0000
,  // measure 22
0001
0001
0001
0000
,  // measure 23
0100
0100
0200
0300
,  // measure 24
0001
0001
0001
0000
,  // measure 25
1000
1000
1000
0000
,  // measure 26
0100
0100
0100
0000
,  // measure 27
0010
0010
0010
0000
,  // measure 28
0001
0001
0001
0000
,  // measure 29
1000
1000
1000
0000
,  // measure 30
0004
0000
0003
0000
,  // measure 31
0100
0100
0100
0000
,  // measure 32
0040
0000
0030
0000
,  // measure 33
1000
1000
1000
0000
,  // measure 34
0001
0001
0002
0003
,  // measure 35
0100
0100
0100
0000
,  // measure 36
0010
0010
0010
0000
,  // measure 37
1000
1000
1000
0000
,  // measure 38
0001
0001
0001
0000
,  // measure 39
0100
0100
0100
0000
,  // measure 40
0010
0010
0010
0000
,  // measure 41
2002
0000
0000
0000
,  // measure 42
3003
0000
0000
0000
,  // measure 43
0220
0000
0000
0000
,  // measure 44
0330
0000
0000
0000
,  // measure 45
0100
0000
0100
0000
,  // measure 46
0010
0000
0010
0000
,  // measure 47
2002
0000
0000
0000
,  // measure 48
3003
0000
0000
0000
,  // measure 49
0001
0001
0001
0000
,  // measure 50
0020
0000
0030
0000
,  // measure 51
0010
0000
0100
0100
,  // measure 52
0100
0000
1000
0000
,  // measure 53
0400
0000
0000
0000
,  // measure 54
0000
0000
0300
0000
,  // measure 55
0010
0000
0001
0001
,  // measure 56
0001
0000
0010
0000
,  // measure 57
0040
0000
0000
0000
,  // measure 58
0000
0000
0030
0000
,  // measure 59
0100
0000
1000
1000
,  // measure 60
1000
0000
0001
0000
,  // measure 61
0004
0000
0000
0000
,  // measure 62
0000
0000
0003
0000
,  // measure 63
1000
0000
0010
0010
,  // measure 64
0010
0000
1000
0000
,  // measure 65
4000
0000
0000
0000
,  // measure 66
0000
0000
3000
0000
;

//---------------dance-single - Novice----------------
#NOTES:
     dance-single:
     Ace Of Hearts (2009):
     Beginner:
     2:
     0.112,0.000,0.021,0.150,0.000: // measure 1
0000
0000
0000
0000
,  // measure 2
0000
0000
0000
0000
,  // measure 3
0000
0000
0000
0000
,  // measure 4
0000
0000
0000
0000
,  // measure 5
0000
0002
0000
0000
,  // measure 6
0003
0000
0000
0000
,  // measure 7
0000
2000
0000
0000
,  // measure 8
3000
0000
0000
0000
,  // measure 9
0000
0020
0000
0000
,  // measure 10
0030
0000
0000
0000
,  // measure 11
1000
0000
1000
0000
,  // measure 12
1000
0000
0000
0000
,  // measure 13
0002
0000
0003
0000
,  // measure 14
0004
0000
0003
0000
,  // measure 15
2000
0000
3000
0000
,  // measure 16
4000
0000
3000
0000
,  // measure 17
0020
0000
0030
0000
,  // measure 18
0040
0000
0030
0000
,  // measure 19
0200
0000
0300
0000
,  // measure 20
0400
0000
0300
0000
,  // measure 21
0001
0000
0000
0000
,  // measure 22
0001
0000
0000
0000
,  // measure 23
1000
0000
0000
0000
,  // measure 24
1000
0000
0000
0000
,  // measure 25
0010
0000
0000
0000
,  // measure 26
0010
0000
0000
0000
,  // measure 27
0100
0000
0000
0000
,  // measure 28
0100
0000
0000
0000
,  // measure 29
0002
0000
0003
0000
,  // measure 30
0004
0000
0003
0000
,  // measure 31
2000
0000
3000
0000
,  // measure 32
4000
0000
3000
0000
,  // measure 33
0010
0000
0000
0000
,  // measure 34
0010
0000
0000
0000
,  // measure 35
0100
0000
0000
0000
,  // measure 36
0100
0000
0000
0000
,  // measure 37
0001
0000
0000
0000
,  // measure 38
0001
0000
0000
0000
,  // measure 39
1000
0000
0000
0000
,  // measure 40
1000
0000
0000
0000
,  // measure 41
0100
0000
0100
0000
,  // measure 42
0200
0000
0300
0000
,  // measure 43
0010
0000
0010
0000
,  // measure 44
0020
0000
0030
0000
,  // measure 45
0001
0000
0000
0000
,  // measure 46
0001
0000
0000
0000
,  // measure 47
0002
0000
0000
0000
,  // measure 48
0003
0000
0000
0000
,  // measure 49
2002
0000
0000
0000
,  // measure 50
3003
0000
0000
0000
,  // measure 51
1000
0000
0000
0000
,  // measure 52
1000
0000
0000
0000
,  // measure 53
4000
0000
0000
0000
,  // measure 54
3000
0000
0000
0000
,  // measure 55
0001
0000
0000
0000
,  // measure 56
0001
0000
0000
0000
,  // measure 57
0004
0000
0000
0000
,  // measure 58
0003
0000
0000
0000
,  // measure 59
0010
0000
0000
0000
,  // measure 60
0010
0000
0000
0000
,  // measure 61
0040
0000
0000
0000
,  // measure 62
0030
0000
0000
0000
,  // measure 63
0100
0000
0000
0000
,  // measure 64
0100
0000
0000
0000
,  // measure 65
0400
0000
0000
0000
,  // measure 66
0300
0000
1001
0000
;
