#TITLE:Lollipop;
#SUBTITLE:;
#ARTIST:Mika;
#TITLETRANSLIT:;
#SUBTITLETRANSLIT:;
#ARTISTTRANSLIT:;
#GENRE:Pop;
#CREDIT:Ace Of Hearts;
#BANNER:Lollipop - bn.png;
#BACKGROUND:Lollipop - bg.jpg;
#LYRICSPATH:;
#CDTITLE:Ace Of Hearts.png;
#MUSIC:Lollipop.ogg;
#OFFSET:-0.280;
#SAMPLESTART:60.780;
#SAMPLELENGTH:12.000;
#SELECTABLE:YES;
#BPMS:0.000=191.960;
#STOPS:;
#BGCHANGES:-0.500=Lollipop Music Video (Cut).avi=1.000=0=0=1=====,
99999=-nosongbg-=1.000=0=0=0 // don't automatically add -songbackground-
;
#KEYSOUNDS:;

//---------------dance-single - Ace Of Hearts (2009)----------------
#NOTES:
     dance-single:
     Ace Of Hearts (2009):
     Hard:
     9:
     0.667,0.000,1.000,0.941,0.000:
0000
0000
0000
0000
,
0000
0000
0000
0000
,
0000
0000
0000
0000
,
0000
0000
0000
0000
,
0000
0000
0000
0000
,
0000
0000
0000
0000
,
0000
0000
0000
0000
,
0000
0000
0000
0000
,
0000
0000
0000
0000
0011
0001
0100
0000
,
0110
0000
0010
0100
0101
0001
0000
1001
,
0000
1000
0000
0000
1010
0000
0010
0100
,
0101
0000
1000
1200
0000
0000
0000
0300
,
0000
0000
0010
0000
0011
0001
0100
0000
,
0110
0000
0010
0100
0101
0001
0000
1001
,
0000
1000
0000
0000
1100
0000
0100
0010
,
0011
0001
0201
0000
,
0300
0000
0000
0000
0110
0010
1000
0000
,
2100
0000
3100
0010
0011
0002
0003
0101
,
0000
0020
0000
0030
2010
0000
3001
0010
,
0110
0000
0100
2100
0000
0000
0000
3000
,
0000
0000
0000
0000
1010
1000
0001
0000
,
0102
0000
0103
0010
1010
2000
3000
1100
,
0000
0020
0000
0030
0011
0000
0001
1000
,
1010
0000
0010
0210
0000
0000
0300
0000
,
0000
0000
0002
0003
0042
0000
0000
0000
,
0030
0000
2003
3000
2040
0000
0000
0000
,
3030
0000
2000
3000
1002
0000
0103
0010
,
1010
0000
1000
1200
0000
0000
0000
0000
,
0300
0000
2000
3000
2400
0000
0000
0000
,
0300
0000
3002
0003
0402
0000
0000
0000
,
0303
0000
0002
0003
0021
0000
0130
1000
,
1002
0000
0013
0200
0000
0000
0000
0300
,
1000
0002
0003
0011
0000
0010
0001
1000
,
0010
0010
0100
0000
0101
0000
0000
0000
,
0002
0000
0013
0110
0000
0100
1000
0000
,
1002
0103
0110
0000
,
0200
0000
0301
0010
0000
0100
1000
0000
,
0001
0100
0000
0220
0000
0000
0000
0330
,
0000
0000
0020
0030
2010
0000
3200
0310
,
0002
0000
1003
0400
0000
0300
0000
0000
,
0020
0000
0031
0101
0000
0100
0000
0010
,
2010
3001
0011
0000
,
0001
2000
3000
1020
0000
0130
0001
0010
,
0210
1300
1001
0000
,
1000
0010
0000
0120
0000
1030
0000
0000
,
0001
0100
0000
0000
0140
0000
0000
0030
,
0000
0000
2010
3000
1002
0000
0013
0000
,
0210
0000
1300
0002
0000
0003
0000
0000
,
0101
0100
0000
0000
0110
0010
1000
0000
,
1200
0000
1300
0001
0101
0200
0300
0110
,
0000
2000
0000
3000
1002
0000
0013
0100
,
1100
0000
1000
1020
0000
0000
0030
0000
,
0000
0000
0000
0000
0101
0100
0010
0000
,
2010
0000
3010
0100
0101
0002
0003
0011
,
0000
0020
0030
0000
0210
0000
1300
0001
,
0100
0000
0100
0120
0000
0000
0000
0000
,
0030
0000
2000
3000
2400
0000
0000
0000
,
0300
0000
3002
0003
0402
0000
0000
0000
,
0303
0000
1000
0000
1020
0000
0130
0001
,
0011
0000
0010
0210
0000
0000
0000
0000
,
0300
0000
0020
0030
0042
0000
0000
0000
,
0030
0000
2003
3000
2040
0000
0000
0000
,
3030
0000
0020
0030
0210
0000
0301
0010
,
0210
0000
1300
0002
0000
0000
0003
0000
,
1000
2000
3000
1001
0000
0001
0000
0100
,
0020
1030
1100
0000
,
0100
0010
0000
0012
0000
0013
0100
1000
,
1001
0001
0101
0000
,
0110
0000
0010
1010
0000
1000
0000
0000
,
1100
0020
0030
0022
0000
0000
0033
0000
,
0000
0000
1001
0000
1010
2000
0000
3001
,
0012
0200
1000
0303
,
0020
0000
1030
1100
0000
0100
0000
0010
,
0012
0103
0110
0000
,
0100
0010
0000
1010
0000
1000
0000
0100
,
0110
0010
0011
0000
,
0001
1000
0000
1010
0000
0000
0000
0020
,
1030
0000
0100
0000
0220
0000
0000
0330
,
0000
0000
0020
0030
0011
0000
0002
0003
,
1001
0000
1000
0200
0000
0000
0300
0000
,
0110
0010
0000
0000
0011
0001
1000
0000
,
1020
0000
1030
0001
0011
0020
0030
0110
,
0000
0200
0000
0300
1100
0000
1000
0001
,
0100
0000
0100
0120
0000
0000
0030
0000
,
0000
0000
0000
0000
1010
1000
0001
0000
,
0021
0000
0031
1000
1010
0020
0030
0110
,
0000
0200
0000
0300
0102
0000
1003
0100
,
0110
0000
0010
0002
0000
0000
0000
0000
,
0003
0000
2000
3000
4020
0000
0000
0000
,
3000
0000
0230
0300
0204
0000
0000
0000
,
0303
0000
0001
0000
0021
0000
0130
1000
,
1001
0000
0001
0201
0000
0000
0300
0000
,
0000
0000
0002
0003
0024
0000
0000
0000
,
0003
0000
0230
0300
4200
0000
0000
0000
,
3300
0000
2000
3000
1002
0000
0103
0010
,
2010
0000
3001
0201
0000
0000
0300
0000
,
0000
0010
1000
0002
0000
1003
0100
0010
,
0100
0100
1000
0000
0001
0000
0000
0100
,
0000
0010
0000
2000
0000
3100
0010
0000
,
0200
0000
1300
0000
0001
0000
0000
0100
,
0000
0010
0000
1000
0000
0001
0010
0000
,
0001
1000
1010
0000
,
0000
0000
0010
0000
0100
0000
0001
1000
,
0100
0010
0100
0000
,
1100
1000
0000
0000
1001
0001
0100
0000
,
0120
0000
0130
0001
1001
2000
3000
1100
,
0000
0200
0300
0000
0120
0000
0031
1000
,
1020
0000
0130
0102
0000
0000
0003
0000
,
0000
0000
0000
0000
0011
0010
0100
0000
,
2100
0000
3100
0010
0011
0002
0003
0101
,
0000
0200
0000
0300
0120
0000
1030
0001
,
0011
0000
0001
0201
0000
0000
0300
0000
,
0000
0000
0020
0030
0024
0000
0000
0000
,
0003
0000
2030
3000
2400
0000
0000
0000
,
3300
0000
0200
0300
0120
0000
0031
1000
,
1010
0000
0010
0210
0000
0000
0000
0000
,
0300
0000
0200
0300
4200
0000
0000
0000
,
3000
0000
0302
0003
0042
0000
0000
0000
,
0033
0000
0020
0030
0210
0000
1300
0001
,
0101
0000
0100
0120
0000
0000
0030
0000
,
1000
1000
0000
1010
0000
0010
0000
0100
,
0001
1000
1010
0000
,
0010
0100
0000
0102
0000
1003
0100
0010
,
0011
0010
0110
0000
,
1100
0000
1000
1020
0000
0130
0000
0000
,
0002
2000
0000
0000
0010
0000
3003
0000
,
0000
0000
0101
0000
0110
0020
0000
1030
,
1010
2200
0001
3300
,
0000
0000
0022
0000
,
0033
0000
0220
0000
,
0330
0000
2200
0000
,
3300
0000
0000
0000
1000
0020
0030
0110
,
0000
0000
2020
0000
,
3030
0000
0220
0000
,
0330
0000
0202
0000
,
0303
0000
0000
0000
0001
0020
0030
0110
,
0000
0000
0000
0000
1100
1000
0001
0000
,
0201
0000
0301
1000
1100
0200
0300
0110
,
0000
0002
0003
0000
0201
0000
0310
1000
,
1100
0000
0100
0120
0000
0000
0030
0000
,
0000
0000
0011
0001
0101
0100
0010
0000
,
2010
0000
3010
0100
0101
0002
0003
0011
,
0000
0020
0030
0000
0210
0000
1300
0001
,
0011
0000
0020
0030
0110
2000
3000
1010
;

//---------------dance-single - Ace Of Hearts (2009)----------------
#NOTES:
     dance-single:
     Ace Of Hearts (2009):
     Medium:
     7:
     0.439,0.000,0.039,0.470,0.000:
0000
0000
0000
0000
,
0000
0000
0000
0000
,
0000
0000
0000
0000
,
0000
0000
0000
0000
,
0000
0000
0000
0000
,
0000
0000
0000
0000
,
0000
0000
0000
0000
,
0000
0000
0000
0000
,
0000
0000
0000
0000
0001
1000
0001
0000
,
1000
0000
0010
0000
1000
0001
0000
0100
,
0000
0010
0000
0000
1000
0000
0001
0100
,
0001
0000
1000
0200
0000
0000
0300
0000
,
0000
0000
0000
0000
1000
0001
1000
0000
,
0001
0000
0100
0000
0010
1000
0000
0001
,
0000
0010
0000
0000
0001
0000
1000
0010
,
1000
0001
0200
0000
,
0300
0000
0000
0000
0001
1000
0001
0000
,
1000
0000
0010
0000
1000
0001
0000
0010
,
0000
0001
0000
0000
1000
0000
0010
1000
,
0010
0000
1000
0002
0000
0000
0003
0000
,
0000
0000
0000
0000
0010
0001
0010
0000
,
0001
0000
1000
0000
0010
1000
0000
0001
,
0000
0100
0000
0000
0010
0000
1000
0001
,
1000
0000
0010
0200
0000
0000
0300
0000
,
0000
0020
4000
0000
,
3030
0002
0400
0000
,
0303
0000
0020
0000
1030
0000
0001
0010
,
0001
0000
1000
0200
0000
0000
0300
0000
,
0000
2000
0040
0000
,
3030
0200
0004
0000
,
0303
0000
2000
0000
3001
0000
0100
0001
,
0100
0000
0010
0200
0000
0000
0300
0000
,
0001
1000
0000
0001
0000
1000
0010
0000
,
1000
0001
0010
0000
0001
0000
0000
0000
,
1000
0000
0010
1000
0000
0001
0010
0000
,
0002
1003
0010
0000
,
1000
0000
0001
0100
0000
0010
1000
0000
,
0001
1000
0000
0020
0000
0000
0030
0000
,
0000
0000
1000
0000
0001
0000
1000
0100
,
1000
0000
0001
0200
0000
0300
0000
0000
,
0002
0000
1003
0010
0000
1000
0000
0001
,
0100
0001
0010
0000
,
0001
1000
0000
0020
0000
1030
0001
0000
,
1000
0001
0100
0000
,
0010
1000
0000
0002
0000
0013
0000
0000
,
0001
1000
0000
0000
0020
0000
0000
0030
,
0000
2000
3010
1000
,
0001
0000
1000
0200
0000
0300
0000
0000
,
0000
0000
0000
0000
1000
0001
1000
0000
,
0100
0000
1000
0000
0010
1000
0000
0001
,
0000
0010
0000
0000
0001
0000
1000
0010
,
1000
0000
0001
0200
0000
0000
0300
0000
,
0000
0000
0000
0000
0010
1000
0010
0000
,
1000
0000
0001
0000
0010
0001
0000
1000
,
0000
0010
0000
0000
1000
0000
0001
0100
,
0001
0000
1000
0200
0000
0000
0300
0000
,
0000
2000
0040
0000
,
3030
0200
0004
0000
,
0303
0000
2000
0000
3100
0000
1000
0001
,
1000
0000
0010
0200
0000
0000
0300
0000
,
0000
0002
0040
0000
,
0033
0200
4000
0000
,
3300
0000
0002
0000
0103
0000
0010
1000
,
0010
0000
1000
0002
0000
0000
0003
0000
,
1000
0100
0000
1000
0000
0001
0000
0100
,
0010
0100
0001
0000
,
1000
0100
0000
2000
0000
3001
0010
0000
,
0001
1000
0010
0000
,
1000
0000
0001
0020
0000
0031
0000
0000
,
1000
0100
0000
0020
0000
0000
0030
0000
,
0000
0000
0001
0000
0100
0010
0000
0100
,
0001
1000
0200
0300
,
2000
0000
3001
0010
0000
0001
0000
1000
,
0010
0100
0001
0000
,
1000
0200
0000
1300
0000
0001
0000
1000
,
0010
1000
0100
0000
,
1000
0001
0000
0100
0000
0000
0000
0001
,
0010
0001
2000
3000
,
0000
0001
0010
0100
,
1000
0000
0001
0200
0000
0300
0000
0000
,
0000
0000
0000
0000
0010
0100
0010
0000
,
1000
0000
0001
0000
1000
0020
0000
1030
,
0000
0001
0000
0000
0010
0000
0001
1000
,
0001
0000
1000
0200
0000
0000
0300
0000
,
0000
0000
0000
0000
1000
0001
1000
0000
,
0010
0000
1000
0000
0001
0200
0000
0310
,
0000
0100
0000
0000
0002
0000
1003
0100
,
1000
0000
0001
0200
0000
0000
0300
0000
,
0000
0020
0400
0000
,
0330
0002
4000
0000
,
3003
0000
0020
0000
1030
0000
0001
0100
,
0001
0000
1000
0200
0000
0000
0300
0000
,
0000
2000
0040
0000
,
3030
0200
0004
0000
,
0303
0000
2000
0000
3001
0000
0100
0001
,
0100
0000
0010
0200
0000
0000
0300
0000
,
0000
0001
1000
0001
0000
0000
1000
0000
,
0010
1000
0010
0000
0100
0000
0000
0001
,
0000
1000
0000
0100
0000
0010
0100
0000
,
1000
0000
1000
0000
0001
0000
0000
0100
,
0000
0010
0000
0100
0000
0001
1000
0000
,
0100
0010
0001
0000
,
0000
0000
1000
0000
0010
0000
1000
0001
,
1000
0010
0100
0000
,
0000
0000
0000
0000
0001
0100
0001
0000
,
1000
0000
0010
0000
1000
0002
0000
0013
,
0000
0100
0000
0000
1000
0000
0001
0100
,
0001
0000
1000
0020
0000
0000
0030
0000
,
0000
0000
0000
0000
1000
0010
1000
0000
,
0001
0000
0010
0000
0001
2000
0000
3010
,
0000
1000
0000
0000
0001
0000
0010
0100
,
0010
0000
0001
2000
0000
0000
3000
0000
,
0000
0002
0400
0000
,
0303
0020
4000
0000
,
3030
0000
0002
0000
1003
0000
0100
1000
,
0100
0000
0010
0002
0000
0000
0003
0000
,
0000
2000
0040
0000
,
3030
0200
0004
0000
,
0303
0000
2000
0000
3010
0000
1000
0001
,
1000
0000
0010
0200
0000
0000
0300
0000
,
0001
1000
0000
0100
0000
1000
0000
0001
,
0100
0010
1000
0000
,
0010
0100
0000
0020
0000
1030
0001
0000
,
1000
0100
0010
0000
,
0001
0000
1000
0010
0000
0010
0000
0000
,
1000
0100
0000
0000
0110
0000
0000
0000
,
0000
0000
0010
0000
0001
1000
0000
0010
,
1000
0001
0200
0300
,
0000
0000
2002
0000
,
3003
0000
0220
0000
,
0330
0000
2002
0000
,
3003
0000
0000
0000
1000
0020
0000
0130
,
0000
0000
0202
0000
,
0303
0000
0220
0000
,
0330
0000
2020
0000
,
3030
0000
0000
0000
1000
0002
0000
0103
,
0000
0000
0000
0000
0001
0010
0100
0000
,
1000
0000
0001
0000
1000
0020
0000
1030
,
0000
0001
0000
0000
1000
0000
0100
0010
,
0001
0000
0010
0200
0000
0000
0300
0000
,
0000
0000
0000
0000
1000
0010
0100
0000
,
0001
0000
1000
0000
0001
0020
0000
0130
,
0000
1000
0000
0000
0002
0000
0013
0100
,
1000
0000
0001
0000
1000
0200
0000
0310
;

//---------------dance-single - Ace Of Hearts (2009)----------------
#NOTES:
     dance-single:
     Ace Of Hearts (2009):
     Easy:
     4:
     0.265,0.000,0.006,0.266,0.000:
0000
0000
0000
0000
,
0000
0000
0000
0000
,
0000
0000
0000
0000
,
0000
0000
0000
0000
,
0000
0000
0000
0000
,
0000
0000
0000
0000
,
0000
0000
0000
0000
,
0000
0000
0000
0000
,
0000
0000
0001
0001
,
0001
0000
0010
0000
,
0010
0000
0100
0100
,
0100
0000
0100
0000
,
0000
0000
1000
1000
,
1000
0000
0001
0000
,
0001
0000
0100
0100
,
0100
0000
0200
0000
,
0300
0000
0010
0010
,
0010
0000
1000
0000
,
1000
0000
0001
0001
,
0001
0000
0200
0000
,
0300
0000
0001
0001
,
0001
0000
1000
0000
,
1000
0000
0100
0100
,
0100
0000
0020
0000
,
0030
0002
2000
0000
,
3003
0002
2000
0000
,
3003
0000
0010
0010
,
0010
0000
0100
0000
,
0000
0002
2000
0000
,
3003
0002
2000
0000
,
3003
0000
0100
0100
,
0100
0000
0010
0000
,
0001
0000
1000
1000
,
1000
0000
0010
0000
,
1000
0000
0001
0001
,
0001
0000
0010
0000
,
0001
0000
1000
0000
,
1000
0000
1000
0000
,
0000
0000
0100
0000
,
0100
0000
0100
0000
,
0010
0000
0010
0000
,
0001
0001
0001
0000
,
1000
0000
0010
0010
,
0010
0000
0100
0000
,
0001
0000
0001
0000
,
1000
0000
2000
0000
,
3000
0000
0001
0000
,
0001
0000
0001
0000
,
0000
0000
0100
0100
,
0100
0000
0010
0000
,
0010
0000
1000
1000
,
1000
0000
1000
0000
,
0000
0000
0001
0001
,
0001
0000
1000
0000
,
1000
0000
0100
0100
,
0100
0000
0100
0000
,
0000
0020
0200
0000
,
0330
0020
0200
0000
,
0330
0000
1000
1000
,
1000
0000
1000
0000
,
0000
0020
0200
0000
,
0330
0020
0200
0000
,
0330
0000
0001
0001
,
0001
0000
0100
0000
,
0010
0000
0010
0000
,
1000
1000
1000
0000
,
0001
0000
0001
0000
,
0010
0010
0010
0000
,
0001
0000
0001
0000
,
1000
0000
1000
0000
,
0000
0000
0100
0000
,
0100
0100
0100
0000
,
0010
0000
0010
0000
,
0001
0001
0001
0000
,
1000
0000
1000
0000
,
0010
0010
0010
0000
,
0100
0000
0100
0000
,
0001
0000
0001
0000
,
0000
0000
1000
0000
,
1000
0000
1000
0000
,
0000
0000
0100
0100
,
0100
0000
0010
0000
,
0010
0000
0001
0001
,
0001
0000
2000
0000
,
3000
0000
0001
0001
,
0001
0000
0010
0000
,
0010
0000
0100
0100
,
0100
0000
2000
0000
,
3000
0002
0200
0000
,
0303
0002
0200
0000
,
0303
0000
0010
0010
,
0010
0000
1000
0000
,
0000
0002
0200
0000
,
0303
0002
0200
0000
,
0303
0000
0010
0010
,
0010
0000
0100
0000
,
0000
0000
0001
0001
,
0001
0000
0100
0000
,
0100
0000
0010
0010
,
0010
0000
1000
0000
,
0001
0000
0001
0000
,
0100
0000
0100
0000
,
0000
0000
0010
0010
,
0010
0000
0100
0000
,
0000
0000
0001
0001
,
0001
0000
1000
0000
,
1000
0000
0010
0010
,
0010
0000
0200
0000
,
0300
0000
0010
0010
,
0010
0000
1000
0000
,
1000
0000
0100
0100
,
0100
0000
0020
0000
,
0030
0002
0020
0000
,
0033
0002
0020
0000
,
0033
0000
0001
0001
,
0001
0000
0200
0000
,
0300
0020
2000
0000
,
3030
0020
2000
0000
,
3030
0000
0001
0001
,
0001
0000
0010
0000
,
0001
0000
0001
0000
,
0100
0100
0100
0000
,
0010
0000
0010
0000
,
1000
1000
1000
0000
,
0001
0000
0001
0000
,
0000
0000
1001
0000
,
0000
0000
1000
0000
,
0100
0100
0100
0000
,
0000
0000
0020
0000
,
0030
0000
0200
0000
,
0300
0000
2000
0000
,
3000
0000
0000
0000
0001
0000
0000
0001
,
0000
0000
2000
0000
,
3000
0000
0200
0000
,
0300
0000
0020
0000
,
0030
0000
0000
0000
0001
0000
0000
0001
,
0000
0000
1000
1000
,
1000
0000
0010
0000
,
0010
0000
0100
0100
,
0100
0000
0002
0000
,
0003
0000
0010
0010
,
0010
0000
0100
0000
,
0100
0000
1000
1000
,
1000
0000
0000
0000
0010
0000
0000
0010
;

//---------------dance-single - Ace Of Hearts (2009)----------------
#NOTES:
     dance-single:
     Ace Of Hearts (2009):
     Beginner:
     2:
     0.175,0.000,0.089,0.210,0.000: // measure 1
0000
0000
0000
0000
,  // measure 2
0000
0000
0000
0000
,  // measure 3
0000
0000
0000
0000
,  // measure 4
0000
0000
0000
0000
,  // measure 5
0000
0000
0000
0000
,  // measure 6
0000
0000
0000
0000
,  // measure 7
0000
0000
0000
0000
,  // measure 8
0000
0000
0000
0000
,  // measure 9
0000
0000
0001
0000
,  // measure 10
0001
0000
0001
0000
,  // measure 11
0000
0000
0001
0000
,  // measure 12
0000
0000
0000
0000
,  // measure 13
0000
0000
1000
0000
,  // measure 14
1000
0000
1000
0000
,  // measure 15
0000
0000
1000
0000
,  // measure 16
0000
0000
0000
0000
,  // measure 17
0000
0000
0010
0000
,  // measure 18
0010
0000
0010
0000
,  // measure 19
0000
0000
0010
0000
,  // measure 20
0000
0000
0000
0000
,  // measure 21
0000
0000
0100
0000
,  // measure 22
0100
0000
0100
0000
,  // measure 23
0000
0000
0100
0000
,  // measure 24
0000
0000
0000
0000
,  // measure 25
0000
0000
0220
0000
,  // measure 26
0330
0000
2002
0000
,  // measure 27
3003
0000
0001
0000
,  // measure 28
0001
0000
0001
0000
,  // measure 29
0000
0000
2002
0000
,  // measure 30
3003
0000
0220
0000
,  // measure 31
0330
0000
0010
0000
,  // measure 32
0010
0000
0010
0000
,  // measure 33
0000
0000
1000
0000
,  // measure 34
1000
0000
1000
0000
,  // measure 35
0000
0000
0001
0000
,  // measure 36
0001
0000
0001
0000
,  // measure 37
0000
0000
0010
0000
,  // measure 38
0010
0000
0010
0000
,  // measure 39
0000
0000
0100
0000
,  // measure 40
0100
0000
0100
0000
,  // measure 41
0000
0000
0010
0000
,  // measure 42
0010
0000
0010
0000
,  // measure 43
0000
0000
0001
0000
,  // measure 44
0001
0000
0001
0000
,  // measure 45
0000
0000
1000
0000
,  // measure 46
0000
0000
1000
0000
,  // measure 47
0000
0000
0100
0000
,  // measure 48
0100
0000
0100
0000
,  // measure 49
0000
0000
0010
0000
,  // measure 50
0010
0000
0010
0000
,  // measure 51
0000
0000
0010
0000
,  // measure 52
0000
0000
0000
0000
,  // measure 53
0000
0000
0001
0000
,  // measure 54
0001
0000
0001
0000
,  // measure 55
0000
0000
0001
0000
,  // measure 56
0000
0000
0000
0000
,  // measure 57
0000
0000
2002
0000
,  // measure 58
3003
0000
0220
0000
,  // measure 59
0330
0000
0001
0000
,  // measure 60
0001
0000
0001
0000
,  // measure 61
0000
0000
2002
0000
,  // measure 62
3003
0000
0220
0000
,  // measure 63
0330
0000
1000
0000
,  // measure 64
1000
0000
1000
0000
,  // measure 65
0000
0000
0001
0000
,  // measure 66
0001
0000
0001
0000
,  // measure 67
0000
0000
1000
0000
,  // measure 68
1000
0000
1000
0000
,  // measure 69
0000
0000
0010
0000
,  // measure 70
0010
0000
0010
0000
,  // measure 71
0000
0000
0100
0000
,  // measure 72
0100
0000
0100
0000
,  // measure 73
0000
0000
0001
0000
,  // measure 74
0001
0000
0001
0000
,  // measure 75
0000
0000
0010
0000
,  // measure 76
0010
0000
0010
0000
,  // measure 77
0000
0000
0100
0000
,  // measure 78
0100
0000
0100
0000
,  // measure 79
0000
0000
1000
0000
,  // measure 80
1000
0000
1000
0000
,  // measure 81
0000
0000
0001
0000
,  // measure 82
0001
0000
0001
0000
,  // measure 83
0000
0000
0001
0000
,  // measure 84
0000
0000
0000
0000
,  // measure 85
0000
0000
0100
0000
,  // measure 86
0100
0000
0100
0000
,  // measure 87
0000
0000
0100
0000
,  // measure 88
0000
0000
0000
0000
,  // measure 89
0000
0000
0220
0000
,  // measure 90
0330
0000
2002
0000
,  // measure 91
3003
0000
0010
0000
,  // measure 92
0010
0000
0010
0000
,  // measure 93
0000
0000
0220
0000
,  // measure 94
0330
0000
2002
0000
,  // measure 95
3003
0000
0100
0000
,  // measure 96
0100
0000
0100
0000
,  // measure 97
0000
0000
0001
0000
,  // measure 98
0001
0000
0001
0000
,  // measure 99
0000
0000
0010
0000
,  // measure 100
0010
0000
0010
0000
,  // measure 101
0000
0000
0100
0000
,  // measure 102
0100
0000
0100
0000
,  // measure 103
0000
0000
1000
0000
,  // measure 104
1000
0000
1000
0000
,  // measure 105
0000
0000
0010
0000
,  // measure 106
0010
0000
0010
0000
,  // measure 107
0000
0000
0010
0000
,  // measure 108
0000
0000
0000
0000
,  // measure 109
0000
0000
1000
0000
,  // measure 110
1000
0000
1000
0000
,  // measure 111
0000
0000
1000
0000
,  // measure 112
0000
0000
0000
0000
,  // measure 113
0000
0000
2200
0000
,  // measure 114
3300
0000
0022
0000
,  // measure 115
0033
0000
0001
0000
,  // measure 116
0001
0000
0001
0000
,  // measure 117
0000
0000
0202
0000
,  // measure 118
0303
0000
2020
0000
,  // measure 119
3030
0000
1000
0000
,  // measure 120
1000
0000
1000
0000
,  // measure 121
0000
0000
0001
0000
,  // measure 122
0001
0000
0001
0000
,  // measure 123
0000
0000
0100
0000
,  // measure 124
0100
0000
0100
0000
,  // measure 125
0000
0000
0010
0000
,  // measure 126
0000
0000
0010
0000
,  // measure 127
0000
0000
0100
0000
,  // measure 128
0000
0000
0100
0000
,  // measure 129
0000
0000
0002
0000
,  // measure 130
0003
0000
2000
0000
,  // measure 131
3000
0000
0002
0000
,  // measure 132
0003
0000
0100
0000
,  // measure 133
0000
0000
0002
0000
,  // measure 134
0003
0000
2000
0000
,  // measure 135
3000
0000
0002
0000
,  // measure 136
0003
0000
0010
0000
,  // measure 137
0000
0000
0001
0000
,  // measure 138
0001
0000
0001
0000
,  // measure 139
0000
0000
0001
0000
,  // measure 140
0000
0000
0000
0000
,  // measure 141
0000
0000
1000
0000
,  // measure 142
1000
0000
1000
0000
,  // measure 143
0000
0000
0100
0000
,  // measure 144
0100
0000
0010
0000
;
