#TITLE:Let Me Be With You;
#SUBTITLE:;
#ARTIST:Round Table feat. Nino;
#TITLETRANSLIT:;
#SUBTITLETRANSLIT:;
#ARTISTTRANSLIT:;
#GENRE:J-Pop;
#CREDIT:Ace Of Hearts;
#BANNER:Let Me Be With You - bn.png;
#BACKGROUND:Let Me Be With You - bg.jpg;
#LYRICSPATH:;
#CDTITLE:Ace Of Hearts.png;
#MUSIC:Let Me Be With You.ogg;
#OFFSET:-1.120;
#SAMPLESTART:45.200;
#SAMPLELENGTH:12.000;
#SELECTABLE:YES;
#BPMS:0.000=132.200;
#STOPS:;
#BGCHANGES:-2.000=Let Me Be With You Video.avi=1.000=0=0=0=StretchNoLoop====,
99999=-nosongbg-=1.000=0=0=0 // don't automatically add -songbackground-
;
#KEYSOUNDS:;

//---------------dance-single - Medium----------------
#NOTES:
     dance-single:
     Ace Of Hearts (2008):
     Medium:
     5:
     0.395,0.313,0.021,0.904,0.000:
0000
0000
0000
1000
0200
0300
1000
0200
,
0300
0000
0000
0010
0002
0003
0010
0002
,
0003
0000
0000
1000
0020
0030
1000
0020
,
0030
2000
3002
2003
,
3002
0000
1003
0100
2000
3000
0100
2000
,
3000
0000
0000
0001
0200
0300
0001
0200
,
0300
0000
0000
0010
2000
3000
0010
2000
,
3000
2002
0000
3003
,
0000
0001
0200
0000
0000
0310
0000
0000
,
0000
0010
2000
0000
0000
3001
0000
0000
,
0000
0001
0020
0000
0000
0130
0000
1000
,
0000
0200
0000
0000
0300
0000
0000
0000
,
0000
0010
0002
0000
0000
1003
0000
0000
,
0000
1000
0020
0000
0000
0130
0000
0000
,
0000
0001
0200
0000
0000
0301
0000
1000
,
0000
0200
0000
0000
0000
0300
0000
0000
,
0000
0000
0220
0000
0330
0000
0000
0001
,
1000
0001
0000
1000
0000
0100
0000
1000
,
0000
0020
0000
0000
0030
0000
0000
1000
,
0001
2000
0000
0000
0000
3001
0000
0100
,
0000
0020
0000
0000
0030
0000
0000
0100
,
0001
0100
0000
0001
0000
1000
0000
0001
,
0000
0200
0000
0000
0300
0000
0000
0000
,
0000
0000
0001
0000
1000
0100
0000
0010
,
0000
0001
0000
1000
0020
0030
1000
0020
,
0030
0000
0000
0100
0002
0003
0100
0002
,
0003
0000
0000
1000
0200
0300
1000
0200
,
0300
0020
0230
0320
,
0230
0000
1300
0001
2000
3000
0001
2000
,
3000
0000
0000
0010
2000
3000
0010
2000
,
3000
0000
0000
0001
0020
0030
0001
0020
,
0030
0002
0203
0302
,
0203
0000
0310
1000
0020
0030
1000
0002
,
0003
0000
0000
1000
0020
0030
1000
0020
,
0030
0000
0000
0100
0002
0003
0100
0002
,
0003
2000
3020
2030
,
3002
0000
0013
0100
0020
0030
0100
0020
,
0030
0000
0000
0001
2000
3000
0001
2000
,
3000
0000
0000
0010
0200
0300
0010
0200
,
0300
0000
0010
1000
0010
0000
1000
0000
,
0001
0020
0000
0000
0000
0000
0000
0000
,
0000
0000
0000
0000
,
0030
0000
0000
0001
2000
3000
0001
1000
,
0000
0020
2030
3002
,
2003
0000
3010
0001
0020
0030
0001
0020
,
0030
0000
0000
0001
0200
0300
0001
0200
,
0300
0000
0000
0010
0200
0300
0010
0200
,
0300
0002
0203
0320
,
2030
3200
0000
0000
,
0300
0000
0000
0000
;

//---------------dance-single - Hard----------------
#NOTES:
     dance-single:
     Ace Of Hearts (2008):
     Hard:
     7:
     0.534,0.365,0.011,1.000,0.005: // measure 1
0000
0000
0000
0001
0200
0000
0310
2000
,  // measure 2
0000
3020
0000
0130
0002
0000
1003
0200
,  // measure 3
1300
0002
0000
0103
0020
0000
1030
0002
,  // measure 4
0000
0023
0000
0000
0032
0000
2003
0000
,  // measure 5
3020
0000
0130
0001
0200
0000
0310
2000
,  // measure 6
0000
3200
0000
0310
0002
0000
1003
0020
,  // measure 7
0130
0002
0000
1003
0200
0000
1300
0020
,  // measure 8
0000
0000
0030
0000
1000
0001
1000
0000
0010
0000
0000
0000
0100
0000
0001
0000
,  // measure 9
0100
0010
2000
3001
0010
0002
0000
0103
,  // measure 10
0000
0010
2000
3001
1000
0200
0000
0310
,  // measure 11
0000
0100
2000
0000
3001
0100
0000
0010
,  // measure 12
0000
0200
0302
0000
1003
0000
0200
0000
,  // measure 13
0310
0001
2000
3001
0100
0020
0000
0130
,  // measure 14
0000
0001
2000
3100
0010
0002
0000
0103
,  // measure 15
0000
0001
2000
0000
3010
0100
0000
0001
,  // measure 16
0000
2000
0000
0000
3000
0000
0000
0001
,  // measure 17
1000
0010
0200
0000
0000
0000
0300
0001
,  // measure 18
1000
0200
0000
0320
0000
0230
0000
2300
,  // measure 19
0000
3002
0000
0000
0000
0003
0000
1000
,  // measure 20
0100
0020
0000
0130
1000
0002
0000
1003
,  // measure 21
0010
0200
0000
0000
0000
0300
0000
0001
,  // measure 22
1000
0200
0000
1300
0000
0010
0000
0100
,  // measure 23
0000
0200
0000
0000
0000
0000
0000
0300
,  // measure 24
0000
0000
0002
1003
0100
0010
0000
0100
,  // measure 25
0000
2000
0000
3001
0200
0000
0310
2000
,  // measure 26
0000
3002
0000
0103
0020
0000
1030
0002
,  // measure 27
0013
0200
0000
0310
0002
0000
1003
0020
,  // measure 28
0000
2030
0000
0000
3002
0000
0203
0000
,  // measure 29
0320
0000
2030
3001
0200
0000
0301
2000
,  // measure 30
0000
3020
0000
1030
0002
0000
0013
0200
,  // measure 31
1300
0002
0000
1003
0200
0000
0310
0200
,  // measure 32
0000
2300
0000
0000
3020
0000
0230
0000
,  // measure 33
0302
0000
2003
3100
0020
0000
0130
2000
,  // measure 34
0000
3002
0000
0103
0020
0000
0130
0002
,  // measure 35
1003
0200
0000
0310
0002
0000
1003
0020
,  // measure 36
0000
2030
0000
0000
3200
0000
0320
0000
,  // measure 37
0032
0000
2003
3010
0200
0000
0301
2000
,  // measure 38
0000
3200
0000
0310
0200
0000
1300
0002
,  // measure 39
1003
0020
0000
1030
0200
0000
1300
0002
,  // measure 40
0000
0003
1000
0100
0010
0100
1000
0001
,  // measure 41
0100
0020
0000
0000
0000
0000
0000
0000
,  // measure 42
0030
0000
0000
1000
0200
0000
0310
0002
,  // measure 43
1003
0200
0000
0310
0200
0000
1300
0020
,  // measure 44
0000
0230
0000
0000
0302
0000
2003
0000
,  // measure 45
3200
0000
0310
0001
0200
0000
0301
2000
,  // measure 46
0000
3020
0000
0130
0002
0000
0013
0200
,  // measure 47
1300
0002
0000
1003
0020
0000
1030
0002
,  // measure 48
0003
1002
0000
0000
2003
0000
3020
0000
,  // measure 49
2030
0200
0000
0000
,  // measure 50
3300
0000
0000
0000
;

//---------------dance-single - Easy----------------
#NOTES:
     dance-single:
     Ace Of Hearts (2008):
     Easy:
     3:
     0.169,0.104,0.000,0.096,0.000:
0000
1000
0000
1000
,
0000
0001
0000
0001
,
0000
0100
0000
0100
,
0000
0010
0010
0010
,
0000
1000
0000
1000
,
0000
0100
0000
0100
,
0000
1000
0000
1000
,
0000
0020
0000
0030
,
0000
1000
1000
1000
,
0000
0001
0001
0001
,
0000
0100
0000
0100
,
0000
0200
0000
0300
,
0000
0001
0001
0001
,
0000
0100
0100
0100
,
0000
0010
0000
0010
,
0000
0020
0000
0030
,
0000
0000
0000
0000
,
0000
0001
0001
0001
,
0000
0200
0000
0300
,
0000
0010
0010
0010
,
0000
2000
0000
3000
,
0000
0100
0100
0100
,
0000
0020
0000
0030
,
0000
0001
0001
0001
,
0000
0100
0000
0100
,
0000
0010
0000
0010
,
0000
1000
0000
1000
,
0000
0001
0001
0001
,
0000
1000
0000
1000
,
0000
0010
0000
0010
,
0000
1000
0000
1000
,
0000
0100
0100
0100
,
0000
0010
0000
0010
,
0000
0001
0000
0001
,
0000
0100
0000
0100
,
0000
0001
0001
0001
,
0000
1000
0000
1000
,
0000
0100
0000
0100
,
0000
0010
0000
0010
,
0000
0100
0100
0100
,
0000
0020
0000
0000
,
0000
0030
0000
0000
,
0000
1000
0000
1000
,
0000
0001
0001
0001
,
0001
0002
0000
0003
,
0000
1000
0000
1000
,
0000
0010
0000
0010
,
0000
0100
0100
0100
,
0100
0200
0000
0000
,
0300
0000
0000
0000
;

//---------------dance-single - Blank----------------
#NOTES:
     dance-single:
     Ace Of Hearts (2008):
     Beginner:
     1:
     0.122,0.103,0.000,0.277,0.000:
0000
2000
0000
3000
,
0000
2000
0000
3000
,
0000
2000
0000
3000
,
0000
1000
0000
1000
,
0000
0002
0000
0003
,
0000
0002
0000
0003
,
0000
0002
0000
0003
,
0000
0000
0000
0000
,
0000
0100
0000
0000
,
0000
0100
0000
0000
,
0000
0200
0000
0000
,
0000
0300
0000
0000
,
0000
0010
0000
0000
,
0000
0010
0000
0000
,
0000
0020
0000
0000
,
0000
0030
0000
0000
,
0000
0000
0000
0000
,
0000
1000
0000
1000
,
0000
1000
0000
0000
,
0000
0001
0000
0001
,
0000
0001
0000
0000
,
0000
0100
0000
0100
,
0000
0100
0000
0000
,
0000
0020
0000
0030
,
0000
2000
0000
3000
,
0000
2000
0000
3000
,
0000
2000
0000
3000
,
0000
1000
0000
1000
,
0000
0020
0000
0030
,
0000
0020
0000
0030
,
0000
0020
0000
0030
,
0000
0010
0000
0010
,
0000
0200
0000
0300
,
0000
0200
0000
0300
,
0000
0200
0000
0300
,
0000
0100
0000
0100
,
0000
0002
0000
0003
,
0000
0002
0000
0003
,
0000
0002
0000
0003
,
0000
0010
0000
0010
,
0000
0020
0000
0000
,
0000
0030
0000
0000
,
0000
0200
0000
0300
,
0000
1000
0000
1000
,
0000
0002
0000
0003
,
0000
0002
0000
0003
,
0000
0002
0000
0003
,
0000
0100
0000
0100
,
0000
0100
0000
0000
;

//---------------dance-single - Expert----------------
#NOTES:
     dance-single:
     Ace Of Hearts (2008):
     Challenge:
     9:
     0.766,0.547,0.074,1.000,0.564:
0000
0000
0000
0000
0000
0000
0001
0000
0100
0020
0030
0010
1000
0000
0200
0000
,
0310
0001
2000
0000
0000
3001
0100
0000
0100
0020
0030
0010
1000
0000
0002
0000
,
1003
0100
1000
0001
0200
0000
0310
0000
1000
0200
0300
0100
0010
0000
0002
0000
,
1003
0100
0020
0000
0000
0000
0130
1000
0002
0000
1003
0000
0200
0000
0310
0100
,
2000
0000
3001
0000
0200
0000
0310
0000
1000
0002
0003
0001
0010
0000
0200
0000
,
1300
0001
0020
0000
0000
0130
1000
0000
0001
0200
0300
0100
0010
0000
2000
0000
,
3001
0100
0020
0000
0000
0130
0001
0000
1000
0200
0300
0100
0010
0000
0200
0000
,
1300
0000
0001
0000
1000
0010
1000
0010
1000
0000
0001
0100
0001
1000
0001
1000
,
0001
0100
0001
1000
0100
0000
0010
0000
0100
1000
0001
0000
0100
0000
0100
0000
,
0010
0000
1000
0001
0100
0000
0001
0000
1000
0100
0010
0000
0002
0000
1003
0000
,
1000
0000
0010
0000
0100
0000
0001
0010
0001
0000
1000
0000
0010
0000
0100
0000
,
0001
0010
0210
0000
1300
0000
2100
0000
,
3001
0000
0100
0000
0010
1000
0001
0000
0010
0000
0002
0000
0000
0000
1003
0010
,
0100
0000
0001
0000
1000
0100
0010
0000
0100
0000
2000
0000
0000
0000
3001
0100
,
0010
0000
1000
0000
0010
0100
0001
0000
1000
0000
0100
0000
0010
0000
0100
0000
,
1000
0000
0001
0000
0200
0000
0000
0000
0310
0000
0000
0000
1000
0001
1000
0000
,
0001
0010
0001
0010
0002
0000
0000
0000
0000
0000
0000
0000
0003
0000
1000
0000
,
0010
0200
0000
0301
0000
2000
0000
3100
,
0000
0020
0000
0000
0000
0030
0000
0001
,
1000
0200
0000
0310
0100
2000
0000
3010
,
0100
0002
0000
0000
0000
0003
0000
1000
,
0100
0020
0000
0130
0000
2000
0000
3001
,
0000
0002
0000
0000
0000
0000
0000
0000
,
0003
0000
0200
0310
1000
1001
0000
0001
,
0000
0000
0100
0010
2000
0000
3001
0000
0100
0020
0030
0010
1000
0000
0002
0000
,
1003
0100
0020
0000
0000
0130
1000
0000
0001
0200
0300
0100
0010
0000
2000
0000
,
3001
0100
0020
0000
0000
1030
0100
0000
0010
0002
0003
0001
1000
0000
0020
0000
,
0130
0001
2000
0000
0000
0000
3001
0100
0002
0000
1003
0000
0200
0000
0310
0100
,
2000
0000
3001
0000
0200
0000
0310
0000
1000
0002
0003
0001
0100
0000
0020
0000
,
1030
0001
0200
0000
0000
0301
1000
0000
0100
0020
0030
0010
0100
0000
2000
0000
,
3001
0100
0020
0000
0000
1030
0001
0000
0100
0020
0030
0010
0100
0000
0002
0000
,
1003
0100
0020
0000
0000
0000
0031
1000
0200
0000
0310
0000
0002
0000
1003
0010
,
0200
0000
0310
0000
2000
0000
3001
0000
0010
0002
0003
0001
1000
0000
0020
0000
,
0130
0001
2000
0000
0000
3001
0100
0000
0100
0020
0030
0010
1000
0000
0002
0000
,
0013
0001
2000
0000
0000
3100
0010
0000
0010
0002
0003
0001
0100
0000
0020
0000
,
1030
0001
0020
0000
0000
0000
0031
1000
0020
0000
0130
0000
0002
0000
1003
0100
,
0020
0000
0130
0000
2000
0000
3001
0000
0100
0020
0030
0010
1000
0000
0002
0000
,
1003
0100
0020
0000
0000
0031
1000
0000
1000
0020
0030
0010
1000
0000
0002
0000
,
0013
0001
2000
0000
0000
3010
0100
0000
0100
0002
0003
0001
0010
0000
0200
0000
,
1300
0001
0100
0010
1000
0001
1000
0001
,
0100
0040
0000
0000
0000
0000
0000
0000
,
0000
0000
0000
0000
,
0000
0000
0000
0000
0030
0000
1000
0000
0001
0200
0300
0100
0010
0000
2000
0000
,
3001
0000
0021
0000
0000
0000
0031
0100
0020
0000
1030
0000
0002
0000
0013
0100
,
2000
0000
3001
0000
0200
0000
0310
0000
0100
0002
0003
0001
1000
0000
0200
0000
,
0310
0100
2000
0000
0000
3001
0010
0000
0001
0200
0300
0100
0010
0000
2000
0000
,
3100
0010
0001
0010
0200
0000
0310
0000
0001
2000
3000
1000
0010
0000
0200
0000
,
0300
0000
0120
0000
0000
0000
1030
0000
0002
0000
0000
0003
0021
0000
0000
0000
,
0230
1300
1002
0200
0000
0000
0000
0000
,
0303
0000
0000
0000
;
