#TITLE:Imagination;
#SUBTITLE:;
#ARTIST:SHK;
#TITLETRANSLIT:;
#SUBTITLETRANSLIT:;
#ARTISTTRANSLIT:;
#GENRE:;
#CREDIT:Ace Of Hearts;
#BANNER:Imagination - bn.png;
#BACKGROUND:Imagination - bg.jpg;
#LYRICSPATH:;
#CDTITLE:Ace Of Hearts.png;
#MUSIC:Imagination.ogg;
#OFFSET:-0.080;
#SAMPLESTART:44.100;
#SAMPLELENGTH:12.000;
#SELECTABLE:YES;
#BPMS:0.000=180.000;
#STOPS:;
#BGCHANGES:;
#KEYSOUNDS:;

//---------------dance-single - Expert----------------
#NOTES:
     dance-single:
     Ace Of Hearts (2009):
     Challenge:
     11:
     1.000,0.405,0.486,1.000,0.914:
0000
0000
0000
0000
,
0001
0000
0010
0000
0100
0000
1000
0000
0010
0000
0001
0000
0010
0000
1000
0001
,
0100
0000
0010
0000
1000
0000
0100
0000
0001
0000
0100
0000
1000
0000
0010
0100
,
0001
0000
1000
0000
0100
0000
0010
0000
1000
0000
0010
0000
0001
0000
1000
0010
,
0100
0000
0001
0000
1000
00M0
M000
000M
0M00
00M0
M000
000M
0M00
00M0
M000
0M00
,
0001
0010
0100
0000
1000
0000
0010
0100
0001
0000
1000
0000
0100
0010
0001
0000
,
0010
0100
1000
0000
0001
0000
0100
0010
1000
0000
0001
0000
0010
0100
1000
0000
,
0001
0100
0010
0000
0100
0000
0001
1000
0100
0000
0010
0000
0100
1000
0001
0000
,
0100
0010
1000
0000
0001
0000
1000
0010
0100
0000
0010
0000
1000
0001
0010
0000
,
0001
0100
0010
0000
0100
0000
0001
1000
0100
0000
0010
0000
0001
1000
0010
0000
,
0100
0001
1000
0000
0100
0000
0010
0001
0100
0000
0001
0000
1000
0100
0010
0000
,
0100
1000
0001
0000
0100
0000
0010
0100
0001
1000
0010
0100
0001
0010
0100
1000
,
0001
0100
0010
0000
0100
0000
0001
1000
0100
0000
0010
0000
0100
1000
0001
0010
,
M001
0000
01M0
0000
001M
0000
2M00
0000
30M1
0100
M010
0000
1M00
0000
01M0
0000
,
M010
0001
2M00
0000
301M
0000
M100
0001
1M00
0000
010M
0000
0M20
0000
M031
0100
,
0001
0000
1000
0010
0100
0010
1000
0001
0010
0100
0010
0000
0001
0000
0100
0010
,
1000
0001
0010
0100
0010
0001
1000
0010
0100
0010
1000
0001
0100
0010
1000
0001
,
0M20
0230
23M0
3002
M203
0320
2M30
3200
,
23M0
3002
M023
2030
302M
0032
02M3
2300
,
320M
0302
2M03
3020
M230
0302
0M23
2030
,
302M
0032
20M3
3020
M230
0302
2M03
3200
,
M320
0032
02M3
2300
320M
0302
2M03
3200
,
M320
2030
3M20
0032
20M3
3200
230M
3002
,
0023
0230
2300
3200
0320
0032
2003
3200
,
0320
0032
2003
3020
0230
0302
2003
3020
,
M230
0302
0M23
2030
30M2
0203
230M
3002
,
M203
0320
023M
0302
2M03
3200
032M
0032
,
02M3
2300
3M02
0023
203M
3200
M320
0032
,
02M3
0320
0M32
2003
320M
0302
2M03
3200
,
M320
2030
30M2
0203
230M
3002
M203
0320
,
2M30
3002
M023
0230
23M0
3002
M203
0320
,
1030
0001
0100
0000
0010
0000
0100
0001
0000
0001
0100
0000
0010
0000
1000
0100
,
0010
0001
0100
0010
1000
0100
1000
0010
0100
0001
1000
0010
1000
0001
0010
0100
,
2000
3001
0100
0010
1000
0001
0102
1003
,
1200
0000
0310
0000
0001
0000
0100
0000
0010
0000
1000
0000
0200
0000
0320
0030
,
0012
0000
1003
0000
0010
0000
0210
0000
0301
0000
2000
0000
3001
0100
1000
0100
,
0002
0013
0100
2100
3010
0100
0201
0310
,
1020
0000
0130
0000
0001
0000
1002
0000
0103
0000
0020
0000
2030
0000
3002
0003
,
0102
0000
0013
0000
0100
0000
1200
0000
0310
0000
0002
0000
0203
0000
0320
0030
,
1020
0000
0130
0000
0001
0000
0012
0000
1003
0000
0020
0000
0230
0000
0302
0003
,
0012
0103
0010
1020
0130
0001
1002
0013
,
0120
0031
1000
0010
0100
0001
0012
0103
,
0210
0000
0301
0000
1000
0000
0100
0000
0010
0000
0100
0000
2000
0000
3002
0003
,
0102
0000
1003
0000
0010
0000
0120
0000
1030
0000
0001
0000
1000
0010
0001
0010
,
2000
3100
0010
0021
0130
1000
2001
3010
,
0120
0000
1030
0000
0001
0000
0102
0000
0013
0000
0200
0000
2300
0000
3002
0003
,
0012
0000
0103
0000
0010
0000
1020
0000
0130
0000
0001
0000
2000
0000
3200
0300
,
0120
0032
0103
0210
0301
1000
2100
3001
,
0022
0000
0000
0000
0000
0000
0030
0000
1003
0010
0100
0001
1000
0100
0010
0001
,
1000
0010
0100
0001
0010
0100
1000
0001
0100
0010
0100
0001
1000
0100
0010
0100
,
1000
0001
0100
0010
0100
0001
1000
0100
0010
0001
1000
0001
0010
0100
0010
0001
,
1000
0010
0100
0000
0010
0000
1000
0100
0010
0100
1000
0000
0001
0100
0010
1000
,
0100
0000
0000
0010
0000
0000
0001
0000
0000
1000
0000
0000
0010
0000
0000
0100
0000
0000
0010
0000
0000
1000
0000
0000
0001
0000
0000
0010
0000
0000
0100
0000
0000
1000
0000
0000
0001
0000
0100
0000
0010
0000
1000
0000
0001
0000
1000
0000
,
0010
0100
0001
0000
1000
0000
0100
0010
0001
0000
1000
0000
0010
0100
0001
0000
,
0100
0010
1000
0000
0001
0000
0010
0100
1000
0000
0001
0000
1000
0010
0100
0000
,
0001
0100
0010
0000
1000
0000
0100
0010
0001
0000
0100
0000
0010
1000
0100
0000
,
0010
0001
1000
0000
0100
0000
0010
0001
0100
0000
0001
0000
0100
0010
1000
0000
,
0001
0100
1000
0000
0001
0000
1000
0100
0001
0000
1000
0000
0100
0010
0001
0000
,
1000
0010
0001
0000
1000
0000
0001
0010
1000
0000
0001
0000
0010
0100
1000
0000
,
0001
0100
0010
0000
1000
0000
0001
0010
0100
0010
0001
1000
0010
0100
0001
1000
,
0100
0010
0001
0000
0100
0000
0010
0100
0001
0000
0010
0000
0100
1000
0001
0010
,
000M
0000
0000
M0M0
0000
0000
0M00
0000
0000
000M
0000
0000
0M00
0000
0000
00M0
0000
0000
M000
0000
0000
0M0M
0000
0000
00M0
0000
0000
M000
000M
0000
0M00
0000
0000
00M0
0000
0000
M000
0000
0000
000M
0000
0000
0M00
0000
0000
M0M0
0000
0000
,
0041
010M
1M00
M001
,
013M
4000
0M01
0000
001M
0000
01M0
0000
,
3M04
0000
M100
0000
0M10
0000
10M0
0003
,
0010
0400
10M0
0000
M001
0000
100M
0000
,
M340
0M01
100M
M100
,
0M34
10M0
M100
0M10
,
04M3
0000
0000
0000
001M
0000
0300
0000
0001
1000
0100
0010
0100
1000
0001
0100
,
0020
2030
3200
0302
0023
2030
3200
0302
,
0023
1030
0100
1000
0001
0100
0020
1030
,
2100
0000
3001
0000
0100
0000
0010
0000
1000
0000
0100
0000
0020
0000
0032
0003
,
0102
0000
1003
0000
0100
0000
0210
0000
1300
0000
0002
0000
1003
0010
0001
0010
,
2000
3100
0010
0021
0130
1000
2010
3001
,
0012
0000
0103
0000
0010
0000
1020
0000
0130
0000
0002
0000
0023
0000
0230
0300
,
1200
0000
0310
0000
0001
0000
1002
0000
0103
0000
0020
0000
0230
0000
0302
0003
,
0012
0000
1003
0000
0010
0000
0120
0000
1030
0000
0200
0000
2300
0000
3002
0003
,
0102
0013
0100
1200
0310
0001
0102
1003
,
2020
0000
3030
2002
,
0010
0000
0000
0000
3003
0000
0002
1003
,
2200
0000
0000
0000
0000
0000
0001
0000
3300
0000
1000
0000
0001
0100
0010
0200
,
0002
0000
0000
1000
0303
0000
2200
3300
,
0022
0000
0000
1000
0033
0001
1000
0100
,
0220
0000
0000
0001
0330
0100
1000
0002
,
0020
0000
0000
1000
0000
0033
2000
3000
,
0001
1000
0010
0100
0010
1000
0001
0010
0100
0010
0001
1000
0010
0100
0001
1000
,
0100
0010
0001
0000
0100
0000
0010
0100
0001
0000
1000
0000
0100
0010
0001
0000
,
1000
0001
0100
0000
0010
0000
0100
0001
1000
0000
0100
0000
1000
0001
0100
0000
,
0010
0100
0001
0000
1000
0000
0100
0010
0001
0000
0010
0000
0100
1000
0001
0000
,
1000
0010
0100
0000
0001
0000
0100
0001
0010
0000
0100
0000
1000
0001
0100
0000
,
0010
0100
0001
0000
1000
0000
0100
0010
0001
0000
1000
0000
0001
0100
0010
0000
,
0100
0001
1000
0000
0100
0000
0010
0100
1000
0000
0001
0000
0100
0010
1000
0000
,
0001
0100
0010
1000
0001
1000
0100
0010
0100
1000
0001
0100
0010
0100
0001
1000
,
0100
0010
0001
1000
0010
0100
0001
1000
0010
1000
0001
0100
0010
0100
0001
2000
,
0200
0000
3300
0000
;

//---------------dance-single - Hard----------------
#NOTES:
     dance-single:
     Ace Of Hearts (2009):
     Hard:
     9:
     0.891,0.090,0.152,0.971,0.143: // measure 1
0000
0000
0000
0000
,  // measure 2
0004
4000
0000
0000
0000
0000
0000
0000
0000
0000
0000
0000
0000
0000
0000
0000
,  // measure 3
0000
0000
0000
0000
,  // measure 4
0000
0000
0000
0000
,  // measure 5
3003
0000
0000
0000
,  // measure 6
0001
0010
0100
0010
0001
1000
0010
1000
,  // measure 7
0001
0010
0100
1000
0001
0100
0010
0100
,  // measure 8
0001
1000
0100
0010
0100
1000
0001
0010
,  // measure 9
0001
0100
0010
1000
0001
0010
0001
0100
,  // measure 10
0010
1000
0001
0010
0100
1000
0001
0100
,  // measure 11
0010
1000
0001
1000
0100
0010
0001
1000
,  // measure 12
0010
0000
0100
0000
0001
0000
0010
0000
0400
4000
0000
0000
0000
0000
3300
0000
,  // measure 13
1000
0001
1000
0000
0100
0000
0010
0001
0010
0000
0100
0000
1000
0001
1000
0001
,  // measure 14
0100
0010
1000
02M0
0310
0001
1000
0010
,  // measure 15
0100
00M2
0013
0100
1000
0010
2M00
3001
,  // measure 16
0100
0000
0010
1000
0010
0000
1000
0000
0001
0010
0001
0000
1000
0000
0100
0000
,  // measure 17
0040
0004
0000
0000
0000
0000
0000
0000
0000
0000
0000
0000
0000
0000
0033
0000
,  // measure 18
M001
0010
010M
1000
0M01
0100
001M
1000
,  // measure 19
00M1
0010
100M
0010
M001
1000
00M1
0010
,  // measure 20
010M
1000
0M10
1000
01M0
0001
M100
1000
,  // measure 21
0M01
0100
001M
1000
01M0
0010
0M01
1000
,  // measure 22
001M
0100
00M1
1000
0M01
0100
100M
0100
,  // measure 23
M001
1000
01M0
0010
0M01
1000
002M
0032
,  // measure 24
0023
2030
3002
2003
3200
0320
0230
2300
,  // measure 25
3002
0203
0320
2030
3200
0320
0032
2003
,  // measure 26
3M10
0100
00M1
1000
010M
0010
M100
1000
,  // measure 27
0M10
0100
00M1
1000
010M
0010
0M01
0100
,  // measure 28
001M
1000
00M1
0010
M001
0100
001M
1000
,  // measure 29
00M1
0010
010M
1000
0M10
1000
01M0
0010
,  // measure 30
0M01
0100
001M
1000
00M1
0010
010M
1000
,  // measure 31
0M10
0100
00M1
1000
010M
1000
0M01
0100
,  // measure 32
0010
1000
0100
1000
0010
0100
0001
1000
,  // measure 33
0010
1000
0100
0010
0001
0100
0010
1000
,  // measure 34
0002
0000
0000
0000
0003
0000
2000
3000
,  // measure 35
0020
0000
0030
0000
0000
0000
2000
3200
,  // measure 36
0320
0000
0030
0000
0000
0000
0002
0000
0003
0000
0200
0000
0301
1000
0001
1000
,  // measure 37
0020
0000
0030
0200
0000
0300
0002
0003
,  // measure 38
0020
0000
0030
0200
0000
1300
0020
0130
,  // measure 39
0002
0000
0003
2000
0000
3002
0203
0302
,  // measure 40
0023
0000
0030
0200
0000
1300
0002
0013
,  // measure 41
0200
0000
0300
2000
0000
3000
0020
0000
,  // measure 42
0230
0000
0300
0002
0000
0003
2000
3000
,  // measure 43
2000
0000
3000
0000
0000
0000
0001
0100
,  // measure 44
0020
0000
0000
0000
0030
0000
0200
0000
0000
0000
0301
0000
1000
0100
1000
0100
,  // measure 45
0020
0000
0030
0200
0000
0300
2000
3000
,  // measure 46
0020
0000
0030
0200
0000
0301
0020
0130
,  // measure 47
2000
0000
3000
0002
0000
1003
0100
0010
,  // measure 48
0001
0100
0010
1000
0100
0010
0001
1000
,  // measure 49
2000
0000
0000
0000
,  // measure 50
3010
0000
1000
0000
0001
0000
0100
0000
0010
1000
0010
0000
0100
0000
0000
0000
,  // measure 51
0001
0000
0100
0000
0010
0000
0100
0000
0001
1000
0001
0000
0100
0000
0000
0000
,  // measure 52
0010
0000
1000
0000
0001
0000
0010
0000
0100
0010
0100
0000
1000
0000
0000
0000
,  // measure 53
0004
0400
0000
0000
0000
0000
0000
0000
0000
0000
0000
0000
0000
0000
0303
0000
,  // measure 54
0001
1000
0100
0001
0100
1000
0001
0100
,  // measure 55
0010
1000
0100
0010
0001
0100
0010
1000
,  // measure 56
0001
0100
1000
0100
0001
1000
0100
0010
,  // measure 57
0001
0100
0010
1000
0001
0010
0001
0100
,  // measure 58
0010
1000
0100
1000
0001
0100
0010
1000
,  // measure 59
0001
0010
1000
0010
0001
1000
0010
1000
,  // measure 60
0100
0000
0010
0000
0001
0000
0100
0000
0040
4000
0000
0000
0000
0000
3030
0000
,  // measure 61
0004
4000
0000
0000
0000
0000
0000
0000
0000
0000
0000
0000
0000
0000
0000
0000
,  // measure 62
3003
00M0
000M
00M0
0M00
M000
0M00
00M0
,  // measure 63
0M11
011M
11M0
M101
,  // measure 64
011M
1M10
10M1
M101
,  // measure 65
0M01
0010
010M
0010
M001
1000
001M
1000
,  // measure 66
11M0
M110
0M11
01M1
,  // measure 67
010M
0010
1M00
0100
M010
1000
001M
0001
,  // measure 68
10M0
0010
M100
0010
0M01
0010
100M
0100
,  // measure 69
M010
0001
01M0
0010
1000
0100
0010
0001
,  // measure 70
1000
0100
1000
0010
0100
0001
0010
0001
,  // measure 71
2000
0000
3000
0000
0000
0000
0002
0003
,  // measure 72
0020
0000
0000
0000
0030
0000
0001
1000
,  // measure 73
0020
0000
0000
0000
0030
0000
0200
0000
0000
0000
0301
0000
1000
0100
0010
0100
,  // measure 74
2000
0000
3000
0002
0000
0003
2000
3000
,  // measure 75
0020
0000
0030
0200
0000
0301
0010
0100
,  // measure 76
2000
0000
3000
0200
0000
0310
0001
1000
,  // measure 77
0020
0000
0030
0200
0000
0301
1000
0001
,  // measure 78
0200
0000
0000
0000
0300
0000
0020
0000
0000
0000
1030
0000
0001
0000
1000
0100
,  // measure 79
0020
0000
0030
0200
0000
0300
1000
0000
,  // measure 80
2002
0000
0000
0000
3003
0000
1000
0100
,  // measure 81
0020
0000
0000
0000
0030
0000
0200
0000
0000
0000
1300
0000
0001
0010
0100
0010
,  // measure 82
0002
0000
0003
0200
0000
0300
0002
0003
,  // measure 83
0020
0000
0030
0200
0000
1300
0001
0100
,  // measure 84
0020
0000
0030
2000
0000
3001
0100
0001
,  // measure 85
2000
0000
0000
0000
0000
3000
2000
0000
0000
0000
0000
3000
2000
0000
0000
0000
,  // measure 86
3002
0000
0000
0000
0000
0003
0002
0000
0000
0000
0000
0003
0002
0000
0000
0000
,  // measure 87
1003
0100
1000
0000
0001
0000
0100
0000
0010
0000
1000
0000
0001
0000
0100
0000
,  // measure 88
0010
0100
0010
0000
1000
0000
0001
0000
0010
0000
0100
0000
0010
0000
0001
0000
,  // measure 89
1000
0010
1000
0000
0100
0000
0010
0000
0001
0000
0100
0000
0001
0000
1000
0000
,  // measure 90
0100
0010
0100
0000
1000
0000
0001
0000
0100
0000
0010
0000
1000
0000
0001
0000
,  // measure 91
2002
0000
0000
0000
0000
0000
0000
3003
,  // measure 92
0220
0000
0000
0000
0000
0000
0000
0330
,  // measure 93
4000
0400
0000
0000
0000
0000
0000
0000
0000
0000
0000
0000
0000
0000
3300
0000
,  // measure 94
0040
0004
0000
0000
0000
0000
0000
0000
0000
0000
0000
0000
0000
0000
0033
0000
,  // measure 95
0220
0000
0330
0000
;

//---------------dance-single - Medium----------------
#NOTES:
     dance-single:
     Ace Of Hearts (2009):
     Medium:
     7:
     0.645,0.000,0.000,1.000,0.005:
0000
0000
0000
0000
,
0000
0000
0000
0000
,
0040
0000
0000
0000
,
0000
0000
0000
0000
,
0030
0000
0000
0000
,
1000
0100
1000
0100
1000
0000
0001
0000
,
0100
0001
0100
0001
0100
0000
0010
0000
,
1000
0001
1000
0001
1000
0000
0100
0000
,
0010
0001
0010
0001
0010
0000
0100
0000
,
1000
0100
0010
0100
1000
0000
0001
0000
,
1000
0010
0100
0010
1000
0000
0001
0000
,
0010
0100
1000
0001
0100
0000
0000
0000
,
0020
0000
0000
0030
,
0010
1000
0001
0200
0000
0300
0000
0001
,
1000
0020
0000
0030
0000
1000
0200
0000
,
0310
0001
1000
0001
1000
0000
0010
0000
,
0200
0000
0000
0300
,
0001
1000
0100
1000
0001
0000
0100
0000
,
0010
0100
0001
0100
0010
0000
1000
0000
,
0001
0010
0100
0010
0001
0000
1000
0000
,
0100
0010
0001
0010
0100
0000
1000
0000
,
0001
0100
0010
0100
0001
0000
1000
0000
,
0010
1000
0001
1000
0010
0000
0100
0000
,
0001
1000
0100
1000
0001
0000
0010
0000
,
0001
1000
0100
1000
0001
0000
0100
0000
,
0001
0010
0100
1000
0001
0000
0100
0000
,
0001
0100
0010
1000
0001
0000
0010
0000
,
0001
1000
0100
0010
0001
0000
1000
0000
,
0001
0010
0100
1000
0001
0000
0100
0000
,
0010
0100
0001
1000
0001
0000
0100
0000
,
0001
1000
0100
1000
0001
0000
0100
0000
,
0010
1000
0001
0010
0100
0000
1000
0000
,
0001
0100
0001
1000
0010
0000
0100
0000
,
0002
0000
0003
0200
,
0320
0000
0000
0000
0030
0000
1000
0001
,
2000
0000
3000
0200
0000
1300
0004
0000
,
0003
0000
0000
2000
0000
3000
0002
0000
,
0203
0000
0300
0020
0000
1030
0001
1000
,
0020
0000
0030
0200
0000
0301
1000
0001
,
0020
0000
0030
0002
0000
1003
0100
1000
,
0200
0000
0300
0020
0000
0030
0002
0000
,
2003
0000
3000
0020
0000
0030
0200
0000
,
0302
0000
0003
0000
0000
0000
1000
0100
,
2000
0000
3000
0002
0000
0103
0040
0000
,
0030
0000
0000
2000
0000
3000
0002
0000
,
0023
0000
0030
0002
0000
1003
0010
1000
,
0002
0000
0003
0200
0000
0301
1000
0001
,
0020
0000
0030
0002
0000
0003
2000
0000
,
3020
0000
0000
0000
,
0430
0004
0000
0000
0000
0000
0000
0000
0000
0000
0000
0000
0000
0000
0000
0000
,
0000
0000
0000
0000
,
0000
0000
0000
0000
,
0000
0000
0303
0000
,
0001
1000
0100
0010
0001
0000
1000
0000
,
0010
1000
0001
0010
0100
0000
0010
0000
,
0001
1000
0010
1000
0001
0000
0010
0000
,
0001
1000
0010
0100
0001
0000
1000
0000
,
0100
0010
0001
0010
0100
0000
1000
0000
,
0001
0100
0001
1000
0100
0000
0010
0000
,
0001
1000
0010
0100
0001
0000
1000
0000
,
0020
0000
0000
0000
,
0030
0000
0000
0000
,
2000
3002
0203
0320
,
2030
3002
0023
0230
,
2300
3002
0203
0320
,
2030
3200
0320
0032
,
2003
3200
0302
0203
,
2300
3002
2003
3020
,
2030
3002
0203
2300
,
3200
0302
2003
3200
,
0320
0000
0030
0002
,
2003
0000
0000
0000
3000
0000
0001
0100
,
0002
0000
0003
2000
0000
3001
0400
0000
,
0300
0000
0000
0002
0000
0003
2000
0000
,
3200
0000
0300
2000
0000
3001
0100
0001
,
0200
0000
0300
0002
0000
1003
0010
1000
,
0002
0000
0003
2000
0000
3001
0010
0001
,
0020
0000
0030
0200
0000
0300
1000
0000
,
2000
0000
3000
0001
,
0002
0000
0000
0000
0003
0000
1000
0100
,
0020
0000
0030
0200
0000
1300
0004
0000
,
0003
0000
0000
0200
0000
0300
0020
0000
,
2030
0000
3000
0002
0000
1003
0100
1000
,
0002
0000
0003
0200
0000
0310
1000
0010
,
2000
0000
0000
3002
0000
0000
2003
0000
,
3020
0000
0000
0230
0000
0000
0320
0000
,
1030
0001
1000
0000
0010
0000
0010
0000
,
0100
0001
0100
0000
0001
0000
0001
0000
,
1000
0100
1000
0000
0010
0000
0010
0000
,
1000
0001
1000
0000
0010
0000
0010
0000
,
2000
0000
0000
0000
,
3200
0000
0000
0000
,
0320
0000
0000
0000
,
0032
0000
0000
0000
,
0203
0000
0300
0000
;

//---------------dance-single - Easy----------------
#NOTES:
     dance-single:
     Ace Of Hearts (2009):
     Easy:
     4:
     0.314,0.000,0.000,0.181,0.000:
0000
0000
0000
0000
,
0000
0000
0000
0000
,
0002
0000
0000
0000
,
0000
0000
0000
0000
,
0003
0000
0000
0000
,
1000
1000
1000
0000
,
0010
0010
0010
0000
,
0100
0100
0100
0000
,
0001
0001
0001
0000
,
1000
1000
1000
0000
,
0100
0100
0100
0000
,
0010
0010
0020
0000
,
0032
0000
0000
0000
,
1003
0000
0010
0000
,
1000
0000
0001
0000
,
1000
0000
0100
0000
,
0020
0000
0000
0000
,
0031
0010
0001
0000
,
1000
0100
1000
0000
,
0001
0010
0001
0000
,
1000
0010
1000
0000
,
0001
0001
0001
0000
,
0010
0010
0010
0000
,
0100
0100
0100
0000
,
1000
1000
1000
0000
,
0001
0100
0001
0000
,
1000
0010
1000
0000
,
0001
0010
0001
0000
,
1000
0100
1000
0000
,
0100
0010
0100
0000
,
1000
0001
1000
0000
,
0010
0100
0010
0000
,
1000
0001
1000
0000
,
0001
0000
0000
0001
,
0001
0000
0000
1000
,
2000
0000
0000
3000
0000
0000
4000
0000
,
3000
0000
0000
0010
0000
0000
0000
0000
,
0100
0000
0000
0100
0000
0000
0000
0000
,
0001
0000
0000
0001
0000
0000
0000
0000
,
1000
0000
0000
1000
0000
0000
0000
0000
,
0100
0000
0000
0100
0000
0000
0010
0000
,
0010
0000
0000
0000
,
0001
0001
0000
0100
,
0200
0000
0000
0300
0000
0000
0400
0000
,
0300
0000
0001
0000
,
0010
0000
0010
0000
,
0100
0000
0100
0000
,
1000
0000
1000
0000
,
2000
0000
0000
0000
,
3040
0000
0000
0000
,
0000
0000
0000
0000
,
0000
0000
0000
0000
,
0030
0000
0000
0000
,
1000
0001
1000
0000
,
0001
0100
0001
0000
,
0100
0010
0100
0000
,
0001
1000
0001
0000
,
1000
0100
1000
0000
,
0001
0010
0001
0000
,
0010
0100
0010
0000
,
0002
0000
0000
0000
,
0003
0000
0000
0000
,
1000
1000
1000
1000
,
0010
0010
0010
0010
,
0100
0100
0100
0100
,
0001
0001
0001
0001
,
1000
1000
1000
1000
,
0100
0100
0100
0100
,
0010
0010
0010
0010
,
0001
0001
0001
0001
,
1000
0000
0000
0001
,
0001
0000
0000
0100
,
0200
0000
0000
0300
0000
0000
0040
0000
,
0030
0000
0000
1000
0000
0000
0001
0000
,
0001
0000
0000
0001
0000
0000
0010
0000
,
0010
0000
0000
0100
0000
0000
1000
0000
,
1000
0000
0000
0001
0000
0000
0100
0000
,
0100
0000
0000
0100
0000
0000
0010
0000
,
0010
0000
0000
1000
,
1000
0000
0000
0001
,
0002
0000
0000
0003
0000
0000
0400
0000
,
0300
0000
0000
0001
0000
0000
1000
0000
,
1000
0000
0000
1000
0000
0000
0001
0000
,
0001
0000
0000
0001
0000
0000
0100
0000
,
0100
0000
0000
0100
0000
0000
0010
0000
,
0010
0000
0000
0010
0000
0000
1000
0000
,
2000
0000
0000
0000
,
3020
0000
0000
0000
,
0230
0000
0000
0000
,
0302
0000
0000
0000
,
2003
0000
0000
0000
,
3200
0000
0000
0000
,
0320
0000
0000
0000
,
0032
0000
0000
0000
,
0203
0000
0300
0000
;

//---------------dance-single - Easy----------------
#NOTES:
     dance-single:
     Ace Of Hearts (2009):
     Beginner:
     2:
     0.141,0.000,0.000,0.114,0.000:
0000
0000
0000
0000
,
0000
0000
0000
0000
,
0000
0000
0000
0000
,
0000
0000
0000
0000
,
0000
0000
0000
0000
,
1000
0000
0000
0000
,
1000
0000
0000
0000
,
0001
0000
0000
0000
,
0001
0000
0000
0000
,
0100
0000
0000
0000
,
0100
0000
0000
0000
,
0010
0000
0000
0000
,
0020
0000
0000
0000
,
0030
0000
0000
0000
,
1000
0000
0000
0000
,
1000
0000
0000
0000
,
0002
0000
0003
0000
,
0010
0000
0000
0000
,
0010
0000
0000
0000
,
0100
0000
0000
0000
,
0100
0000
0000
0000
,
1000
0000
0000
0000
,
1000
0000
0000
0000
,
0001
0000
0000
0000
,
0001
0000
0000
0000
,
0100
0000
0000
0000
,
0100
0000
0000
0000
,
0010
0000
0000
0000
,
0010
0000
0000
0000
,
1000
0000
0000
0000
,
1000
0000
0000
0000
,
0001
0000
0000
0000
,
0001
0000
0000
0000
,
2000
0000
0000
0000
,
3000
0000
0000
0000
,
0001
0000
0000
0004
,
0003
0000
0000
0000
,
0100
0000
0000
0000
,
0100
0000
0000
0000
,
0010
0000
0000
0000
,
0010
0000
0000
0000
,
1000
0000
0000
0000
,
1000
0000
0000
0000
,
0100
0000
0000
0400
,
0300
0000
0000
0000
,
0010
0000
0000
0000
,
0010
0000
0000
0000
,
0001
0000
0000
0000
,
0001
0000
0000
0000
,
4000
0000
0000
0000
,
0000
0000
0000
0000
,
0000
0000
0000
0000
,
3000
0000
0000
0000
,
0001
0000
0000
0000
,
0001
0000
0000
0000
,
0100
0000
0000
0000
,
0100
0000
0000
0000
,
0010
0000
0000
0000
,
0010
0000
0000
0000
,
1000
0000
0000
0000
,
2000
0000
0000
0000
,
3000
0000
0000
0000
,
0001
0000
0001
0000
,
1000
0000
1000
0000
,
0010
0000
0010
0000
,
1000
0000
1000
0000
,
0001
0000
0001
0000
,
0010
0000
0010
0000
,
0001
0000
0001
0000
,
1000
0000
1000
0000
,
0001
0000
0000
0000
,
0100
0000
0000
0000
,
0010
0000
0000
0400
,
0300
0000
0000
0000
,
0001
0000
0000
0000
,
1000
0000
0000
0000
,
0100
0000
0000
0000
,
1000
0000
0000
0000
,
0001
0000
0000
0000
,
0001
0000
0000
0000
,
0100
0000
0000
0040
,
0030
0000
0000
0000
,
1000
0000
0000
0000
,
0001
0000
0000
0000
,
1000
0000
0000
0000
,
0010
0000
0000
0000
,
0200
0000
0300
0000
,
0002
0000
0003
0000
,
2000
0000
3000
0000
,
0020
0000
0030
0000
,
2000
0000
0000
0000
,
3200
0000
0000
0000
,
0320
0000
0000
0000
,
0032
0000
0000
0000
,
1003
0000
0000
0000
;
