#TITLE:Hakurei Jinja;
#SUBTITLE:;
#ARTIST:Iosys;
#TITLETRANSLIT:;
#SUBTITLETRANSLIT:;
#ARTISTTRANSLIT:;
#GENRE:Silly J-Pop;
#CREDIT:Ace Of Hearts;
#BANNER:Hakurei Jinja - Bn.png;
#BACKGROUND:Hakurei Jinja - Bg.jpg;
#LYRICSPATH:;
#CDTITLE:Ace Of Hearts.png;
#MUSIC:Hakurei Jinja.ogg;
#OFFSET:0.355;
#SAMPLESTART:76.720;
#SAMPLELENGTH:12.000;
#SELECTABLE:YES;
#BPMS:0.000=156.000;
#STOPS:;
#BGCHANGES:0.000=Hakurei Jinja - bg.jpg=1.000=0=0=1=Centered====,
0.500=Hakurei Jinja Video.avi=1.000=0=0=0=StretchNoLoop====,
99999=-nosongbg-=1.000=0=0=0 // don't automatically add -songbackground-
;
#KEYSOUNDS:;

//---------------dance-single - Ace Of Hearts (2008)----------------
#NOTES:
     dance-single:
     Ace Of Hearts (2008):
     Hard:
     8:
     0.571,0.000,0.221,0.523,0.084:
0000
0000
0000
0000
,
0000
0000
0000
0000
,
0000
0000
0000
0000
,
0000
0000
0000
0000
,
0000
0000
0000
0000
,
0000
0000
0001
0001
1000
0010
0100
0001
,
0000
0010
0000
0010
0100
1000
0100
0100
,
0000
1000
0000
1000
0010
0100
0001
1000
,
0000
0010
0000
0010
1000
0001
0010
0100
,
1000
0001
0100
0100
0001
1000
0100
0010
,
0000
0001
0000
0001
1000
0010
0100
0100
,
0000
0001
0000
0001
1000
0100
0010
0001
,
0000
0100
0000
0100
0001
1000
0001
0010
,
0100
0000
1000
0000
0001
0000
0000
0100
0001
0000
0000
0000
1000
0000
0000
0001
,
0100
0000
0000
0000
0001
0000
0000
1000
0010
0000
1000
0000
0100
0000
0100
0000
,
0010
0000
0000
0000
0001
0000
0000
1000
0010
0000
0000
0000
1000
0000
0000
0001
,
0010
0000
0000
0000
0001
0000
0000
1000
0100
0000
1000
0000
0001
0000
0001
0000
,
0010
0000
0002
0000
0000
0000
0003
1000
,
0001
0000
0000
0000
0200
0000
0000
0000
0000
0000
0320
0000
0000
0000
0000
2030
,
0000
0000
3002
0000
0000
0043
0000
0000
,
0230
0000
2300
0000
3000
0000
0001
0010
,
0100
0000
0010
0000
0002
0000
0000
0000
0000
0000
0023
0000
0000
0000
0000
0230
,
0000
0000
0000
0000
2300
0000
0000
0000
0000
0000
0000
0000
3002
0000
0000
0023
,
0000
0130
2000
0000
0000
3020
0000
0000
,
0030
0000
0000
0000
2000
0000
0000
3020
0000
0000
0130
0000
0002
0000
0000
0023
,
0000
0130
1000
1000
0001
0100
0001
1000
,
0000
0010
0000
0010
1000
0001
0100
0100
,
0000
0001
0000
0001
1000
0100
0010
0001
,
0000
0100
0000
0100
0010
1000
0100
1000
,
0001
0100
0010
0010
1000
0001
0100
0010
,
0000
1000
0000
1000
0001
0100
0010
0010
,
0000
1000
0000
1000
0001
0100
0001
1000
,
0000
0010
0000
0010
1000
0001
1000
0010
,
0100
0001
0020
0000
0000
0000
0030
0000
,
0100
1000
0002
0000
0000
2003
0000
0000
,
3020
0000
0230
0000
0000
0304
0000
0000
,
2003
0000
3200
0000
0300
0000
1000
0001
,
0100
0010
0200
0000
0000
0320
0000
0000
,
2030
0000
0000
0000
3002
0000
0000
0000
0000
0000
0000
0000
0023
0000
0000
0230
,
0000
2300
3002
0000
0000
0023
0000
0030
,
0000
0000
0000
0000
0002
0000
0000
0103
0000
0000
0010
0000
0200
0000
0000
0301
,
0000
1000
0010
0000
0010
1000
0100
0010
,
0001
0100
0000
0010
0010
0000
1010
0000
,
1100
0200
0000
0310
0100
1000
0001
0100
,
0010
1000
0000
1000
0200
0000
1300
0001
,
0001
0000
0100
0010
1000
0001
0010
0100
,
1000
0001
0000
0010
0020
0000
0031
0010
,
0100
1000
0000
1000
0010
0100
0001
0010
,
0100
0010
0000
0010
0200
0000
1300
0010
,
0010
0000
0000
0000
1000
0000
0001
0010
0001
0000
1000
0000
0010
0000
0100
0000
,
0001
1000
0100
0010
0011
0000
0001
1000
,
1010
0000
0010
0100
0101
0001
1000
1100
,
1100
0000
0100
0000
0010
0100
1000
0001
,
0100
0010
0000
0110
0110
0000
0101
0000
,
1001
0000
1000
0010
0110
0000
0100
0001
,
1001
0000
1000
0100
0010
0001
1000
1010
,
1010
0010
0200
0300
0000
0002
0000
1003
,
0010
0000
1000
0000
0200
0000
0000
0000
0000
0000
0310
0001
0010
0000
0000
0000
,
0100
0000
1000
0001
0101
0000
0100
0010
,
1010
0000
1000
0100
0010
0001
1000
1100
,
1100
0100
0020
0000
0000
0031
0000
1000
,
0001
0020
0000
0130
1000
0000
0001
0000
,
0101
0000
0200
0310
0000
1010
0000
1000
,
0100
0010
0002
0000
0000
2003
0000
0000
,
3020
0000
0230
0000
0000
0302
0000
0013
,
0100
2000
0000
0000
0000
0000
3020
0000
,
0000
0030
2000
0100
0000
3002
0100
0000
,
2003
0100
0000
3002
0103
0000
0020
0000
,
0000
0000
0000
0030
1010
0000
1001
0000
,
1100
0000
1000
0100
0010
0001
1000
0100
,
0000
0000
0010
0000
0001
1000
0001
0000
0100
0000
0010
0000
1000
0000
1000
0000
,
0000
0000
0000
0000
0010
0000
0000
0000
0100
0000
0001
0000
0100
0000
0000
0000
0001
0000
0000
0000
0040
0400
0000
0000
0000
0000
0000
0000
0330
0000
0000
0000
,
1001
0000
0000
0000
;

//---------------dance-single - Ace Of Hearts (2008)----------------
#NOTES:
     dance-single:
     Ace Of Hearts (2008):
     Medium:
     6:
     0.402,0.000,0.071,0.363,0.009:
0000
0000
0000
0000
,
0000
0000
0000
0000
,
0000
0000
0000
0000
,
0000
0000
0000
0000
,
0000
0000
0000
0000
,
0000
0000
1000
0100
1000
0000
0001
0010
,
0000
0001
0000
1000
0001
0000
0010
0100
,
0000
1000
0000
0001
0100
0000
0001
1000
,
0000
0010
0000
0100
0001
0000
1000
0100
,
0010
0001
0000
1000
0100
0000
0010
0001
,
0000
1000
0000
0010
0100
0000
0001
1000
,
0000
0100
0000
1000
0001
0000
0100
0010
,
0000
1000
0000
0001
0100
0000
0001
0010
,
0100
1000
0001
0001
0010
0000
0200
0000
,
0300
0000
1000
1000
0001
0000
0200
0000
,
0300
0000
0001
0001
1000
0000
0020
0000
,
0030
0000
0100
0100
0001
0000
1000
0000
,
0010
0000
2000
0000
0000
3000
0000
0001
,
0010
0000
0000
0000
0200
0000
0000
0000
0000
0000
2300
0000
0000
0000
0000
3000
,
0000
0000
0002
0000
0000
2003
0000
0000
,
3002
0203
0300
0010
,
1000
0000
0000
0000
0002
0000
0000
0000
0000
0000
2003
0000
0000
0000
0000
3001
,
0000
0000
0020
0000
0000
0030
0100
0000
,
1000
0000
0002
0000
0000
0023
0000
0000
,
0030
0001
1000
0010
,
0100
0000
0001
0100
0001
0000
1000
0010
,
0000
1000
0000
0100
0010
0000
0001
1000
,
0000
0010
0000
1000
0100
0000
0010
0001
,
0000
1000
0000
0010
1000
0000
0001
0010
,
0100
1000
0000
0001
0100
0000
0010
1000
,
0000
0001
0000
1000
0100
0000
0010
0100
,
0000
1000
0000
0001
0100
0000
0001
1000
,
0000
0100
0000
1000
0001
0000
1000
0100
,
0010
0001
2000
0000
0000
0000
3000
0000
,
0001
0010
0002
0000
0000
0023
0000
0000
,
0230
0000
2300
0000
0000
3002
0000
0003
,
0200
0302
0003
1000
,
0001
0000
0200
0000
0000
0320
0000
0000
,
0230
0000
0302
0000
0000
0003
1000
0000
,
0010
0000
0200
0000
0000
0320
0000
0030
,
0000
1000
0001
0010
,
0100
0000
1000
0001
1000
0000
0001
0000
,
0000
0100
0000
0001
0002
0000
0003
0000
,
0000
0000
1000
0100
1000
0000
0001
0000
,
0000
1000
0000
0100
0200
0000
0300
0000
,
0000
0000
1000
0010
1000
0000
0001
0000
,
0000
1000
0000
1000
2000
0000
3000
0000
,
0000
0000
0001
0100
0001
0000
1000
0000
,
0000
0010
0000
0010
0020
0000
0000
0000
,
0030
0000
0000
0000
4000
0004
0000
0000
0000
0000
0000
0000
3003
0000
0000
0000
,
0000
0000
1000
0100
1000
0000
0001
0100
,
0001
1000
1010
1010
,
0000
0000
0010
0100
0010
0000
1000
0000
,
0000
0001
0011
0011
,
0000
0000
0010
0100
0000
1000
0000
0001
,
0100
0000
0001
0000
0000
2000
0000
3000
,
0010
0000
0010
0000
0000
1000
0000
0000
,
0001
0001
0000
0100
,
0000
0000
0001
0100
0001
0000
1000
0100
,
1000
0001
0101
0101
,
0000
0000
0001
0010
0001
0000
1000
0000
,
0100
0010
0011
0011
,
0000
0000
0001
1000
0000
0010
0000
1000
,
0100
0000
0020
0000
0000
0032
0000
0003
,
1000
0100
1000
0000
0000
0002
0000
0013
,
0100
2000
0000
3000
0000
0000
0020
0000
,
0030
0000
1000
1000
0000
0001
0001
0000
,
0010
0010
0000
0100
0100
0000
0020
0000
,
0000
0000
0000
0030
0001
0000
0001
0000
,
0001
0000
1000
0100
1000
0000
0001
0100
,
0000
0001
1000
0100
0000
1000
0001
0000
,
0100
0000
0001
1000
0001
0020
0000
0000
,
0130
0000
0000
0000
;

//---------------dance-single - Ace Of Hearts (2008)----------------
#NOTES:
     dance-single:
     Ace Of Hearts (2008):
     Easy:
     3:
     0.197,0.000,0.009,0.257,0.000:
0000
0000
0000
0000
,
0000
0000
0000
0000
,
0000
0000
0000
0000
,
0000
0000
0000
0000
,
0000
0000
0000
0000
,
0000
1000
1000
1000
,
0000
0020
0000
0030
,
0000
0100
0100
0100
,
0000
0001
0000
0001
,
0000
0010
0010
0010
,
0000
0200
0000
0300
,
0000
1000
1000
1000
,
0000
0010
0000
0010
,
0000
1000
0000
1000
,
0000
0010
0010
0010
,
0000
0100
0000
0100
,
0000
0001
0001
0001
,
0000
2000
0000
3000
,
0000
0002
0000
0003
,
0000
0200
0000
0300
,
0000
0010
0000
0010
,
0000
2000
0000
3000
,
0000
0002
0000
0003
,
0000
0200
0000
0300
,
0000
0010
0000
0010
,
0000
0100
0100
0100
,
0000
0002
0000
0003
,
0000
1000
1000
1000
,
0000
0010
0000
0010
,
0000
0100
0100
0100
,
0000
0002
0000
0003
,
0000
1000
1000
1000
,
0000
0100
0000
0100
,
0000
0020
0000
0030
,
0000
0002
0000
0003
,
0000
2000
0000
3000
,
0000
0020
0000
0030
,
0000
0200
0000
0300
,
0000
0002
0000
0003
,
0000
2000
0000
3000
,
0000
0100
0000
0100
,
0000
1000
0000
1000
,
0000
2000
0000
3000
,
0000
0001
0000
0001
,
0000
0002
0000
0003
,
0000
0100
0000
0100
,
0000
0200
0000
0300
,
0000
0010
0000
0010
,
0000
0020
0000
0030
,
0000
2002
0000
3003
,
0000
1000
0000
1000
,
0000
0010
0010
0010
,
0000
0100
0000
0100
,
0000
0001
0001
0001
,
0000
1000
0000
1000
,
0000
2000
0000
3000
,
0000
0100
0000
0100
,
0000
0200
0000
0300
,
0000
0010
0000
0010
,
0000
0010
0010
0010
,
0000
0001
0000
0001
,
0000
0001
0001
0001
,
0000
0100
0000
0100
,
0000
0200
0000
0300
,
0000
0010
0000
0010
,
0000
0020
0000
0030
,
0000
0000
1000
0000
0000
0001
0000
0000
,
1000
0000
0000
0001
0000
0000
0200
0000
,
0000
0300
0010
0010
,
0010
1000
1000
1000
,
0000
0001
0000
0001
0000
0001
0000
0000
,
0000
1000
0000
0000
0000
0200
0000
0000
,
0300
0000
0000
0000
;

//---------------dance-single - Ace Of Hearts (2008)----------------
#NOTES:
     dance-single:
     Ace Of Hearts (2008):
     Beginner:
     2:
     0.134,0.000,0.009,0.151,0.000:
0000
0000
0000
0000
,
0000
0000
0000
0000
,
0000
0000
0000
0000
,
0000
0000
0000
0000
,
0000
0000
0000
0000
,
0000
0001
0000
0001
,
0000
0001
0000
0000
,
0000
1000
0000
1000
,
0000
1000
0000
0000
,
0000
0100
0000
0100
,
0000
0100
0000
0000
,
0000
0010
0000
0010
,
0000
0010
0000
0000
,
0000
0200
0000
0300
,
0000
0200
0000
0300
,
0000
0020
0000
0030
,
0000
0020
0000
0030
,
0000
0001
0000
0000
,
0000
0001
0000
0000
,
0000
0001
0000
0000
,
0000
0001
0000
0000
,
0000
0100
0000
0000
,
0000
0100
0000
0000
,
0000
0100
0000
0000
,
0000
0100
0000
0000
,
0000
0010
0000
0010
,
0000
0010
0000
0000
,
0000
1000
0000
1000
,
0000
1000
0000
0000
,
0000
0001
0000
0001
,
0000
0001
0000
0000
,
0000
0010
0000
0010
,
0000
0010
0000
0000
,
0000
0100
0000
0000
,
0000
0100
0000
0000
,
0000
0100
0000
0000
,
0000
0100
0000
0000
,
0000
0010
0000
0000
,
0000
0010
0000
0000
,
0000
0010
0000
0000
,
0000
0010
0000
0000
,
0000
0001
0000
0001
,
0000
0001
0000
0000
,
0000
1000
0000
1000
,
0000
1000
0000
0000
,
0000
0100
0000
0100
,
0000
0100
0000
0000
,
0000
0010
0000
0010
,
0000
0010
0000
0000
,
0000
0020
0000
0030
,
0000
0100
0000
0100
,
0000
0200
0000
0300
,
0000
0001
0000
0001
,
0000
0002
0000
0003
,
0000
1000
0000
1000
,
0000
2000
0000
3000
,
0000
0100
0000
0100
,
0000
0200
0000
0300
,
0000
1000
0000
1000
,
0000
2000
0000
3000
,
0000
0001
0000
0001
,
0000
0002
0000
0003
,
0000
0010
0000
0010
,
0000
0020
0000
0030
,
0000
0100
0000
0100
,
0000
0200
0000
0300
,
0000
2002
0000
0000
,
0000
0000
0000
3003
,
0000
0000
0020
0000
,
0030
0000
1000
0000
,
0000
0001
0000
0000
0000
0001
0000
0000
,
0000
0001
0000
0000
0200
0000
0000
0000
,
0300
0000
0000
0000
;

//---------------dance-single - Ace Of Hearts (2011)----------------
#NOTES:
     dance-single:
     Ace Of Hearts (2011):
     Challenge:
     10:
     0.822,0.000,0.700,0.611,0.328: // measure 1
0000
0000
0000
0000
,  // measure 2
0000
0000
0000
0000
,  // measure 3
0000
0000
0000
0000
,  // measure 4
0000
0000
0000
0000
,  // measure 5
0000
0000
0000
0000
0000
0000
0000
0000
0000
0000
0000
0000
0000
0000
0000
0000
0000
0000
0000
0000
0000
0001
0100
0001
,  // measure 6
0100
0000
0110
0010
1000
0001
0100
0010
,  // measure 7
0000
0000
0000
1000
0010
0000
0000
0000
0000
0000
0000
0000
0100
0000
0000
0000
0001
0000
0000
0000
1000
0000
0010
0000
0100
0000
0000
0000
0100
0000
0000
0000
,  // measure 8
0000
0101
0000
0001
1000
0100
0010
0001
,  // measure 9
0000
0000
0000
1000
0010
0000
0000
0000
0000
0000
0000
0000
1000
0000
0000
0000
0001
0000
0000
0000
0010
0000
0000
0000
0100
0000
0000
0000
0010
0000
0001
0000
,  // measure 10
1000
0100
0110
0010
0001
1000
0010
0100
,  // measure 11
0000
0000
0000
0001
1000
0000
0000
0000
0000
0000
0000
0000
0100
0000
0000
0000
0010
0000
0000
0000
0100
0000
1000
0000
0001
0000
0000
0000
0100
0000
0000
0000
,  // measure 12
0000
0110
0000
0010
1000
0001
0100
0010
,  // measure 13
0000
0000
0000
1000
0010
0000
0000
0000
0000
0000
0000
0000
1000
0000
0000
0000
0001
0000
0000
0000
0010
0000
0000
0000
0100
0000
0000
0000
1000
0000
0001
0000
,  // measure 14
0100
0000
0010
0000
1010
0000
1000
0001
1000
0000
1000
0000
1010
0000
0010
0100
,  // measure 15
0010
0000
0000
0000
0110
0000
0100
0001
0100
0000
0010
1000
0010
0000
0110
0000
,  // measure 16
0101
0000
0000
0000
1001
0000
1000
0100
1000
0000
0000
0000
1001
0000
0001
0010
,  // measure 17
0001
0000
0000
0000
0101
0000
0100
0010
0100
0000
0001
0000
1001
0000
1000
0100
,  // measure 18
1000
0000
0001
0100
0020
0000
1000
0000
2030
0000
3200
0000
0000
0000
0310
0000
,  // measure 19
0100
1000
1002
0103
0010
2000
0000
0100
,  // measure 20
3002
0103
0020
1030
0001
0020
0000
0031
,  // measure 21
1000
0010
0200
0001
0301
0000
1001
1000
,  // measure 22
0100
0010
0012
1003
0010
0210
0000
0301
,  // measure 23
1000
0000
0000
0000
1200
0000
0010
0000
0310
0000
0000
0000
0012
0000
0000
1000
,  // measure 24
0000
0103
0120
1030
0001
0021
0000
0100
,  // measure 25
0130
0000
0000
0000
2100
0000
0000
3002
0000
0000
0103
0010
1000
0000
0001
0010
,  // measure 26
0000
0100
1100
1000
0001
0100
0010
1000
,  // measure 27
0000
0000
0000
0001
0100
0000
0000
0000
0000
0000
0000
0000
0010
0000
0000
0000
1000
0000
0000
0000
0001
0000
0010
0000
0100
0000
0000
0000
0100
0000
0000
0000
,  // measure 28
0000
1100
0000
1000
0001
0100
0010
1000
,  // measure 29
0000
0000
0000
0001
0010
0000
0000
0000
0000
0000
0000
0000
0100
0000
0000
0000
1000
0000
0000
0000
0001
0000
0000
0000
0100
0000
0000
0000
0010
0000
1000
0000
,  // measure 30
0001
0100
0110
0010
1000
0001
0010
0001
,  // measure 31
0000
0000
0000
1000
0010
0000
0000
0000
0000
0000
0000
0000
1000
0000
0000
0000
0001
0000
0000
0000
0010
0000
0100
0000
1000
0000
0000
0000
1000
0000
0000
0000
,  // measure 32
0000
1010
0000
0010
0100
0001
1000
0100
,  // measure 33
0000
0000
0000
0010
0100
0000
0000
0000
0000
0000
0000
0000
1000
0000
0000
0000
0001
0000
0000
0000
0100
0000
0000
0000
0010
0000
0000
0000
1000
0000
0001
0000
,  // measure 34
0010
0000
0100
0000
2100
0000
3001
0000
0002
0000
0000
0200
0000
0300
0000
0000
,  // measure 35
1003
0000
0100
0000
0020
0000
0100
0000
0001
0000
0230
0000
0000
0000
1300
0001
,  // measure 36
0100
0010
0200
0001
0010
0302
0000
1003
,  // measure 37
0100
0000
0010
0000
0200
0000
1000
0000
0010
0000
0000
0000
1300
0001
1000
0000
,  // measure 38
1010
0000
0010
0000
0200
0000
0301
1000
0010
0000
0200
0000
0000
0000
0010
0000
,  // measure 39
0001
0000
0000
0000
0320
0000
1030
0001
0100
0000
0001
0000
2000
0000
0000
0200
,  // measure 40
0000
0300
3001
0000
0201
0000
0310
1000
0001
0000
0020
0000
0000
0000
0001
0000
,  // measure 41
0100
0000
0031
1000
0020
0000
0000
0100
0000
0000
1000
0000
0230
0000
0000
0010
,  // measure 42
0000
0000
0301
1000
0100
0000
0010
0000
0100
0000
1000
0000
0010
0000
0100
0000
,  // measure 43
0001
2001
0000
3010
0200
0300
0101
0001
,  // measure 44
1000
1200
0000
0310
0100
1000
0010
0100
,  // measure 45
0001
0021
0000
0130
2000
3000
1010
0100
,  // measure 46
0101
0000
1001
1000
0100
0010
0011
1000
,  // measure 47
0010
0110
0000
0100
0002
0003
1001
0100
,  // measure 48
0010
2001
0000
3100
0010
0100
1100
1000
,  // measure 49
0001
0011
0000
0010
0200
0300
1100
1000
,  // measure 50
1001
0000
0001
0100
0010
1000
0010
1000
0001
0010
0001
0010
0100
1000
0100
1000
,  // measure 51
0001
0010
0110
0100
1100
0000
0101
0001
,  // measure 52
1001
1000
2200
0000
0010
0000
0001
0000
,  // measure 53
0010
3300
1002
0103
0010
1010
0000
0010
,  // measure 54
0200
0002
0000
1000
0010
0000
1010
0010
,  // measure 55
0010
0303
2001
3100
0000
0110
0000
0010
,  // measure 56
0100
1000
1002
0100
1003
1020
0000
0000
,  // measure 57
1030
0001
0021
0100
0031
2001
0000
3010
,  // measure 58
0100
0000
0001
0000
1000
0100
0010
0001
0010
0100
1000
0001
0100
0010
1000
0010
,  // measure 59
0100
0001
1000
0001
0010
0000
0100
0000
1100
0000
0000
0000
1001
0000
0100
0000
,  // measure 60
0010
0100
0202
0000
0010
0000
1000
0000
,  // measure 61
0010
0303
2001
3100
0010
0011
0000
0001
,  // measure 62
1000
2200
0000
0010
0001
0000
0011
0010
,  // measure 63
0010
3300
1002
0103
0010
1010
0000
1000
,  // measure 64
0001
0010
0210
1000
0010
2300
0000
3000
,  // measure 65
0001
0000
0100
0000
0120
0000
1000
0000
0100
0000
2030
0000
0000
0000
3001
0010
,  // measure 66
0001
1000
0001
0010
0100
1000
0100
1000
0001
0100
0001
0100
0010
1000
0010
1000
,  // measure 67
0001
0010
0100
0000
2100
0000
3001
0000
0000
0000
0102
0000
1003
0000
0000
0000
,  // measure 68
2010
3001
0000
0012
1003
0000
0220
0000
,  // measure 69
0000
0000
0000
0330
1001
0000
0110
0000
,  // measure 70
1001
0000
1000
0010
1000
0001
0010
0100
,  // measure 71
0000
0000
1100
0000
2000
0000
3001
0100
0010
1000
0010
0100
0001
1000
0100
0010
,  // measure 72
0100
0000
0000
0000
0000
0000
0000
0000
0000
0000
0000
0000
1000
0000
0000
0000
0000
0000
0000
0000
0000
0000
0000
0000
0001
0000
0000
0000
0000
0000
0000
0000
0000
0000
0000
0000
0000
0000
0000
0000
0000
0000
0000
0000
0000
0000
0000
0000
1000
0000
0000
0000
0000
0000
0000
0000
0000
0000
0000
0000
0000
0000
0000
0000
0000
0000
0000
0000
0000
0000
0000
0000
0100
0000
0000
0000
0000
0000
0000
0000
0000
0000
0000
0000
0000
0000
0000
0000
0000
0000
0000
0000
0000
0000
0000
0000
0010
0000
0000
0000
0000
0000
0000
0000
0000
0000
0000
0000
0000
0000
0000
0000
0000
0000
0000
0000
0000
0000
0000
0000
0004
0000
0000
0000
0000
0000
4000
0000
0000
0000
0000
0000
0000
0000
0000
0000
0000
0000
0000
0000
0000
0000
0000
0000
0000
0000
0000
0000
0000
0000
0000
0000
0000
0000
0000
0000
0000
0000
0000
0000
0000
0000
0000
0000
0000
0000
0000
0000
0000
0000
0000
0000
0000
0000
0000
0000
3003
0000
0000
0000
0000
0000
0000
0000
0000
0000
0000
0000
0000
0000
0000
0000
,  // measure 73
1101
0000
0000
0000
;
