#TITLE:Go Go Power Rangers;
#SUBTITLE:;
#ARTIST:The Mighty RAW;
#TITLETRANSLIT:;
#SUBTITLETRANSLIT:;
#ARTISTTRANSLIT:;
#GENRE:;
#CREDIT:Ace Of Hearts;
#BANNER:Go Go Power Rangers - bn.png;
#BACKGROUND:Go Go Power Rangers - bg.jpg;
#LYRICSPATH:;
#CDTITLE:Ace Of Hearts.png;
#MUSIC:Go Go Power Rangers.ogg;
#OFFSET:-4.120;
#SAMPLESTART:29.200;
#SAMPLELENGTH:12.000;
#SELECTABLE:YES;
#BPMS:0.000=188.000;
#STOPS:;
#BGCHANGES:-2.000=Mighty Morphin Power Rangers Intro.avi=1.000=0=0=1=====,
99999=-nosongbg-=1.000=0=0=0 // don't automatically add -songbackground-
;
#KEYSOUNDS:;

//---------------dance-single - Hard----------------
#NOTES:
     dance-single:
     Ace Of Hearts (2008):
     Hard:
     8:
     0.410,0.000,0.343,0.687,0.039:
0000
0000
0000
0000
,
0000
0000
0000
0000
,
0000
0000
0000
0000
,
0000
0000
0000
0000
,
0000
0000
0000
0000
,
0000
0000
0000
0000
,
0000
0000
0000
0000
,
0000
0000
0000
0000
,
0000
0000
0000
0000
,
0000
0000
0000
0000
,
0010
2002
0000
3003
,
0000
4000
3000
0000
,
0040
0000
0030
0000
0000
0220
0000
0000
,
0330
0000
0000
0000
0000
0000
0000
0000
0000
0400
0004
0000
,
0000
0000
0000
0000
,
0000
0000
0303
0110
,
0110
0000
0200
0301
0000
1000
0000
0200
,
0000
0000
0000
2300
0000
0000
0000
0000
3010
0000
0000
0000
0000
0000
0000
0000
,
0210
0000
0000
0302
0000
0000
0023
0000
,
0000
0230
0000
0000
1300
0000
1100
0000
,
1100
0000
0200
0310
0000
0001
0000
0200
,
0000
0000
0000
0320
0000
0000
0000
0000
1030
0000
0000
0000
0000
0000
0000
0000
,
0002
0000
0000
2003
0000
0000
3020
0000
,
0000
0230
0000
0000
0301
0000
1001
0000
,
1001
0000
2000
3010
0000
0100
0000
0002
,
0000
0000
0003
0000
0000
0000
0020
0130
,
0000
2000
0000
3001
0000
0100
0000
0010
,
0000
2000
0000
3001
0000
0200
0000
0000
,
0000
0000
0000
0300
0000
0010
0100
0000
,
0000
0000
0000
0000
0000
0001
0100
0000
,
0000
0001
0010
0000
0000
0100
1000
0000
,
0000
0010
0100
0000
0000
0001
1000
0100
,
0010
0001
1000
0001
0100
0010
1000
0001
,
1000
0100
0010
0100
1000
0001
0101
0000
,
0101
0000
0200
0310
0000
1010
0000
2000
,
0000
0000
0000
3002
0000
0000
0000
0000
0013
0000
0000
0000
0000
0000
0000
0000
,
0120
0000
0000
0032
0000
0000
2003
0000
,
0000
3200
0000
0000
0310
0000
0011
0000
,
0011
0000
0002
0103
0000
0110
0000
0020
,
0000
0000
0000
2030
0000
0000
0000
0000
3001
0000
0000
0000
0000
0000
0000
0000
,
0201
0000
0000
0320
0000
0000
2030
0000
,
0000
3002
0000
0000
0103
0000
0110
0000
,
0110
0000
0020
1030
0000
1100
0000
0200
,
0000
0000
0000
0300
1000
0000
0002
0103
,
0000
0010
0000
1000
0000
0002
0000
0013
,
0000
0210
0000
1300
0000
1002
0000
0000
,
0000
0103
0000
0000
;

//---------------dance-single - Expert----------------
#NOTES:
     dance-single:
     Ace Of Hearts (2008):
     Challenge:
     9:
     0.771,0.145,1.000,1.000,0.156: // measure 1
0000
0000
0000
0000
,  // measure 2
0000
0000
0000
0022
,  // measure 3
0000
0000
0033
0000
0000
1000
0100
0010
,  // measure 4
0000
0001
1000
0001
0000
1000
0000
2020
,  // measure 5
0000
3030
1000
0001
,  // measure 6
0000
0010
0100
1000
0000
0000
0000
2002
,  // measure 7
0000
3003
0000
0000
0000
0002
0000
0013
,  // measure 8
0000
0100
1000
0001
0100
0000
0000
0000
,  // measure 9
0000
0001
1000
0010
0100
0000
0010
1000
,  // measure 10
0001
0000
0010
0000
0000
0100
0000
0000
1000
0000
0010
0000
0100
0000
0000
0000
,  // measure 11
0002
0003
0022
0000
0000
0000
0033
0000
,  // measure 12
0000
0040
0030
0000
,  // measure 13
0400
0000
0300
0000
0000
2200
0000
0000
,  // measure 14
3300
0000
0000
0000
0000
0000
0000
0000
0000
1000
0001
1000
,  // measure 15
0100
0010
0001
1000
0001
0100
0010
0100
0001
1000
0100
0010
,  // measure 16
0001
0000
1000
0000
0010
0000
1000
0000
0001
0000
0010
0000
0200
0000
0000
0300
0000
0000
1100
0000
0000
0000
0000
0000
,  // measure 17
1100
0000
0200
0310
0000
0011
0000
2100
,  // measure 18
0000
0000
0000
3002
0000
0000
0000
0000
0013
0000
0000
0000
0000
0000
0000
0000
,  // measure 19
2200
3000
0310
0220
0300
0031
0012
0000
,  // measure 20
0000
2003
0000
0000
3010
0000
0110
0000
,  // measure 21
0110
0000
2010
3001
0000
0101
0000
1020
,  // measure 22
0000
0000
0000
0230
0000
0000
0000
0000
0310
0000
0000
0000
0000
0000
0000
0000
,  // measure 23
0202
0300
1003
2002
0003
3100
1200
0000
,  // measure 24
0000
0320
0000
0000
0031
0000
1001
0000
,  // measure 25
1001
0000
0201
0310
0000
0110
0000
0102
,  // measure 26
0000
0000
0003
0000
0000
0000
2001
3010
,  // measure 27
0000
0210
0000
0301
0000
0021
0000
0130
,  // measure 28
0000
0000
2100
0000
0000
0000
3001
0000
0000
0000
0200
0300
0110
0000
1000
0000
,  // measure 29
0001
0100
0100
0001
1000
1100
2100
3100
,  // measure 30
0010
0010
0001
1000
0001
0101
0102
0103
,  // measure 31
0010
1010
1020
1030
0100
0110
0210
0310
,  // measure 32
0001
0011
0012
0013
0100
1100
1200
1300
,  // measure 33
0001
0100
1000
0100
0001
1000
0100
0010
,  // measure 34
0001
0010
1000
0010
0001
1000
1010
0000
,  // measure 35
1010
0000
0102
1003
0000
2100
0000
3020
,  // measure 36
0000
0000
0030
0210
0000
0000
0000
0000
0301
0000
0000
0000
0000
0000
0000
0000
,  // measure 37
0022
0003
0130
0220
0030
1300
2200
0300
,  // measure 38
0000
3002
0000
0000
0103
0000
0110
0000
,  // measure 39
0110
0000
0102
1003
0000
1010
0000
0201
,  // measure 40
0000
0000
0300
0120
0000
0000
0000
0000
1030
0000
0000
0000
0000
0000
0000
0000
,  // measure 41
2200
0300
3001
2002
3000
0103
0202
0000
,  // measure 42
0003
0320
0000
0000
1030
0000
1100
0000
,  // measure 43
1100
0000
0120
0031
0000
0101
0000
2020
,  // measure 44
0000
3000
0000
0000
0130
0000
0102
1003
,  // measure 45
0000
2100
0000
3010
0000
0210
0000
0301
,  // measure 46
0000
0000
0021
0000
0000
0000
0230
0000
0000
0300
2100
0000
0000
0000
0000
0000
,  // measure 47
0000
0000
3001
0100
0020
0000
0000
0000
0030
0000
0000
0000
0000
0000
0000
0000
;

//---------------dance-single - Medium----------------
#NOTES:
     dance-single:
     Ace Of Hearts (2008):
     Medium:
     6:
     0.325,0.000,0.125,0.624,0.000:
0000
0000
0000
0000
,
0000
0000
0000
0000
,
0000
0000
0000
0000
,
0000
0000
0000
0000
,
0000
0000
0000
0000
,
0000
0000
0000
0000
,
0000
0000
0000
0000
,
0000
0000
0000
0000
,
0000
0000
0000
0000
,
0000
0000
0000
0000
,
2002
0000
0000
0000
,
3003
2000
3000
0000
,
0200
0300
0000
0000
0000
0220
0000
0000
,
0330
0000
0000
2002
,
0000
0000
0000
0000
,
0000
0000
3003
1000
,
1000
0000
0001
0010
0000
0001
0000
2000
,
0000
0000
3010
0000
,
0100
0000
0000
0002
0000
0000
0023
0000
,
0000
0230
0000
0000
1300
0000
0001
0000
,
0001
0000
1000
0010
0000
1000
0000
0200
,
0000
0000
0310
0000
,
0001
0000
0000
2000
0000
0000
3200
0000
,
0000
0320
0000
0000
0031
0000
0100
0000
,
0100
0000
0001
1000
0000
0001
0000
0002
,
0000
0000
0003
0000
0000
0000
1000
0010
,
0000
1000
0000
0001
0000
0010
0000
0001
,
0000
1000
0000
0010
0000
0200
0000
0000
,
0000
0300
0000
0202
,
0303
0000
0000
2002
,
3003
2200
3300
0220
,
0330
0022
0033
0001
,
1000
0001
0100
0010
,
0100
0001
1000
0010
,
0010
0000
1000
0001
0000
0010
0000
0200
,
0000
0000
0310
0000
,
0002
0000
0000
2003
0000
0000
3020
0000
,
0000
2030
0000
0000
3001
0000
0010
0000
,
0010
0000
0001
1000
0000
0010
0000
0200
,
0000
0000
0310
0000
,
2000
0000
0000
3002
0000
0000
0023
0000
,
0000
0230
0000
0000
1300
0000
0001
0000
,
0001
0000
1000
0010
0000
1000
0000
0200
,
0000
0000
0300
0000
1000
0000
0001
0100
,
0000
0001
0000
1000
0000
0100
0000
0010
,
0000
0100
0000
1000
0000
0002
0000
0000
,
0000
0013
0000
0000
;

//---------------dance-single - Easy----------------
#NOTES:
     dance-single:
     Ace Of Hearts (2008):
     Easy:
     3:
     0.181,0.000,0.047,0.281,0.000:
0000
0000
0000
0000
,
0000
0000
0000
0000
,
0000
0000
0000
0000
,
0000
0000
0000
0000
,
0000
0000
0000
0000
,
0000
0000
0000
0000
,
0000
0000
0000
0000
,
0000
0000
0000
0000
,
0000
0000
0000
0000
,
0000
0000
0000
0000
,
2002
0000
0000
0000
,
3003
0000
0000
0000
,
0000
0000
0000
0220
,
0330
0000
0000
0002
,
0000
0000
0000
0000
,
0000
0000
0003
1000
,
1000
1000
0000
0010
,
0000
0010
0000
0000
,
2000
0000
0000
3001
,
0000
0100
0000
0010
,
0010
0010
0000
1000
,
0000
0001
0000
0000
,
0200
0000
0000
0310
,
0000
1000
0000
0001
,
0001
0001
0000
0100
,
0000
0000
0000
0010
,
0000
0010
0000
1000
,
0000
1000
0000
2000
,
0000
3000
0000
0020
,
0030
0000
0000
2000
,
3000
0002
0003
2000
,
3000
0002
0003
0200
,
0000
0000
0000
0000
,
0000
0000
0300
0010
,
0010
0010
0000
1000
,
0000
1000
0000
0000
,
0002
0000
0000
1003
,
0000
1000
0000
0100
,
0100
0100
0000
1000
,
0000
1000
0000
0000
,
0020
0000
0000
0130
,
0000
0001
0000
1000
,
1000
1000
0000
2000
,
0000
3000
0000
0010
,
0000
0010
0000
0100
,
0000
0200
0000
0301
,
0000
1001
0000
0000
;

//---------------dance-single - Novice----------------
#NOTES:
     dance-single:
     Ace Of Hearts (2008):
     Beginner:
     1:
     0.107,0.000,0.047,0.156,0.000:
0000
0000
0000
0000
,
0000
0000
0000
0000
,
0000
0000
0000
0000
,
0000
0000
0000
0000
,
0000
0000
0000
0000
,
0000
0000
0000
0000
,
0000
0000
0000
0000
,
0000
0000
0000
0000
,
0000
0000
0000
0000
,
0000
0000
0000
0000
,
2002
0000
0000
0000
,
3003
0000
0000
0000
,
0000
0000
0000
0000
,
0000
0000
0000
0020
,
0000
0000
0000
0000
,
0000
0000
0030
1000
,
0000
1000
0000
1000
,
0000
0000
0000
0000
,
2000
0000
0000
0000
,
0000
3000
0000
0001
,
0000
0001
0000
0001
,
0000
0000
0000
0000
,
0002
0000
0000
0000
,
0000
0003
0000
0100
,
0000
0100
0000
0100
,
0000
0000
0000
0010
,
0000
0010
0000
0020
,
0000
0000
0000
0030
,
0000
0000
0000
0110
,
0000
0000
0000
1000
,
0000
0000
0000
0001
,
0000
0000
0000
0200
,
0000
0000
0000
0000
,
0000
0000
0300
0010
,
0000
0010
0000
0010
,
0000
0000
0000
0000
,
0020
0000
0000
0000
,
0000
0030
0000
0100
,
0000
0100
0000
0100
,
0000
0000
0000
0000
,
0200
0000
0000
0000
,
0000
0300
0000
0001
,
0000
0001
0000
0001
,
0000
0000
0000
1000
,
0000
1000
0000
2000
,
0000
0000
0000
3000
,
0000
1001
0000
0000
;
