#TITLE:F-O-E to no Souguu;
#SUBTITLE:;
#ARTIST:Iosys;
#TITLETRANSLIT:;
#SUBTITLETRANSLIT:;
#ARTISTTRANSLIT:;
#GENRE:Silly J-Pop;
#CREDIT:Ace Of Hearts;
#BANNER:F-O-E! - bn.png;
#BACKGROUND:F-O-E! - bg.jpg;
#LYRICSPATH:;
#CDTITLE:Ace Of Hearts.png;
#MUSIC:F-O-E!.ogg;
#OFFSET:-0.480;
#SAMPLESTART:12.340;
#SAMPLELENGTH:12.000;
#SELECTABLE:YES;
#BPMS:0.000=180.000;
#STOPS:;
#BGCHANGES:0.250=F-O-E! Video.avi=1.000=0=0=0=StretchNoLoop====,
99999=-nosongbg-=1.000=0=0=0 // don't automatically add -songbackground-
;
#KEYSOUNDS:;

//---------------dance-single - Hard----------------
#NOTES:
     dance-single:
     Ace Of Hearts (2009):
     Hard:
     9:
     0.579,0.178,0.806,0.237,0.051: // measure 1
0000
0000
0000
0000
,  // measure 2
2M01
010M
3M01
0000
,  // measure 3
1M02
M100
1M03
0000
,  // measure 4
2M01
010M
3M01
0000
,  // measure 5
10M2
M010
10M3
0000
,  // measure 6
00M1
0010
M001
1000
010M
0010
0001
0100
,  // measure 7
0M10
1000
M100
0010
01M0
1000
0001
0100
,  // measure 8
M010
0100
00M1
1000
010M
0010
0001
1000
,  // measure 9
001M
0100
00M1
1000
010M
0010
0100
1000
,  // measure 10
0002
0000
0013
0100
1000
0000
0010
1000
,  // measure 11
00M1
0M01
M001
0000
,  // measure 12
1000
0001
0010
0001
1000
0010
1000
0000
,  // measure 13
00M1
0M01
M001
0000
,  // measure 14
0200
0000
0301
1000
0010
1000
0001
1000
,  // measure 15
001M
0M10
M010
0000
,  // measure 16
2000
0000
3100
0010
0001
1000
0010
0100
,  // measure 17
M001
0M01
00M1
0000
,  // measure 18
0200
0000
0301
0000
2000
0000
3010
1000
,  // measure 19
010M
M100
01M0
0000
,  // measure 20
0010
0001
2000
0000
3020
0000
1030
0001
,  // measure 21
M010
0M10
001M
0000
,  // measure 22
0011
0011
0000
0000
00MM
0000
1001
1001
,  // measure 23
0000
M00M
0000
0000
1010
1010
0020
0030
,  // measure 24
0110
0110
0000
0000
0MM0
0000
0101
0101
,  // measure 25
0000
0M0M
0000
0000
1001
1001
2000
3000
,  // measure 26
1100
1100
0000
0000
MM00
0000
0011
0011
,  // measure 27
0000
00MM
0000
0000
0101
0101
0200
0300
,  // measure 28
0110
0110
0000
0000
0MM0
0000
1010
1010
,  // measure 29
0000
0000
M0M0
0000
1001
1001
0002
0000
,  // measure 30
1003
0010
1000
0001
0010
0000
0100
1000
,  // measure 31
10M1
01M1
10M1
0000
,  // measure 32
2000
0000
3100
0010
0001
0010
0000
0010
,  // measure 33
0M11
1M01
0M11
0000
,  // measure 34
0001
0000
0100
0010
0000
0010
1000
0001
,  // measure 35
01M1
10M1
01M1
0000
,  // measure 36
0001
1000
0100
0010
0001
1000
0010
0100
,  // measure 37
01M1
10M1
01M1
0000
,  // measure 38
0004
4000
0000
0000
0000
0000
0000
0000
3003
0000
0000
0000
0000
0000
0000
0000
,  // measure 39
1M10
10M1
M101
0000
,  // measure 40
0004
0040
0000
0000
0000
0000
0000
0000
0033
0000
0000
0000
0000
0000
0000
0000
,  // measure 41
01M1
1M01
110M
0000
,  // measure 42
4000
0040
0000
0000
0000
0000
0000
0000
3030
0000
0000
0000
0000
0000
0000
0000
,  // measure 43
1M01
11M0
M101
0000
,  // measure 44
0004
0400
0000
0000
0000
0000
0000
0000
0303
0000
0000
0000
0000
0000
0000
0000
,  // measure 45
10M1
110M
0M11
0000
,  // measure 46
01M1
1M10
110M
0000
,  // measure 47
M011
11M0
1M10
0000
,  // measure 48
M101
011M
1M10
0000
,  // measure 49
110M
M110
0M11
0000
,  // measure 50
0000
0001
1000
0010
2000
0000
3001
0010
,  // measure 51
011M
11M0
M101
0000
,  // measure 52
0100
0010
0100
0001
0000
0001
0010
0100
,  // measure 53
11M0
1M10
01M1
0000
,  // measure 54
0000
0100
0010
0000
0010
1000
0001
0010
,  // measure 55
011M
11M0
0M11
0000
,  // measure 56
0001
0100
0010
2000
0000
3001
0010
0001
,  // measure 57
01M1
110M
1M10
0000
,  // measure 58
0000
0000
1000
0000
0100
0000
0010
0000
0100
0000
1000
0002
0000
0000
0103
0000
,  // measure 59
011M
01M1
110M
0000
,  // measure 60
1001
0001
0000
1000
0010
1000
0001
0000
,  // measure 61
0011
0002
0000
1003
0100
0010
0001
1000
,  // measure 62
00M1
M100
001M
M100
00M1
1M00
010M
M010
,  // measure 63
0M01
10M0
001M
1M00
00M1
M100
100M
01M0
,  // measure 64
M001
1M00
00M1
1M00
001M
M100
001M
1M00
,  // measure 65
00M1
M010
0M01
10M0
0M01
M100
100M
01M0
,  // measure 66
M001
1M00
00M1
M100
00M1
1M00
010M
10M0
,  // measure 67
0M10
100M
0M01
M010
0M01
M010
100M
0M10
,  // measure 68
M001
10M0
0M10
100M
0M01
M010
0M01
10M0
,  // measure 69
001M
1M00
00M1
1M00
00M1
M010
100M
0M10
,  // measure 70
0002
0000
1003
0100
0020
0000
0130
1000
,  // measure 71
1MM1
M11M
1MM1
0000
,  // measure 72
2000
3010
2000
3010
,  // measure 73
M11M
M1M1
11MM
0000
,  // measure 74
2000
3010
2000
3010
,  // measure 75
M11M
M1M1
11MM
0000
,  // measure 76
0200
0310
0200
0310
,  // measure 77
MM11
M1M1
1MM1
0000
,  // measure 78
4000
0004
0000
0000
0000
0000
0000
0000
3003
0000
0000
0000
0000
0000
0000
0000
,  // measure 79
1M10
M110
01M1
0000
,  // measure 80
0004
0040
0000
0000
0000
0000
0000
0000
0033
0000
0000
0000
0000
0000
0000
0000
,  // measure 81
110M
M110
0M11
0000
,  // measure 82
0004
0400
0000
0000
0000
0000
0000
0000
0303
0000
0000
0000
0000
0000
0000
0000
,  // measure 83
M11M
1M1M
11MM
0000
,  // measure 84
0400
0040
0000
0000
0000
0000
0000
0000
0330
0000
0000
0000
0000
0000
0000
0000
,  // measure 85
1000
0002
2000
0000
,  // measure 86
0010
0000
0000
0000
,  // measure 87
3003
0000
0000
0000
,  // measure 88
0000
0000
0000
0000
,  // measure 89
0000
0000
0000
0000
,  // measure 90
0000
0000
0000
0000
1000
0000
0000
0001
0000
0010
0000
0001
0000
0000
1000
0000
,  // measure 91
0000
0100
0000
0000
0000
0000
0000
0000
0000
0000
0000
0000
0000
0000
0000
0000
;

//---------------dance-single - Expert----------------
#NOTES:
     dance-single:
     Ace Of Hearts (2009):
     Challenge:
     11:
     0.805,0.392,0.727,1.000,0.510: // measure 1
0000
0000
0000
0000
,  // measure 2
200M
3100
M020
0031
002M
0130
1000
0001
,  // measure 3
020M
0310
02M0
0301
2M00
3100
0010
0100
,  // measure 4
2M00
3001
020M
0310
02M0
0301
0010
0001
,  // measure 5
200M
3010
M200
0301
0M20
0130
0010
0001
,  // measure 6
100M
0010
2000
0000
3M01
0010
0002
0000
10M3
0100
2000
0000
3001
0100
0002
0000
,  // measure 7
0M13
0100
2000
0000
3M01
0100
0020
0000
013M
0001
2000
0000
3100
0010
0002
0000
,  // measure 8
10M3
0100
0020
0000
013M
1000
0002
0000
M103
0010
2000
0000
3001
0100
0020
0000
,  // measure 9
013M
0001
2000
0000
31M0
0010
0002
0000
1M03
0010
0200
0000
0301
1000
0020
0030
,  // measure 10
2020
3030
1000
0100
0110
0000
0012
1003
,  // measure 11
1M1M
0000
02MM
0300
M1M1
0000
0000
0000
,  // measure 12
0110
0020
1030
0100
0120
0031
2000
3010
,  // measure 13
M11M
0000
MM02
0003
1MM1
0000
0000
0000
,  // measure 14
1200
0000
0310
0001
0201
0310
2000
3100
,  // measure 15
M11M
0000
MM02
0003
M1M1
0000
0000
0000
,  // measure 16
0210
0000
0302
1003
1200
0310
0002
0103
,  // measure 17
M11M
0000
2M0M
3000
11MM
0000
0000
0000
,  // measure 18
0210
0000
2000
0000
0001
0300
3002
0103
,  // measure 19
M11M
0000
20MM
3000
1M1M
0000
0000
0000
,  // measure 20
0101
0001
0010
0000
0120
0000
0130
1000
,  // measure 21
1M10
0000
M20M
0300
M1M1
0000
0000
0000
,  // measure 22
2002
0010
3003
0000
MMMM
0000
2200
0010
,  // measure 23
3300
0000
MMMM
0000
0012
1003
2002
3003
,  // measure 24
2200
0010
3300
0000
MMMM
0000
2002
0010
,  // measure 25
3003
0000
MMMM
0000
2001
3001
0202
0303
,  // measure 26
2200
0010
3300
0000
MMMM
0000
0022
1000
,  // measure 27
0033
0000
MMMM
0000
2001
3010
0220
0330
,  // measure 28
0202
1000
0303
0000
MMMM
0000
2020
0001
,  // measure 29
3030
0000
MMMM
0000
0210
0301
2002
3003
,  // measure 30
0102
1003
0100
0010
0012
0000
1003
0010
,  // measure 31
M21M
0000
00M2
0000
10M0
0303
0M0M
0000
,  // measure 32
1020
0000
0130
0001
0011
0010
0MM0
0100
,  // measure 33
210M
0000
0M02
0000
0010
3003
M00M
0000
,  // measure 34
1010
0000
0010
0110
0M0M
0001
0020
0130
,  // measure 35
21M0
0000
0M20
0000
0001
3030
M0M0
0000
,  // measure 36
2100
3001
0100
0001
0021
0130
2000
3001
,  // measure 37
M102
0000
0M20
0000
1000
0033
00MM
0000
,  // measure 38
0001
0100
0001
1000
0010
0100
0001
0010
0400
0000
0000
0000
0300
0000
0000
0000
,  // measure 39
1MMM
0M00
1MM0
0M00
1M00
0000
0000
0000
,  // measure 40
0001
0010
0100
1000
0001
0010
0100
0010
0004
0000
0000
0000
0003
0000
0000
0000
,  // measure 41
10M0
0M0M
1M0M
0M0M
10M0
0000
0000
0000
,  // measure 42
0001
0100
0010
0100
0001
1000
0100
0010
0400
0000
0000
0000
0300
0000
0000
0000
,  // measure 43
1MMM
0M00
1MM0
0M00
1MMM
0000
0000
0000
,  // measure 44
0001
0010
0100
0010
0001
1000
0100
1000
0040
0000
0000
0000
0030
0000
0000
0000
,  // measure 45
10M0
00M0
00M0
10M0
00M0
0000
10M0
0000
0000
0000
0000
0000
,  // measure 46
MMM1
M000
MM01
M000
M001
0000
0000
0000
,  // measure 47
0M01
M0M0
M0M1
M0M0
0M01
0000
0000
0000
,  // measure 48
MMM1
M000
MM01
M000
MMM1
0000
0000
0000
,  // measure 49
0M01
0M00
0M00
0M01
0M00
0000
0M01
0000
0000
0000
0000
0000
,  // measure 50
0000
0201
0310
1000
1200
0000
0310
0100
,  // measure 51
220M
0000
00M1
0000
001M
3300
MM00
0000
,  // measure 52
1001
0200
0310
1010
M0M0
0010
0200
0301
,  // measure 53
M202
0000
10M0
0000
M010
0303
0M0M
0000
,  // measure 54
0000
0001
0011
0MM0
0110
0100
1000
0020
,  // measure 55
020M
0000
M001
0000
100M
0330
0MM0
0000
,  // measure 56
0102
0013
0100
2100
0000
3001
0200
0302
,  // measure 57
2M00
0000
01M0
0000
0M10
3003
M00M
0000
,  // measure 58
0000
0000
1000
0000
1001
0000
0001
0000
0101
0000
0100
0020
0000
0000
2030
0000
,  // measure 59
02M0
0000
00M1
0000
001M
3300
MM00
0000
,  // measure 60
2001
3010
0000
0100
0102
1003
0200
0300
,  // measure 61
0110
0000
0002
0000
0000
0000
1003
0000
1010
0000
0010
0100
0001
1000
0100
0010
,  // measure 62
M001
0M00
10M0
000M
01M0
M000
00M1
0M00
M100
000M
10M0
0M00
00M1
1M00
001M
1M00
,  // measure 63
01M0
M000
0M10
000M
M001
00M0
010M
M000
011M
M000
0M10
000M
1M10
000M
10M0
0M00
,  // measure 64
110M
00M0
M110
000M
0M10
M000
0M01
00M0
100M
0M00
M010
000M
01M0
M001
01M0
001M
,  // measure 65
1M00
000M
00M1
0M00
001M
M000
00M1
0M00
01M1
M000
010M
00M0
M110
000M
0M10
M000
,  // measure 66
101M
0M00
10M1
0M00
M001
000M
M100
00M0
0M10
000M
10M0
0M00
M100
001M
M100
10M0
,  // measure 67
0M01
M000
010M
M000
0M10
000M
10M0
0M00
110M
00M0
M100
000M
M110
000M
M010
0M00
,  // measure 68
M011
0M00
10M1
0M00
100M
00M0
M010
000M
01M0
M000
0M01
00M0
100M
01M0
M010
0M01
,  // measure 69
01M0
M000
0M10
000M
10M0
0M00
M001
00M0
M101
00M0
010M
00M0
M110
000M
0M10
000M
,  // measure 70
2M10
0000
3001
0010
0210
0000
2300
0200
,  // measure 71
001M
0000
00M1
0000
001M
3300
MM00
0000
,  // measure 72
0102
0013
0012
0200
,  // measure 73
M010
0000
10M0
0000
M010
0303
0M0M
0000
,  // measure 74
2010
3001
0012
2000
,  // measure 75
0M10
0000
01M0
0000
0M10
3003
M00M
0000
,  // measure 76
2100
3001
0201
0020
,  // measure 77
M001
0000
100M
0000
M001
0330
0MM0
0000
,  // measure 78
1000
0100
1000
0001
0100
0010
1000
0100
0040
0000
0000
0000
0030
0000
0000
0000
,  // measure 79
MMM1
M000
MM10
M000
M001
0000
0000
0000
,  // measure 80
1000
0010
1000
0100
0010
0001
1000
0010
0400
0000
0000
0000
0300
0000
0000
0000
,  // measure 81
0M01
M0M0
M1M0
M0M0
0M01
0000
0000
0000
,  // measure 82
1000
0100
0010
0100
1000
0001
0100
0010
4000
0000
0000
0000
3000
0000
0000
0000
,  // measure 83
MMM1
M000
MM10
M000
MMM1
0000
0000
0000
,  // measure 84
1000
0010
0100
0001
0010
0100
1000
0001
0400
0000
0000
0000
0300
0000
0000
0000
,  // measure 85
0M10
0000
0M00
0000
0M00
0000
1M00
0000
0M00
0000
0000
0000
0M01
0000
0000
0100
0000
0000
0002
0000
0000
2000
0000
0000
,  // measure 86
0010
0000
0000
0000
,  // measure 87
3003
0000
0000
0000
,  // measure 88
0000
0000
0000
0000
,  // measure 89
0000
0000
0000
0000
,  // measure 90
0000
0000
0000
0000
2001
0000
0000
3100
0000
0010
0000
0110
0000
0000
2000
0000
,  // measure 91
0000
3010
0000
0000
0000
0000
0000
0000
0000
0000
0000
0000
0000
0000
0000
0000
;

//---------------dance-single - Medium----------------
#NOTES:
     dance-single:
     Ace Of Hearts (2009):
     Medium:
     7:
     0.347,0.107,0.008,0.245,0.020: // measure 1
0000
0000
0000
0000
,  // measure 2
M001
0100
0001
0000
,  // measure 3
100M
0100
1000
0000
,  // measure 4
M001
0010
0001
0000
,  // measure 5
100M
0010
1000
0000
,  // measure 6
M001
0000
1000
0000
0001
0010
0001
0000
,  // measure 7
10M0
0000
0010
0000
1000
0001
1000
0000
,  // measure 8
M010
0000
0100
0000
0010
1000
0010
0000
,  // measure 9
M100
0000
0001
0000
1000
0100
1000
0000
,  // measure 10
0001
0000
1000
0010
2000
0000
3001
0000
,  // measure 11
0010
01M0
0010
0000
,  // measure 12
0001
1000
0010
1000
0002
0000
0103
0000
,  // measure 13
0010
10M0
0010
0000
,  // measure 14
2000
0000
3001
0010
0001
1000
0020
0000
,  // measure 15
1030
M001
1000
0000
,  // measure 16
0001
0000
1000
0010
1000
0001
2000
0000
,  // measure 17
3001
001M
0001
0000
,  // measure 18
2000
3010
2000
3001
,  // measure 19
1000
M100
1000
0000
,  // measure 20
0001
0010
0001
0000
2000
0000
3001
0000
,  // measure 21
0100
0M10
0100
0000
,  // measure 22
0001
0001
0000
0000
000M
0000
1000
1000
,  // measure 23
0000
M000
0200
0320
,  // measure 24
0031
0001
0000
0000
000M
0000
1000
1000
,  // measure 25
0000
M000
0200
0320
,  // measure 26
0031
0001
0000
0000
000M
0000
0100
0100
,  // measure 27
0000
0M00
0020
2030
,  // measure 28
3001
0001
0000
0000
000M
0000
0010
0010
,  // measure 29
0000
00M0
0200
2300
,  // measure 30
3001
0010
0001
0000
2000
0000
3001
0100
,  // measure 31
M001
100M
M001
0000
,  // measure 32
2000
0000
3010
1000
0001
0000
0000
1000
,  // measure 33
0M01
010M
0M01
0000
,  // measure 34
1000
0000
0100
0010
0000
0000
0001
0000
,  // measure 35
10M0
M010
10M0
0000
,  // measure 36
0001
0100
0001
0000
1000
0000
0100
0010
,  // measure 37
M001
100M
M001
0000
,  // measure 38
4000
0000
3000
0000
,  // measure 39
M010
M010
M010
0000
,  // measure 40
0400
0000
0300
0000
,  // measure 41
0M01
0M01
0M01
0000
,  // measure 42
0040
0000
0030
0000
,  // measure 43
01M0
01M0
01M0
0000
,  // measure 44
4000
0000
3000
0000
,  // measure 45
M001
001M
01M0
0000
,  // measure 46
100M
M100
0M10
0000
,  // measure 47
M001
001M
01M0
0000
,  // measure 48
100M
M100
0M10
0000
,  // measure 49
M001
100M
M010
0000
,  // measure 50
0000
1000
0000
0100
0020
0000
0031
1000
,  // measure 51
01M0
1M00
M001
0000
,  // measure 52
1000
0010
1000
0001
0000
0000
1000
0100
,  // measure 53
1000
M001
001M
0000
,  // measure 54
0000
0001
1000
0000
0010
1000
0020
0000
,  // measure 55
1030
M001
001M
0000
,  // measure 56
0001
1000
0001
0020
0000
0000
0031
0100
,  // measure 57
M010
10M0
M001
0000
,  // measure 58
0000
1000
0010
0000
1000
0001
0000
0010
,  // measure 59
M001
100M
M010
0000
,  // measure 60
1000
0001
0000
0010
0001
1000
0001
0000
,  // measure 61
1000
0020
0000
1030
0001
0000
0000
0000
,  // measure 62
4000
0004
0000
0000
0000
0000
0000
0000
0000
0000
0000
0000
0000
0000
0000
0000
,  // measure 63
0000
0000
0000
0000
,  // measure 64
0000
0000
0000
0000
,  // measure 65
0000
0000
3003
0000
,  // measure 66
0040
0400
0000
0000
0000
0000
0000
0000
0000
0000
0000
0000
0000
0000
0000
0000
,  // measure 67
0000
0000
0000
0000
,  // measure 68
0000
0000
0000
0000
,  // measure 69
0000
0000
0330
0000
,  // measure 70
1000
0000
0100
0010
0001
0000
1000
0010
,  // measure 71
100M
M001
010M
0000
,  // measure 72
0002
1003
0002
1003
,  // measure 73
0010
10M0
M001
0000
,  // measure 74
0020
0130
0020
0130
,  // measure 75
0M10
00M1
010M
0000
,  // measure 76
0020
1030
0020
1030
,  // measure 77
M010
10M0
M100
0000
,  // measure 78
0040
0000
0030
0000
,  // measure 79
00M1
010M
0M10
0000
,  // measure 80
4000
0000
3000
0000
,  // measure 81
M100
0M10
00M1
0000
,  // measure 82
0400
0000
0300
0000
,  // measure 83
0M01
100M
M100
0000
,  // measure 84
0040
0000
0030
0000
,  // measure 85
00M1
100M
M010
0000
,  // measure 86
2002
0000
0000
0000
,  // measure 87
3003
0000
0000
0000
,  // measure 88
0000
0000
0000
0000
,  // measure 89
0000
0000
0000
0000
,  // measure 90
0000
0000
0000
0000
2000
0000
0000
3001
0000
0000
0000
0010
0000
0000
0100
0000
,  // measure 91
0000
1000
0000
0000
0000
0000
0000
0000
0000
0000
0000
0000
0000
0000
0000
0000
;

//---------------dance-single - Easy----------------
#NOTES:
     dance-single:
     Ace Of Hearts (2009):
     Easy:
     5:
     0.280,0.107,0.008,0.142,0.008: // measure 1
0000
0000
0000
0000
,  // measure 2
0001
0001
0001
0000
,  // measure 3
1000
1000
1000
0000
,  // measure 4
0010
0010
0010
0000
,  // measure 5
0100
0100
0100
0000
,  // measure 6
0001
0001
0001
0000
,  // measure 7
1000
1000
1000
0000
,  // measure 8
0100
0100
0100
0000
,  // measure 9
0010
0010
0010
0000
,  // measure 10
0001
0001
0001
0000
,  // measure 11
1000
1000
1M00
0000
,  // measure 12
0010
0010
0010
0000
,  // measure 13
1000
1000
100M
0000
,  // measure 14
0010
0010
0010
0000
,  // measure 15
0100
0100
M100
0000
,  // measure 16
0001
0001
0001
0000
,  // measure 17
0010
0010
0M10
0000
,  // measure 18
0001
0001
0001
0000
,  // measure 19
1000
1000
10M0
0000
,  // measure 20
0010
0010
0010
0000
,  // measure 21
0100
0100
M100
0000
,  // measure 22
00M2
0003
0000
0000
0000
0000
200M
3000
,  // measure 23
0000
0000
0010
0010
,  // measure 24
M020
0030
0000
0000
0000
0000
20M0
3000
,  // measure 25
0000
0000
0001
0001
,  // measure 26
M002
0003
0000
0000
0000
0000
002M
0030
,  // measure 27
0000
0000
01M0
0100
,  // measure 28
0200
0300
0000
0000
0000
0000
0M20
0030
,  // measure 29
0000
0000
0001
0001
,  // measure 30
0001
0000
1000
0000
,  // measure 31
0100
0100
M100
0000
,  // measure 32
0010
0010
0010
0000
,  // measure 33
0001
0001
00M1
0000
,  // measure 34
1000
0000
1000
0000
,  // measure 35
0010
0010
M010
0000
,  // measure 36
1000
1000
1000
0000
,  // measure 37
0001
0001
M001
0000
,  // measure 38
4000
0000
3000
0000
,  // measure 39
0001
0001
M001
0000
,  // measure 40
0040
0000
0030
0000
,  // measure 41
0001
0001
00M1
0000
,  // measure 42
0400
0000
0300
0000
,  // measure 43
0010
0010
0M10
0000
,  // measure 44
4000
0000
3000
0000
,  // measure 45
0001
0001
M001
0000
,  // measure 46
0100
0100
010M
0000
,  // measure 47
0010
0010
0M10
0000
,  // measure 48
1000
1000
10M0
0000
,  // measure 49
0001
0001
M001
0000
,  // measure 50
0000
0010
0010
0000
,  // measure 51
0001
0001
00M1
0000
,  // measure 52
1000
1000
1000
0000
,  // measure 53
0010
0010
M010
0000
,  // measure 54
0100
0000
0100
0000
,  // measure 55
0001
0001
0M01
0000
,  // measure 56
0010
0000
0010
0000
,  // measure 57
0100
0100
01M0
0000
,  // measure 58
0010
0000
0010
0000
,  // measure 59
0001
0001
00M1
0000
,  // measure 60
2000
3000
1000
0000
,  // measure 61
0010
0010
0010
0000
,  // measure 62
1000
1000
1000
1000
,  // measure 63
1000
1000
0001
1000
,  // measure 64
0100
0100
0100
0100
,  // measure 65
0100
0100
0100
0000
,  // measure 66
0010
0010
0010
0010
,  // measure 67
0010
0010
0001
1000
,  // measure 68
0001
0001
0001
0001
,  // measure 69
0001
0001
0001
0000
,  // measure 70
1000
1000
1000
0000
,  // measure 71
0100
0100
M100
0000
,  // measure 72
0020
0030
0020
0030
,  // measure 73
0001
0001
00M1
0000
,  // measure 74
2000
3000
2000
3000
,  // measure 75
0010
0010
M010
0000
,  // measure 76
0200
0300
0200
0300
,  // measure 77
0001
0001
0M01
0000
,  // measure 78
4000
0000
3000
0000
,  // measure 79
0010
0010
M010
0000
,  // measure 80
0400
0000
0300
0000
,  // measure 81
0001
0001
0M01
0000
,  // measure 82
0040
0000
0030
0000
,  // measure 83
0001
0001
00M1
0000
,  // measure 84
4000
0000
3000
0000
,  // measure 85
0001
0001
M001
0000
,  // measure 86
2002
0000
0000
0000
,  // measure 87
3003
0000
0000
0000
,  // measure 88
0000
0000
0000
0000
,  // measure 89
0000
0000
0000
0000
,  // measure 90
0000
0000
0000
0000
0002
0000
0000
0003
0000
0000
0000
0100
0000
0000
0100
0000
,  // measure 91
0000
0100
0000
0000
0000
0000
0000
0000
0000
0000
0000
0000
0000
0000
0000
0000
;

//---------------dance-single - Novice----------------
#NOTES:
     dance-single:
     Ace Of Hearts (2009):
     Beginner:
     2:
     0.194,0.071,0.071,0.403,0.000: // measure 1
0000
0000
0000
0000
,  // measure 2
0002
0000
0003
0000
,  // measure 3
0002
0000
0003
0000
,  // measure 4
0002
0000
0003
0000
,  // measure 5
0002
0000
0003
0000
,  // measure 6
0020
0000
0030
0000
,  // measure 7
0020
0000
0030
0000
,  // measure 8
0020
0000
0030
0000
,  // measure 9
0020
0000
0030
0000
,  // measure 10
0001
0000
0001
0000
,  // measure 11
0002
0000
0003
0000
,  // measure 12
1000
0000
1000
0000
,  // measure 13
2000
0000
3000
0000
,  // measure 14
0010
0000
0010
0000
,  // measure 15
0020
0000
0030
0000
,  // measure 16
1000
0000
1000
0000
,  // measure 17
2000
0000
3000
0000
,  // measure 18
0001
0000
0001
0000
,  // measure 19
0002
0000
0003
0000
,  // measure 20
1000
0000
1000
0000
,  // measure 21
2000
0000
3000
0000
,  // measure 22
2002
0000
0000
3003
,  // measure 23
0000
0000
0000
0000
,  // measure 24
0220
0000
0000
0330
,  // measure 25
0000
0000
0000
0000
,  // measure 26
2002
0000
0000
3003
,  // measure 27
0000
0000
0000
0000
,  // measure 28
0220
0000
0000
0330
,  // measure 29
0000
0000
0000
0000
,  // measure 30
0001
0000
0001
0000
,  // measure 31
0002
0000
0003
0000
,  // measure 32
1000
0000
1000
0000
,  // measure 33
2000
0000
3000
0000
,  // measure 34
0010
0000
0010
0000
,  // measure 35
0020
0000
0030
0000
,  // measure 36
1000
0000
1000
0000
,  // measure 37
2000
0000
3000
0000
,  // measure 38
0004
0000
0003
0000
,  // measure 39
0002
0000
0003
0000
,  // measure 40
4000
0000
3000
0000
,  // measure 41
2000
0000
3000
0000
,  // measure 42
0040
0000
0030
0000
,  // measure 43
0020
0000
0030
0000
,  // measure 44
0400
0000
0300
0000
,  // measure 45
0200
0000
0300
0000
,  // measure 46
0002
0000
0003
0000
,  // measure 47
0002
0000
0003
0000
,  // measure 48
0002
0000
0003
0000
,  // measure 49
0002
0000
0003
0000
,  // measure 50
1000
0000
1000
0000
,  // measure 51
2000
0000
3000
0000
,  // measure 52
0010
0000
0010
0000
,  // measure 53
0020
0000
0030
0000
,  // measure 54
1000
0000
1000
0000
,  // measure 55
2000
0000
3000
0000
,  // measure 56
0001
0000
0001
0000
,  // measure 57
0002
0000
0003
0000
,  // measure 58
0100
0000
0100
0000
,  // measure 59
0200
0000
0300
0000
,  // measure 60
0220
0000
0000
0000
,  // measure 61
0330
0000
0000
0000
,  // measure 62
1002
0000
0000
1000
,  // measure 63
0000
0000
0000
0000
,  // measure 64
1000
0000
0000
1000
,  // measure 65
0000
0000
0003
0000
,  // measure 66
2001
0000
0000
0001
,  // measure 67
0000
0000
0000
0000
,  // measure 68
0001
0000
0000
0001
,  // measure 69
0000
0000
3000
0000
,  // measure 70
0002
0000
0003
0000
,  // measure 71
0001
0001
0001
0000
,  // measure 72
2000
0000
3000
0000
,  // measure 73
1000
1000
1000
0000
,  // measure 74
0020
0000
0030
0000
,  // measure 75
0010
0010
0010
0000
,  // measure 76
0200
0000
0300
0000
,  // measure 77
0100
0100
0100
0000
,  // measure 78
0004
0000
0003
0000
,  // measure 79
1000
1000
1000
0000
,  // measure 80
4000
0000
3000
0000
,  // measure 81
0010
0010
0010
0000
,  // measure 82
0040
0000
0030
0000
,  // measure 83
0100
0100
0100
0000
,  // measure 84
0400
0000
0300
0000
,  // measure 85
0001
0001
0001
0000
,  // measure 86
2002
0000
0000
0000
,  // measure 87
3003
0000
0000
0000
,  // measure 88
0000
0000
0000
0000
,  // measure 89
0000
0000
0000
0000
,  // measure 90
0000
0000
0000
0000
0220
0000
0000
0000
0000
0000
0000
0330
0000
0000
0000
0000
;
