#TITLE:Electric Slide;
#SUBTITLE:;
#ARTIST:Marcia Griffiths;
#TITLETRANSLIT:;
#SUBTITLETRANSLIT:;
#ARTISTTRANSLIT:;
#GENRE:Dance;
#CREDIT:Ace Of Hearts;
#BANNER:Electric Slide - Bn.png;
#BACKGROUND:Electric Slide - Bg.jpg;
#LYRICSPATH:;
#CDTITLE:Ace Of Hearts.png;
#MUSIC:Electric Slide.ogg;
#OFFSET:-1.260;
#SAMPLESTART:14.320;
#SAMPLELENGTH:12.000;
#SELECTABLE:YES;
#BPMS:0.000=108.120,213.000=108.180;
#STOPS:;
#BGCHANGES:;
#KEYSOUNDS:;

//---------------dance-single - Ace Of Hearts (2008)----------------
#NOTES:
     dance-single:
     Ace Of Hearts (2008):
     Challenge:
     10:
     0.643,0.000,0.824,0.595,0.429: // measure 1
0000
0000
0000
0000
,  // measure 2
0000
0000
0000
0000
,  // measure 3
0000
0000
0011
0000
0010
0100
1000
0000
1001
0000
0000
1010
0000
0000
0000
0000
,  // measure 4
1001
0000
0100
0000
0110
0000
0010
1000
0000
1000
0001
0000
0010
0100
1000
0001
,  // measure 5
0101
0000
0100
0000
0010
1000
0100
0000
0110
0000
0000
0011
0000
0000
0000
0001
,  // measure 6
1001
0000
1000
0000
0100
0000
0010
0011
0000
0001
0000
0100
0000
0000
0000
0000
,  // measure 7
0101
0000
0100
0000
0000
0000
0120
0000
0000
0000
1030
0000
0001
0000
0010
0100
,  // measure 8
2100
3001
0100
0010
1000
0100
0110
0010
,  // measure 9
0011
0000
0001
0000
1000
0000
1200
0000
0000
0000
0310
0000
0001
0000
1000
0010
,  // measure 10
0210
0301
0010
0100
1100
1000
0001
0220
,  // measure 11
0000
0030
0301
0000
0000
0000
0011
0000
0000
0000
2200
0000
3300
0000
1000
0010
,  // measure 12
0210
0301
0000
1000
0010
0100
1001
0000
,  // measure 13
1000
0100
1000
0000
0001
0000
0100
0000
0010
0000
0100
0000
0001
0000
0010
0000
0001
1000
0001
0000
0100
0000
0010
0000
0100
0000
0001
0000
1000
0000
0100
0000
,  // measure 14
0010
0001
0010
0000
0100
0000
1000
0000
0001
0000
0100
0000
0010
0000
2010
0000
0000
0000
0001
0000
3000
0000
0010
0000
0120
0000
0130
0000
1000
0000
0000
0000
,  // measure 15
1001
0000
0002
0000
0103
0000
0120
0000
0000
0000
1030
0000
0100
0000
0010
0001
,  // measure 16
2001
0000
3010
0000
0110
0000
0100
0001
0100
0001
0100
0001
0000
0000
1000
0010
,  // measure 17
0100
0000
0001
0000
0000
0000
1002
0000
0000
0000
0013
0000
0100
0000
1000
0001
,  // measure 18
0201
0000
0310
0000
1010
0000
1000
0100
1000
0100
1000
0100
0000
0000
1000
0010
,  // measure 19
0210
0301
0000
0042
0000
0000
0000
0000
,  // measure 20
0033
0000
0000
0000
2100
0000
3001
0100
,  // measure 21
0120
0000
0000
0000
0000
0000
1030
0000
1002
0000
0000
0400
0000
0000
0000
0000
,  // measure 22
0000
0000
0000
0000
0303
0000
0000
0000
0000
0000
0200
0300
0110
0000
0010
0000
,  // measure 23
2010
0400
0000
0000
,  // measure 24
3300
0000
0000
0000
1002
0000
0000
0003
0101
0000
0100
0000
0110
0000
0010
0000
,  // measure 25
2010
3002
0040
0000
0000
0033
0110
0100
,  // measure 26
1100
0000
2000
3001
0000
0000
0000
0000
0001
0100
0020
0030
1010
0000
1000
0000
,  // measure 27
4100
3001
0000
0104
1003
0000
4100
3001
,  // measure 28
0000
0100
0110
0010
2010
3001
0010
0000
,  // measure 29
0220
0000
0330
0000
2200
0000
3300
0000
0101
0000
0110
0000
1010
0000
1000
0001
,  // measure 30
0011
0000
0010
0000
0110
0000
0100
1100
0000
1001
0000
0004
0000
0000
1003
0000
,  // measure 31
1020
0400
0000
0330
,  // measure 32
0000
0000
0102
0000
0000
1003
0000
0100
0110
0000
0100
0000
2000
0000
3001
0000
,  // measure 33
0201
0000
0320
0000
2000
0000
0000
0000
0000
0000
0030
0002
3000
0000
0103
0000
,  // measure 34
0110
0000
1000
1000
0000
0000
0000
0000
1010
0010
0100
0000
0001
0000
0000
0000
,  // measure 35
0012
1003
0000
2010
3001
0000
0012
1003
,  // measure 36
0000
0000
0000
0000
1200
0000
0000
0300
0110
0000
0010
0000
0011
0000
0001
0000
,  // measure 37
2002
0000
3003
0000
2020
0000
3030
0000
0102
0000
1003
0000
1010
0000
0010
0100
,  // measure 38
0101
0000
0100
0000
0110
0000
0010
1010
0000
1000
0000
0400
0000
0000
1300
0000
,  // measure 39
1002
0000
0103
0000
0120
0000
1030
0000
0000
0000
0001
0010
0210
0000
1300
0000
,  // measure 40
1001
0000
0001
0100
0001
0100
0002
0200
0000
0000
0010
0000
0010
0000
0303
0000
,  // measure 41
0110
0000
0010
0000
1000
0000
1200
0000
0000
0000
0310
0000
0001
0000
1000
0010
,  // measure 42
0210
0000
0301
0000
1001
0000
1000
0010
1000
0010
1000
0010
0000
0000
0000
0000
,  // measure 43
0101
0000
0001
0000
0011
0000
0010
0200
0000
0000
1300
0000
0000
0000
1000
0010
,  // measure 44
0210
0000
0301
0000
0000
0000
0100
0010
0100
0010
0100
0010
0000
0000
0000
0000
,  // measure 45
1000
0010
1000
0000
0001
0000
0010
0000
0100
0000
0010
0000
0001
0000
1000
0000
0001
0100
0001
0000
0100
0000
0010
0000
0100
0000
0001
0000
1000
0000
0100
0000
,  // measure 46
0010
0100
0010
0000
0001
0000
1000
0000
0001
0000
0100
0000
0010
0000
2010
0000
0000
0000
3001
0000
0000
0000
0001
0000
0021
0000
0130
0000
1000
0000
0000
0000
,  // measure 47
1001
0000
0002
0000
0103
0000
0120
0000
0000
0000
1030
0000
0000
0000
1000
0100
,  // measure 48
0120
0000
0031
0000
0000
0000
1000
0100
1000
0100
1000
0100
0000
0000
1000
0001
,  // measure 49
0021
0000
0130
0000
0000
0000
2100
0000
0000
0000
3010
0000
0100
0000
0001
1000
,  // measure 50
1020
0000
0130
0000
1010
0000
1000
0001
1000
0001
1000
0001
0000
0000
0100
0010
,  // measure 51
2010
3002
0000
0400
0000
0000
0000
0000
,  // measure 52
0303
0000
0000
0000
1020
0000
0230
0301
,  // measure 53
0021
0000
0000
0000
0000
0000
0130
0000
2100
0000
0000
0004
0000
0000
0000
0000
,  // measure 54
0000
0000
0000
0000
3003
0000
0000
0000
0000
0000
0000
0000
0000
0000
0000
1000
,  // measure 55
0100
0000
0000
1000
0100
0000
0000
2000
0200
0000
0000
0000
0001
0300
3000
0001
,  // measure 56
0100
0000
0000
0001
0100
0000
0000
0002
0200
0000
0000
0000
1000
0300
0003
1000
,  // measure 57
0100
0000
0000
1000
0100
0000
0000
2000
0200
0000
0000
0000
0001
0000
0300
3000
,  // measure 58
0010
0000
0010
0000
0220
0000
1001
0330
,  // measure 59
0100
0000
0100
0000
0220
0000
1001
0330
,  // measure 60
0020
0000
0100
0030
0200
0000
0010
0300
,  // measure 61
0001
1000
0100
0110
,  // measure 62
0002
0000
0000
0000
0000
1003
1001
0100
,  // measure 63
0102
0000
4000
0000
0000
0000
0000
3003
,  // measure 64
0000
0000
1010
0000
0000
0010
0000
0100
0102
0000
1003
0000
1200
0000
0310
0000
,  // measure 65
0210
2300
0020
0000
3000
0130
0001
1000
,  // measure 66
0001
0000
0101
0000
0110
0020
1030
0000
,  // measure 67
2010
0000
3100
0000
0000
0000
0012
0000
0103
0000
0000
0000
0220
0330
1001
0000
,  // measure 68
0000
0000
0000
0000
0002
0000
0000
0003
0012
0000
1003
0000
0100
0000
1000
0000
,  // measure 69
2020
0000
3030
0000
0220
0000
0330
0000
0102
0000
1003
0000
0010
0000
1000
0100
,  // measure 70
0110
0000
0100
0000
1100
0000
1000
1001
0000
0001
0000
0400
0000
0000
0300
0000
,  // measure 71
0000
0000
0110
0000
0010
1000
0100
0000
0110
0000
0000
0011
0000
0000
0000
0000
,  // measure 72
0101
0000
0100
0000
0110
0000
0010
1000
0000
0000
0001
0100
1000
0100
0001
1000
,  // measure 73
0000
0000
1010
0000
0010
0100
0001
0000
1001
0000
0000
0011
0000
0000
0000
0100
,  // measure 74
0110
0000
0100
0000
1100
0000
1000
1001
0000
0001
0000
0001
1000
0010
0100
0001
,  // measure 75
0000
0000
0011
0000
0010
0100
1000
0000
1100
0000
0000
1010
0000
0000
0000
0000
,  // measure 76
0000
0000
0000
0000
0000
0000
0000
0000
1001
0000
0001
0000
0011
0000
0010
0100
,  // measure 77
0000
0000
1100
0000
1000
0001
0100
0000
0110
0000
0000
1001
0000
0000
0000
1000
,  // measure 78
1010
0000
0010
0000
0110
0000
0100
0101
0000
0001
0000
0040
0000
0000
0030
0000
,  // measure 79
0110
0000
0100
0000
0000
0000
2100
0000
0000
0000
3010
0000
0100
0000
0001
1000
,  // measure 80
1002
0000
0013
0000
0000
0000
0100
1000
0100
1000
0100
1000
0000
0000
0000
0000
,  // measure 81
1010
0000
0010
0000
0100
0000
0102
0000
0000
0000
0013
0000
0100
0000
1000
0010
,  // measure 82
0210
0000
0301
0000
0000
0000
0100
0010
0100
0010
0100
0010
0000
0000
2020
0000
,  // measure 83
3030
0000
0000
0101
0000
0000
0220
0000
0300
0000
2000
0000
0030
0000
3001
0100
,  // measure 84
0120
0000
1030
0000
0100
0000
0010
0001
0010
0001
0010
0001
0000
0000
0000
0000
,  // measure 85
1000
0010
1000
0000
0100
0000
0010
0000
0001
0000
1000
0000
0010
0000
1000
0000
0001
0010
0001
0000
1000
0000
0100
0000
1000
0000
0001
0000
0100
0000
0001
0000
,  // measure 86
0010
0100
0010
0000
0001
0000
1000
0000
0010
0000
0100
0000
0001
0000
2001
0000
0000
0000
3010
0000
0000
0000
0100
0000
0102
0000
1003
0000
0100
0000
0000
0000
,  // measure 87
0110
0000
0010
0000
0001
0000
2001
0000
0000
0000
3010
0000
0000
0000
0100
0001
,  // measure 88
2001
0000
3100
0000
0000
0000
0010
0100
0010
0100
0010
0100
0000
0000
1000
0000
,  // measure 89
1002
0000
0103
0000
0000
0000
0120
0000
0000
0000
1030
0000
0000
0000
1000
0001
,  // measure 90
0021
0000
0130
0000
0000
0000
1000
0010
0001
0010
1000
0010
0000
0000
1000
0100
,  // measure 91
0120
0032
0000
4000
0000
0000
0000
0000
,  // measure 92
3003
0000
0000
0000
1020
0000
0130
0001
,  // measure 93
0102
0000
0000
0000
0000
0000
0013
0000
0200
0000
0000
4000
0000
0000
0000
0000
,  // measure 94
0000
0000
3300
0000
0001
0101
0110
0000
,  // measure 95
1001
0000
0000
0000
;

//---------------dance-single - Ace Of Hearts (2008)----------------
#NOTES:
     dance-single:
     Ace Of Hearts (2008):
     Hard:
     8:
     0.395,0.000,0.119,0.424,0.229:
0000
0000
0000
0000
,
0000
0000
0000
0000
,
0000
0000
0001
0000
1000
0010
1000
0000
0002
0000
0000
0013
0000
0000
0000
0000
,
0001
0000
0100
0000
0001
0000
1000
0100
0000
0000
0000
0000
0000
0000
0000
0000
,
1000
0000
0010
0000
0100
0001
0100
0000
0002
0000
0000
0013
0000
0000
0000
0001
,
1000
0000
0010
0000
0100
0000
0001
1000
0000
0001
0000
0100
0000
0000
0000
0000
,
0001
0000
1000
0000
0000
0000
0002
0000
0000
0000
0013
0000
0000
0000
0100
1000
,
0200
0310
0000
0000
0000
0000
0000
0000
,
0100
0000
1000
0000
0001
0000
0200
0000
0000
0000
0310
0000
0000
0000
0010
1000
,
0020
0130
0000
0000
0000
0000
0000
0220
,
0000
0300
1030
0000
0000
0000
1001
0000
0000
0000
0200
0000
0300
0000
1000
0001
,
2000
3010
0000
0000
0000
0000
0000
0000
,
1000
0100
1000
0000
0001
0000
0100
0000
0010
0100
0010
0000
1000
0000
0001
0000
,
0010
0001
0010
0000
0100
0000
1000
0001
0000
0100
0000
0001
1000
0001
0100
0000
,
0010
0000
0100
0000
0001
0000
2000
0000
0000
0000
3010
0000
0000
0000
1000
0100
,
2000
0000
3001
0000
0000
0000
0400
0004
0000
0000
0000
0303
0000
0000
0100
0000
,
0010
0000
0100
0000
0000
0000
0201
0000
0000
0000
0310
0000
0000
0000
1000
0001
,
2000
0000
3100
0000
0000
0000
4000
0004
0000
0000
0000
3003
0000
0000
1000
0001
,
0200
0301
0000
0022
0000
0000
0000
0000
,
0033
0000
0000
0000
0002
0000
1003
0010
,
0200
0000
0000
0301
4000
0000
0000
0000
,
0000
0000
3000
0000
0000
0010
0100
0001
,
2000
3400
0000
0000
,
0300
0000
2000
0000
3010
0100
0001
1000
,
0100
0010
0002
0000
0000
0000
0003
0000
,
0000
0000
0000
0000
0000
2000
3001
0100
,
0040
0000
0000
0030
0000
0000
0400
0000
0000
0300
0000
0000
0040
0000
0000
0030
,
0000
1000
0001
0100
0010
0100
0001
0000
,
1002
2003
0020
0000
,
3030
0000
0000
0000
0020
1030
0002
1003
,
0020
0430
0000
0300
,
0000
0000
0101
0000
0000
0001
0000
1000
0010
0000
0100
0000
0001
0000
1000
0000
,
0001
0100
0020
0000
0000
0000
0030
0000
,
0000
0000
0000
0000
0000
0200
0301
0000
,
2000
0000
0100
0000
0000
3000
0002
0000
0100
0000
0000
0003
2000
0000
0100
0000
,
0000
3000
0000
0000
0020
0000
0000
0000
0130
0000
0001
0000
1000
0000
0001
0000
,
0020
0130
2200
0000
,
3300
0000
0000
0000
0000
0000
0000
1000
,
0020
0000
0130
0000
0002
0000
0013
0000
0000
0000
0100
0010
0200
0000
1300
0000
,
0000
0000
0004
0040
0000
0000
0000
0033
0000
0000
0000
0000
0000
0000
0000
0000
,
0010
0000
0100
0000
1000
0000
0200
0000
0000
0000
0310
0000
0000
0000
0001
1000
,
0002
0000
0103
0000
0000
0000
0040
0400
0000
0000
0000
0330
0000
0000
0000
0000
,
0001
0000
1000
0000
0100
0000
1000
0002
0000
0000
0013
0000
0000
0000
0100
1000
,
0200
0000
0310
0000
0000
0000
0004
4000
0000
0000
0000
3003
0000
0000
0000
0000
,
0001
0100
0001
0000
0010
0000
0100
0000
1000
0100
1000
0000
0001
0000
0100
0000
,
0010
0100
0010
0000
1000
0000
0001
0100
0000
0010
0000
1000
0001
1000
0100
0000
,
1000
0000
0001
0000
0100
0000
0002
0000
0000
0000
0013
0000
0000
0000
0001
1000
,
0200
0000
0310
0000
0000
0000
0400
4000
0000
0000
0000
3300
0000
0000
0001
0000
,
0010
0000
0100
0000
0000
0000
2100
0000
0000
0000
3001
0000
0000
0000
0100
0001
,
0200
0000
0310
0000
0000
0000
0400
0004
0000
0000
0000
0303
0000
0000
0100
0010
,
0200
0310
0000
2020
0000
0000
0000
0000
,
3030
0000
0000
0000
2001
0000
3100
0010
,
0002
0000
0000
1003
0400
0000
0000
0000
,
0000
0000
0000
0000
0300
0000
0000
0000
0000
0000
0000
0000
0000
0000
0000
1000
,
0100
0000
0000
1000
0100
0000
0000
1000
0100
0000
0000
0000
1001
0000
0000
0001
,
0100
0000
0000
0001
0100
0000
0000
0001
0100
0000
0000
0000
1001
0000
0000
1000
,
0100
0000
0000
1000
0100
0000
0000
1000
0100
0000
0000
0000
0110
0000
0000
0000
,
0010
0010
0010
0110
,
0100
0100
0100
0110
,
0020
0130
0200
0310
,
0001
1000
0010
0110
,
0200
0000
0000
0000
0300
0001
0010
0100
,
2000
0000
3040
0000
0000
0000
0000
0030
,
0000
0000
0200
0000
0000
0301
0000
1000
0100
0000
0010
0000
0001
0000
1000
0000
,
0010
0100
0002
0000
0000
0003
0000
0000
,
0000
0000
0000
0000
0000
2000
3100
0000
,
2000
0000
0010
0000
0000
3000
0002
0000
0010
0000
0000
0003
2000
0000
0010
0000
,
0000
3000
0000
0000
0020
0000
0000
0000
0130
0000
0001
0000
1000
0000
0100
0000
,
0120
0031
0202
0000
,
0303
0000
0000
0000
,
0001
0000
0010
0000
0001
1000
0001
0000
0200
0000
0000
0310
0000
0000
0000
0000
,
1000
0000
0100
0000
1000
0000
0001
0100
0000
0000
0004
4000
0000
0000
0000
3003
,
0000
0000
0010
0000
1000
0001
1000
0000
0200
0000
0000
0310
0000
0000
0000
0100
,
1000
0000
0001
0000
0100
0000
0001
1000
0000
0010
0000
0100
0000
0001
0100
0001
,
0000
0000
1000
0000
0010
0100
0010
0000
2000
0000
0000
3001
0000
0000
0000
0000
,
0000
0000
0000
0000
0000
0000
0000
0000
0010
0000
0100
0000
1000
0000
0001
0100
,
0000
0000
0010
0000
1000
0001
1000
0000
0200
0000
0000
0310
0000
0000
0000
0001
,
1000
0000
0010
0000
0100
0000
0001
1000
0000
0100
0000
2000
0000
0000
3000
0000
,
0001
0000
0100
0000
0000
0000
0020
0000
0000
0000
1030
0000
0000
0000
0010
0100
,
0002
0000
1003
0000
0000
0000
0004
0400
0000
0000
0000
0303
0000
0000
0000
0000
,
0010
0000
1000
0000
0001
0000
0020
0000
0000
0000
0130
0000
0000
0000
1000
0001
,
0020
0000
0130
0000
0000
0000
4000
0400
0000
0000
0000
3300
0000
0000
0220
0000
,
0330
0000
0000
1001
0000
0000
0110
0000
0000
0000
2002
0000
3003
0000
0001
0100
,
0002
0000
0013
0000
0000
0000
0004
4000
0000
0000
0000
3003
0000
0000
0000
0000
,
0001
0100
0001
0000
1000
0000
0010
0000
0100
0010
0100
0000
0001
0000
1000
0000
,
0100
1000
0100
0000
0010
0000
0001
1000
0000
0100
0000
1000
0001
1000
0010
0000
,
0100
0000
0001
0000
0100
0000
0020
0000
0000
0000
1030
0000
0000
0000
0001
0010
,
0200
0000
0310
0000
0000
0000
0004
0040
0000
0000
0000
0033
0000
0000
0001
0000
,
1000
0000
0010
0000
0000
0000
0210
0000
0000
0000
0301
0000
0000
0000
1000
0010
,
0200
0000
0310
0000
0000
0000
4000
0040
0000
0000
0000
3030
0000
0000
1000
0001
,
0200
0310
0000
4000
0000
0000
0000
0000
,
3000
0000
0000
0000
1200
0000
0310
0001
,
2000
0000
0000
3001
0400
0000
0000
0000
,
0000
0000
0300
0000
0000
0010
0010
0000
,
1001
0000
0000
0000
;

//---------------dance-single - Ace Of Hearts (2008)----------------
#NOTES:
     dance-single:
     Ace Of Hearts (2008):
     Medium:
     6:
     0.245,0.000,0.014,0.276,0.040:
0000
0000
0000
0000
,
0000
0000
0000
0000
,
0000
0000
0001
0000
1000
0000
0000
0000
0200
0000
0000
0310
0000
0000
0000
0000
,
0001
0000
1000
0000
0001
0000
0000
0100
0000
0000
0000
0000
0000
0000
0000
0000
,
0000
0000
0010
0000
1000
0000
0000
0000
0002
0000
0000
0013
0000
0000
0000
0000
,
0001
0010
0100
0000
2000
0000
3000
0000
,
0001
1000
0000
0002
0000
0013
0000
0001
,
1000
0001
0000
0000
0000
0000
0000
0000
,
1000
0010
0000
2000
0000
3001
0000
0100
,
0010
0100
0000
0000
0000
0000
0000
2002
,
0000
0000
0000
3003
0000
0000
0000
1000
,
0001
1000
0000
0000
0000
0000
0000
0000
,
0004
0400
0000
0000
0000
0000
0000
0000
0000
0000
0000
0000
0000
0000
0000
0000
,
0000
0000
0303
1000
,
0010
0100
0000
0002
0000
1003
0000
0001
,
0100
0000
0001
0000
0000
0000
4000
0000
0000
0000
0000
3000
0000
0000
0000
0000
,
0001
0100
0000
0002
0000
1003
0000
1000
,
0010
0000
1000
0000
0000
0000
0004
0000
0000
0000
0000
0003
0000
0000
1000
0000
,
0010
1000
0000
0200
0000
0000
0000
0000
,
0300
0000
1000
0001
,
0020
0000
0200
0000
,
0330
0000
0000
0000
0000
1000
0001
0000
,
2000
3200
0000
0000
,
0300
0000
1000
0000
0001
0100
0001
0000
,
1000
0010
2000
0000
0000
0000
3000
0000
,
0000
0000
0000
0000
0000
0001
0010
0000
,
0200
1300
0000
0002
0103
0000
0002
1003
,
0000
1000
0010
0000
0100
0000
0001
0000
,
0010
0100
2000
0000
,
3000
0000
0000
0000
0001
0010
0001
0000
,
0020
0230
0000
0300
,
0000
0000
1000
0000
0000
0001
0000
0000
0100
0000
0000
0000
0001
0000
0000
0000
,
1000
0020
0000
0030
,
0000
0000
0000
0000
0000
1000
0100
0000
,
0020
0130
0000
0200
0310
0000
0020
0130
,
0000
0000
2000
0000
3001
0000
1000
0010
,
0200
0301
2000
0000
,
3000
0000
0000
0000
0000
0000
0000
0001
,
0100
0000
0002
1003
0000
0100
1000
0100
,
0000
0000
0040
0000
0000
0000
0000
0030
0000
0000
0000
0000
0000
0000
0000
0000
,
0001
1000
0000
0020
0000
0130
0000
0001
,
1000
0000
0001
0000
0000
0000
0400
0000
0000
0000
0000
0300
0000
0000
0000
0000
,
0001
0000
0100
0000
0001
0000
0000
2000
0000
0000
3010
0000
0000
0000
0100
0000
,
0001
0000
0100
0000
0000
0000
0004
0000
0000
0000
0000
0003
0000
0000
0000
0000
,
4000
0400
0000
0000
0000
0000
0000
0000
0000
0000
0000
0000
0000
0000
0000
0000
,
0000
0000
3300
1000
,
1000
0010
0000
0200
0000
0301
0000
1000
,
0010
1000
0000
0004
0000
0003
0000
0000
,
0100
0001
0000
2000
0000
3100
0000
0010
,
0001
0000
0010
0000
0000
0000
0400
0000
0000
0000
0000
0300
0000
0000
1000
0000
,
0001
1000
0000
0020
0000
0000
0000
0000
,
0030
0000
1000
0001
,
0020
0000
0230
0000
,
0000
0300
0000
0000
,
1000
1000
1000
0000
,
0001
0001
0001
0000
,
1000
1000
1000
0000
,
0010
0010
0010
0000
,
0100
0100
0100
0000
,
0020
0130
0200
0310
,
1000
0001
0010
0100
,
2000
0000
0000
0000
3000
0001
0010
0000
,
0002
2000
0000
3003
,
0000
0000
1000
0000
0000
0001
0000
0000
0100
0000
0000
0000
0001
0000
0000
0000
,
1000
0000
0020
0000
0000
0030
0000
0000
,
0000
0000
0000
0000
0000
0100
0001
0000
,
2000
3001
0000
0002
1003
0000
2000
3001
,
0000
0000
0001
0000
1000
0001
0100
0001
,
0020
0130
2000
0000
,
3000
0000
0000
0000
,
0000
0000
0001
0000
1000
0000
0000
0000
0001
0000
0000
0010
0000
0000
0000
0000
,
0100
0000
0000
0000
1000
0000
0000
0001
0000
0000
0040
0000
0000
0000
0000
0030
,
0000
0000
0100
0000
0010
0000
0000
0000
0001
0000
0000
1000
0000
0000
0000
0000
,
0001
0000
0100
0000
0001
0000
0000
1000
0000
0000
0000
0000
0100
0000
0000
0000
,
0000
0000
1000
0000
0001
0000
0000
0000
0100
0000
0000
0010
0000
0000
0000
0000
,
0000
0000
0000
0000
0000
0000
0000
0000
1000
0000
0001
0000
1000
0000
0000
0100
,
0000
0000
1000
0000
0001
0000
0000
0000
0200
0000
0000
0310
0000
0000
0000
0000
,
0100
0000
0001
0000
0100
0000
0000
0010
0000
0000
0000
0000
1000
0000
0000
0000
,
0001
0100
0000
0002
0000
0013
0000
0100
,
1000
0000
0001
0000
0000
0000
0400
0000
0000
0000
0000
0300
0000
0000
0000
0000
,
0001
1000
0000
0020
0000
0130
0000
0001
,
1000
0000
0100
0000
0000
0000
0040
0000
0000
0000
0000
0030
0000
0000
0220
0000
,
0000
0000
0000
0330
0000
0000
0000
0100
,
1000
0000
0001
0000
0000
0000
4000
0000
0000
0000
0000
3000
0000
0000
0000
0000
,
0040
0400
0000
0000
0000
0000
0000
0000
0000
0000
0000
0000
0000
0000
0000
0000
,
0000
0000
0330
0100
,
0010
0100
0000
0002
0000
1003
0000
0100
,
0010
0000
0001
0000
0000
0000
0400
0000
0000
0000
0000
0300
0000
0000
0001
0000
,
1000
0000
0000
0200
0000
0310
0000
0001
,
1000
0000
0010
0000
0000
0000
0400
0000
0000
0000
0000
0300
0000
0000
0001
0000
,
0100
0010
0000
2000
0000
0000
0000
0000
,
3000
0000
0002
1003
,
0020
0000
0230
0000
,
0000
0300
0000
0010
,
1001
0000
0000
0000
;

//---------------dance-single - Ace Of Hearts (2008)----------------
#NOTES:
     dance-single:
     Ace Of Hearts (2008):
     Easy:
     4:
     0.161,0.000,0.105,0.286,0.000:
0000
0000
0000
0000
,
0000
0000
0000
0000
,
0000
0001
0001
0000
,
1000
1000
1000
0000
,
0100
0100
0100
0000
,
0010
0010
0010
0000
,
0001
0000
0001
0000
,
1001
0000
0000
0000
,
1000
0000
1000
0000
,
1001
0000
0000
0000
,
0220
0000
0330
0000
,
1001
0000
0000
0000
,
4000
0000
0000
0000
,
0000
0000
3000
0000
,
0100
0100
0100
0000
,
0110
0000
0000
0200
0000
0300
0000
0000
,
0010
0000
0010
0000
,
0110
0000
0000
0020
0000
0030
0000
0000
,
2002
0000
3003
0000
,
0000
0000
0110
0000
,
2002
0000
0000
0000
,
3003
0000
0000
0000
,
0002
0003
0000
0000
,
0000
0000
1000
0000
,
2000
0000
3000
0000
,
0000
0000
0000
0000
,
0020
0030
0000
0020
0030
0000
0020
0030
,
0000
0000
0000
0000
,
0100
0100
0200
0000
,
0300
0000
0001
0001
,
0002
0000
0003
0000
,
0000
1000
1000
0000
,
2000
0000
3000
0000
,
0000
0000
0000
0000
,
0001
0001
0000
1000
1000
0000
0001
0001
,
0000
1000
1000
0001
,
0001
0100
0200
0000
,
0300
0000
0000
0000
,
0001
0001
0000
1001
,
0000
0200
0000
0300
0000
0000
0000
0000
,
1000
0000
1000
0000
,
1001
0000
0000
0020
0000
0030
0000
0000
,
0100
0100
0100
0000
,
0110
0000
0000
0002
0000
0003
0000
0000
,
0400
0000
0000
0000
,
0000
0000
0300
0000
,
0001
0000
1000
0000
,
1100
0000
0000
0200
0000
0300
0000
0000
,
0010
0000
0010
0000
,
0011
0000
0000
0002
0000
0003
0000
0000
,
1000
0000
2000
0000
,
3000
0000
0001
0000
,
0002
0000
0003
0000
,
0000
0000
0000
0000
,
2000
0000
0000
3000
,
0002
0000
0000
0003
,
2000
0000
0000
3000
,
0020
0000
0000
0030
,
0200
0000
0000
0300
,
0020
0030
0200
0300
,
0001
0000
1000
0000
,
0200
0000
0300
0000
,
2000
3000
0000
0000
,
0000
0001
0001
0000
,
0200
0000
0300
0000
,
0000
0000
0000
0010
,
1000
1000
0000
0001
0001
0000
0010
0010
,
0000
0001
0001
1000
,
1000
0010
0020
0000
,
0030
0000
0000
0000
,
0100
0000
0000
0000
0100
0000
0000
0000
0200
0000
0000
0300
0000
0000
0000
0000
,
0001
0000
0000
0000
0002
0000
0000
0003
0000
0000
4000
0000
0000
0000
0000
3000
,
0000
0000
0000
0000
0100
0000
0000
0000
0200
0000
0000
0300
0000
0000
0000
0000
,
0010
0010
0020
0030
,
0000
0000
0000
0000
0100
0000
0000
0000
0200
0000
0000
0300
0000
0000
0000
0000
,
0000
0000
1000
1000
,
1000
0000
0000
0000
0001
0000
0000
0000
0002
0000
0000
0003
0000
0000
0000
0000
,
0220
0000
0000
0330
,
0001
0000
0001
0000
,
2002
0000
3003
0000
0000
0000
0400
0000
0000
0000
0000
0300
0000
0000
0000
0000
,
0010
0000
0010
0000
,
0220
0000
0330
0000
0000
0000
4000
0000
0000
0000
0000
3000
0000
0000
0000
0000
,
0220
0000
0330
0000
,
2002
0000
3003
0000
0000
0000
0400
0000
0000
0000
0000
0300
0000
0000
0000
0000
,
0040
0000
0000
0000
,
0000
0000
0030
0000
,
2000
0000
3000
0000
,
2002
0000
3003
0000
0000
0000
0400
0000
0000
0000
0000
0300
0000
0000
0000
0000
,
0020
0000
0030
0000
,
0220
0000
0330
0000
0000
0000
0004
0000
0000
0000
0000
0003
0000
0000
0000
0000
,
1000
0000
2000
0000
,
3000
0000
0001
0000
,
0020
0000
0200
0000
,
0000
0330
0000
0000
,
1001
0000
0000
0000
;

//---------------dance-single - Ace Of Hearts (2008)----------------
#NOTES:
     dance-single:
     Ace Of Hearts (2008):
     Beginner:
     1:
     0.099,0.000,0.114,0.176,0.000:
0000
0000
0000
0000
,
0000
0000
0000
0000
,
0001
0000
0000
0000
,
0001
0000
0000
0000
,
1000
0000
0000
0000
,
1000
0000
0000
0000
,
0001
0000
0000
0000
,
1001
0000
0000
0000
,
1000
0000
0000
0000
,
1001
0000
0000
0000
,
0010
0000
0000
0000
,
1001
0000
0000
0000
,
0200
0000
0000
0000
,
0000
0000
0300
0000
,
0010
0000
0000
0000
,
0110
0000
0000
0000
,
0100
0000
0000
0000
,
0110
0000
0000
0000
,
0001
0000
0000
0000
,
0000
0000
2002
0000
,
3003
0000
0000
0000
,
0000
0000
0000
0000
,
0001
0000
0000
0000
,
0000
0000
0000
0000
,
1000
0000
0000
0000
,
0000
0000
0000
0000
,
0100
0000
0100
0000
,
0100
0000
0000
0000
,
0010
0000
0010
0000
,
0010
0000
0000
0000
,
0001
0000
0000
0000
,
0000
0000
0000
0000
,
0010
0000
0000
0000
,
0000
0000
0000
0000
,
0100
0000
0100
0000
,
0100
0000
0000
0000
,
2200
0000
3300
0000
,
0000
0000
0000
0000
,
0001
0000
0000
2002
,
0000
3000
0003
0000
0000
0000
0000
0000
,
0100
0000
0000
0000
,
0220
0000
0000
0300
0030
0000
0000
0000
,
0001
0000
0000
0000
,
2002
0000
0000
3000
0003
0000
0000
0000
,
0020
0000
0000
0000
,
0000
0000
0030
0000
,
0001
0000
0000
0000
,
2002
0000
0000
0003
3000
0000
0000
0000
,
0010
0000
0000
0000
,
0220
0000
0000
0030
0300
0000
0000
0000
,
0001
0000
0000
0000
,
0000
0000
0220
0000
,
0330
0000
0000
0000
,
0000
0000
0000
0000
,
1000
0000
0000
0000
,
0001
0000
0000
0000
,
1000
0000
0000
0000
,
0010
0000
0000
0000
,
0100
0000
0000
0000
,
0010
0000
0100
0000
,
0001
0000
1000
0000
,
0001
0000
0000
0000
,
1000
0000
0000
0000
,
0000
0000
0000
0000
,
0010
0000
0000
0000
,
0000
0000
0000
0000
,
2000
0000
0001
0000
,
3001
0000
0000
0000
,
0202
0000
0303
0000
,
0000
0000
0000
0000
,
0020
0000
0030
0000
,
2000
0000
3000
0000
,
0002
0000
0003
0000
,
0020
0000
0030
0000
,
0002
0000
0003
0000
,
0000
0000
0200
0000
,
0300
0000
0000
0000
,
0220
0000
0330
0000
,
0001
0000
0000
0000
,
1001
0000
1000
0000
,
0001
0000
0000
0000
,
1001
0000
0001
0000
,
0010
0000
0000
0000
,
0110
0000
0010
0000
,
0004
0000
0000
0000
,
0000
0000
0003
0000
,
2000
0000
3000
0000
,
2002
0000
0000
3000
0003
0000
0000
0000
,
0020
0000
0030
0000
,
0220
0000
0000
0300
0030
0000
0000
0000
,
1001
0000
0000
0000
,
0110
0000
2002
0000
,
3003
0000
0000
0000
,
0000
0000
0000
0000
,
1001
0000
0000
0000
;
