#TITLE:DuckTales Theme;
#SUBTITLE:;
#ARTIST:Jeff Pescetto;
#TITLETRANSLIT:;
#SUBTITLETRANSLIT:;
#ARTISTTRANSLIT:;
#GENRE:Cartoon Theme;
#CREDIT:Ace Of Hearts;
#BANNER:DuckTales Theme - Bn.png;
#BACKGROUND:DuckTales Theme - Bg.png;
#LYRICSPATH:;
#CDTITLE:Ace Of Hearts.png;
#MUSIC:DuckTales Theme.ogg;
#OFFSET:-0.360;
#SAMPLESTART:20.696;
#SAMPLELENGTH:12.000;
#SELECTABLE:YES;
#BPMS:0.000=176.780;
#STOPS:;
#BGCHANGES:2.000=DuckTales Theme Video.avi=1.000=0=0=1=====,
178.000=DuckTales Theme - bg.jpg=1.000=1=0=1===CrossFade==,
99999=-nosongbg-=1.000=0=0=0 // don't automatically add -songbackground-
;
#KEYSOUNDS:;

//---------------dance-single - Ace Of Hearts (2008)----------------
#NOTES:
     dance-single:
     Ace Of Hearts (2008):
     Hard:
     7:
     0.565,0.210,0.601,0.776,0.127:
0000
0000
0000
0000
,
1100
1000
1001
0001
,
0101
0000
0000
0000
0000
0000
0001
0000
0000
1000
0000
0000
0000
0000
0000
0000
1000
0000
0010
0000
0000
0000
0000
0000
,
0110
0100
0001
1000
,
0020
0000
0000
0000
0000
0000
1030
0000
0000
0002
0000
0000
0000
0000
0000
0003
1000
0000
0100
0000
0000
0000
0000
0000
,
0110
0000
0000
0200
0000
0300
0000
0000
,
1100
0000
0000
2000
0000
3000
0000
0000
,
1002
0013
0200
1300
,
2001
0000
0000
0000
0000
0000
3001
0000
0000
0010
0000
0000
0000
0000
0000
0010
0000
0200
0000
0000
0000
0300
0000
0000
,
1100
0000
0000
0202
0000
0303
0000
0000
,
1010
0000
0000
0022
0000
0033
0000
0000
,
0000
0001
0200
0310
,
0020
0000
0000
0000
0000
0000
0000
0000
0000
2030
0000
0000
0000
0000
0000
3001
0000
0100
0000
0000
0000
0020
0000
0000
,
0000
1030
0200
0310
,
0021
0000
0000
0230
0000
0000
0300
0000
,
1100
1100
0000
0012
,
1003
0000
0000
0010
0000
0000
0100
0000
0001
1000
0000
0001
,
0020
0130
2000
3001
,
0200
0000
0000
0310
0000
0000
1000
0000
0000
0020
0000
0030
,
0110
0110
0000
1020
,
0130
0000
0000
0000
0000
0000
0010
0000
0010
0100
0000
0100
,
0002
1003
0200
0310
,
0010
0100
2000
3001
,
1001
1001
0000
0000
,
2000
3200
0320
0032
,
0003
0000
0000
1000
0000
0010
0000
0000
0000
1000
0000
0020
0000
0000
0000
0000
0000
0000
0130
0000
0000
0000
0000
0000
,
0001
0010
2000
3010
,
0000
0000
0000
0100
0000
1000
0002
0000
0000
0103
0000
0000
,
0110
0010
2000
3100
,
0000
0000
0000
0010
0000
0001
1000
0000
0000
0100
0000
0000
,
0110
0100
1000
0010
,
0110
0110
0000
0102
,
1003
0000
0000
0010
0000
0000
0100
0000
0001
1000
0000
0001
,
0200
0310
2000
3010
,
0100
0002
1003
0001
,
0011
0011
0000
2100
,
3001
0000
0000
0000
0000
0000
1000
0000
0010
0100
0000
0001
,
2000
3100
0020
0130
,
0100
1000
0002
0013
,
0110
0110
0000
2100
,
3001
0000
0000
1000
,
1020
0130
0002
1003
,
1100
0000
0100
0000
1000
0000
0020
0030
,
0110
0110
0000
0102
,
1003
1001
0000
0000
;

//---------------dance-single - Ace Of Hearts (2008)----------------
#NOTES:
     dance-single:
     Ace Of Hearts (2008):
     Challenge:
     9:
     0.730,0.350,0.744,0.950,0.483:
0000
0000
0000
0000
,
2002
0000
3003
0010
0000
0000
2002
0000
3003
0010
0000
0000
,
0101
0000
0000
0020
0000
0130
0000
0000
0100
0010
0000
0000
,
1010
1000
1100
0010
,
0012
0000
0000
0000
0000
0000
1003
0000
0000
0020
0000
0000
0000
0000
0000
0000
0130
0000
0001
0000
0000
0000
0000
0000
,
0022
0033
0000
2200
0000
3300
0000
0000
,
2020
3030
0000
0202
0000
0303
0000
0000
,
0101
0100
0210
0310
,
2010
0000
0000
0000
0000
0000
3001
0000
0000
0000
0010
0000
0000
0000
0000
0000
0010
0000
0200
0000
0000
0300
0000
0000
,
2200
3300
0000
0022
0000
0033
0000
0000
,
0202
0000
0000
0303
0000
0000
0000
0000
0000
2020
0000
0000
0030
0000
0000
3000
0001
0000
0100
0000
0000
0000
0000
0000
,
0120
1030
1100
0100
,
0120
0000
0000
0000
0000
0000
0000
0000
0000
0002
0000
0000
0030
0000
0000
1003
0000
0200
0000
0000
0000
0320
0000
0000
,
0000
0031
0201
0310
,
2010
0000
0000
3000
0000
0010
0100
0001
0010
0100
1000
0010
,
0110
0000
0000
0000
0000
0000
0202
0000
0000
0303
0000
0000
0000
0000
0000
0000
0001
0000
0020
0000
0000
0000
0030
0000
,
0110
0000
0000
1100
0000
0000
1001
0000
0001
0100
0000
0002
,
1000
0100
1000
0010
,
1000
0000
0000
0100
0000
0000
1003
0000
0010
0100
0000
0000
,
0101
0000
0000
0011
0000
0000
0110
0000
0100
2000
0000
3000
,
1100
0000
0000
1000
0000
0000
0001
0010
0100
1000
0000
0200
,
1000
0010
0001
0010
,
1000
0000
0000
0010
0000
0000
1300
0000
0001
0100
0000
0000
,
0110
0101
0001
0010
,
0100
0000
0100
1000
0000
1000
0010
0000
0010
0100
0000
0100
,
0001
0000
1000
1000
0000
0001
0020
0000
0000
0130
0000
0000
,
2000
0000
0200
3000
0002
0300
2000
0000
,
3003
0000
0000
2000
0000
3001
0200
0000
0000
2300
0000
3000
,
1001
0000
0000
0001
0000
0000
0021
0000
0000
0130
0000
1000
,
0200
0000
0310
0001
0000
0001
1000
0000
0000
0010
0000
0000
,
0100
0001
1000
0010
0100
0001
1000
0100
0010
0001
1000
0010
,
0100
0000
0000
0101
0000
0000
0110
0000
0100
0020
0000
0030
,
1010
0000
0000
1100
0000
0000
0200
0000
0310
0001
0000
2000
,
0010
0001
0100
0001
,
0010
0000
0000
0001
0000
0000
3010
0000
1000
0010
0000
0000
,
0101
0000
0000
0000
0000
0000
1010
0000
0000
0000
0000
0000
0000
0000
0000
0000
1000
0000
0010
0000
0000
0110
0000
0000
,
0000
0000
0100
0001
0000
0000
1000
0100
0010
0001
0000
0020
,
0100
1000
0100
0001
,
0100
0000
0000
1000
0000
0000
0130
0000
0010
0001
0000
0000
,
0011
0000
0000
1100
0000
0000
0000
0000
1000
0002
0003
0010
,
0000
0000
0000
0000
0002
0000
0013
0000
0000
0000
0020
0000
0130
0000
0000
1000
0000
0000
0000
0000
0000
0000
0000
0000
,
0000
0000
0000
0100
0000
0200
0000
0000
1300
0001
0000
0000
,
0020
0000
0000
0230
0000
0000
2300
0000
3001
0010
0000
0000
,
1100
0000
0000
0101
0000
0000
0000
0000
0100
0010
1000
0001
,
0010
0100
1000
1001
0000
0000
0000
0000
0000
0000
0000
0000
;

//---------------dance-single - Ace Of Hearts (2008)----------------
#NOTES:
     dance-single:
     Ace Of Hearts (2008):
     Medium:
     5:
     0.366,0.140,0.127,0.412,0.000:
0000
0000
0000
0000
,
0001
0010
0001
0010
,
0100
0000
0000
1000
0000
0000
0000
0000
,
0001
0001
1000
0001
,
0020
0000
0000
0230
0000
0000
0300
0000
,
2000
0000
0000
0200
0000
0000
3300
0000
,
0020
0000
0000
0002
0000
0000
0033
0000
,
0001
1000
0001
0100
,
0020
0000
0000
0230
0000
0000
0300
0000
,
0002
0000
0000
0200
0000
0000
0303
0000
,
0020
0000
0000
2000
0000
0000
3030
0000
,
0000
0010
1000
0001
,
0002
0000
0000
0200
0000
0000
0303
0000
,
0000
0100
0010
1000
,
0020
0000
0000
0200
0000
0000
0330
0000
,
0101
0100
0000
0002
,
1003
0000
0000
0000
,
0001
1000
0100
1000
,
0001
0100
0001
1000
,
1010
0010
0000
0020
,
0130
0000
0000
0000
,
0001
0010
0001
1000
,
0010
1000
0001
0100
,
0110
0010
0000
0000
,
2000
3200
0320
0032
,
0003
1000
1000
0000
,
0001
0100
0001
1000
,
0000
0001
1000
0100
,
1000
0001
0010
0100
,
0000
1000
0001
0100
,
0010
0100
0001
1000
,
1100
0100
0000
0020
,
0130
0000
0000
0000
,
1000
0001
0100
0010
,
0100
0001
1000
0100
,
0110
0010
0000
0200
,
1300
0000
0000
0000
,
0001
0100
0010
0100
,
0001
1000
0010
1000
,
1001
0001
0000
2000
,
3100
0000
0000
1000
,
0001
0100
0001
1000
,
0010
0100
0001
1000
,
1001
0001
0000
0020
,
0130
0110
0000
0000
;

//---------------dance-single - Ace Of Hearts (2008)----------------
#NOTES:
     dance-single:
     Ace Of Hearts (2008):
     Easy:
     3:
     0.185,0.066,0.032,0.301,0.000:
0000
0000
0000
0000
,
0001
0000
0001
0000
,
0002
0000
0003
0000
,
0100
0000
0000
0100
0000
0000
0000
0000
,
0010
0000
0000
0010
0000
0000
0000
0000
,
1000
0000
1000
0000
,
2000
0000
3000
0000
,
0001
0000
0000
0001
0000
0000
0000
0000
,
0010
0000
0000
0010
0000
0000
0000
0000
,
0000
0000
0001
0000
,
0002
0000
0003
0000
,
0000
0000
0010
0000
,
0020
0000
0000
0030
,
0001
0001
0000
2000
,
3000
0000
0000
0000
,
0010
0000
0010
0000
,
0020
0000
0030
0000
,
1000
1000
0000
0200
,
0300
0000
0000
0000
,
1000
0000
1000
0000
,
2000
0000
3000
0000
,
0010
0010
0000
0000
,
2002
0000
3003
0000
,
0000
0000
1001
0000
,
0200
0000
0300
0000
,
0000
0000
0010
0000
,
0020
0000
0030
0000
,
0000
0000
1000
0000
,
1000
0000
1000
0000
,
0001
0001
0000
0020
,
0030
0000
0000
0000
,
0100
0000
0100
0000
,
0200
0000
0300
0000
,
1000
1000
0000
0002
,
0003
0000
0000
0000
,
0100
0000
0100
0000
,
0200
0000
0300
0000
,
0010
0010
0000
2000
,
3000
0000
0000
0000
,
0001
0000
0001
0000
,
0002
0000
0003
0000
,
0010
0010
0000
0200
,
0300
0000
0000
0000
;

//---------------dance-single - Ace Of Hearts (2008)----------------
#NOTES:
     dance-single:
     Ace Of Hearts (2008):
     Beginner:
     1:
     0.115,0.033,0.095,0.317,0.000:
0000
0000
0000
0000
,
0001
0000
0000
0000
,
0000
0000
0000
0000
,
1000
0000
0000
0000
,
1000
0000
0000
0000
,
1000
0000
0000
0000
,
0000
0000
0000
0000
,
0010
0000
0000
0000
,
0010
0000
0000
0000
,
0000
0000
0000
0000
,
0200
0000
0300
0000
,
0000
0000
0000
0000
,
0020
0000
0030
0000
,
2002
0000
0000
3000
,
0003
0000
0000
0000
,
2000
0000
0000
0000
,
3000
0000
0000
0000
,
2002
0000
0000
0003
,
3000
0000
0000
0000
,
0002
0000
0000
0000
,
0003
0000
0000
0000
,
2002
3003
0000
0000
,
0000
0000
0000
0000
,
0000
0000
0000
0000
,
0100
0000
0000
0000
,
0000
0000
0000
0000
,
1000
0000
0000
0000
,
0000
0000
0000
0000
,
0010
0000
0000
0000
,
0220
0000
0000
0030
,
0300
0000
0000
0000
,
0200
0000
0000
0000
,
0300
0000
0000
0000
,
0220
0000
0000
0300
,
0030
0000
0000
0000
,
0020
0000
0000
0000
,
0030
0000
0000
0000
,
2002
0000
0000
0003
,
3000
0000
0000
0000
,
2000
0000
0000
0000
,
3000
0000
0000
0000
,
0001
0001
0000
0020
,
0030
0000
0000
0000
;
