#TITLE:Danjo;
#SUBTITLE:;
#ARTIST:Tarou;
#TITLETRANSLIT:;
#SUBTITLETRANSLIT:;
#ARTISTTRANSLIT:;
#GENRE:Silly J-Pop;
#CREDIT:Ace Of Hearts;
#BANNER:Danjo - bn.png;
#BACKGROUND:Danjo - bg.png;
#LYRICSPATH:;
#CDTITLE:Ace Of Hearts.png;
#MUSIC:Danjo.ogg;
#OFFSET:-0.160;
#SAMPLESTART:42.100;
#SAMPLELENGTH:12.000;
#SELECTABLE:YES;
#BPMS:0.000=154.000;
#STOPS:;
#BGCHANGES:-1.500=Danjo Video.avi=1.000=0=0=0=StretchNoLoop====,
99999=-nosongbg-=1.000=0=0=0 // don't automatically add -songbackground-
;
#KEYSOUNDS:;

//---------------dance-single - Hard----------------
#NOTES:
     dance-single:
     Ace Of Hearts (2009):
     Hard:
     8:
     0.619,0.000,0.563,0.438,0.227:
0000
0000
0000
0000
,
0000
0000
0000
0000
,
0002
0000
2003
0000
3010
0100
0001
2000
,
0000
3002
0000
0013
0200
0000
2300
0000
,
3002
0000
0203
0000
0310
0100
0001
2000
,
0000
3200
0000
0310
0002
0000
0203
0300
,
0110
0000
0010
1000
0001
0000
0000
1000
,
0000
0001
0000
0010
0100
0000
0000
0000
,
1100
0000
1000
0001
0100
0000
0000
0010
,
0000
1000
0000
0001
0010
0000
0000
0000
,
0100
0000
0100
0000
0000
0000
0000
0000
0010
0000
0001
1000
0000
0000
0000
0000
,
0001
0000
0001
0000
1000
0001
1000
0000
0010
1000
0010
0000
0000
0000
0000
0000
,
1000
0010
0000
0000
0100
0001
0000
0000
,
1000
0100
0010
0100
1000
0000
0001
0000
1000
0000
0010
1000
0010
0000
0000
0000
,
0100
0000
0000
0000
0001
1000
0000
0000
,
0100
0000
1000
0000
0001
0000
0100
0000
0010
1000
0010
0000
0000
0000
0000
0000
,
1000
0000
0001
0001
1000
0000
0100
0100
,
1000
0002
0000
0103
0010
0000
0000
0000
,
1000
0000
1000
0000
0000
0000
0000
0000
0001
0000
0100
0001
0000
0000
0000
0000
,
1000
0000
0100
0000
1000
0001
1000
0000
0001
0000
0010
0000
0000
0000
0000
0000
,
0100
0000
1000
0000
0000
0000
0000
0000
0001
0000
1000
0010
0000
0000
0000
0000
,
0100
0010
0100
0100
,
0010
0000
0100
0000
0010
0010
0000
0000
,
1000
0000
0001
0001
1000
0000
0001
0001
,
1000
0000
0000
0000
1000
0000
0000
0000
0001
0100
0001
0000
1000
0000
0000
0000
,
0001
0010
0000
0001
0000
0000
0000
0000
1000
0000
0001
0010
0000
0000
0000
0000
,
0001
0000
0100
0000
0010
1000
0010
0000
1000
0000
0001
0000
0000
0000
0000
0000
,
0021
0000
0130
0110
0000
0120
0000
0031
,
0021
0130
1000
1000
,
1020
0000
0130
0110
0000
0120
0000
1030
,
1020
0130
0001
0001
,
0012
0000
1003
1001
0000
1002
0000
0013
,
0100
0120
0000
0031
0102
0000
1003
0000
,
0100
0110
0010
0000
0011
0001
0000
1001
,
1000
0010
0110
0101
,
0001
1000
0100
0010
0001
1000
0010
0000
,
0100
0001
1000
0100
0010
0000
0001
0000
,
1000
0001
0010
0100
0010
0001
1000
0000
,
0001
0100
0010
1000
0001
0000
0100
0000
,
0001
0000
1000
0100
0000
0000
0000
0000
1000
0000
0001
0000
1000
0000
0000
0000
,
0001
0000
0100
0000
0001
0000
1000
0000
0040
0000
0000
0030
0000
0000
0000
0000
,
1000
0000
0001
0100
0000
0000
0000
0000
0010
0000
0100
0000
0001
0000
0000
0000
,
1000
0100
1000
0000
0001
0000
0100
0000
0010
1000
0001
0000
0100
0000
0000
0000
,
0001
0010
0000
0000
0100
1000
0001
0100
,
0010
2000
0000
3001
0010
0000
0000
0000
,
0001
0010
0001
0010
0001
0010
0100
1000
0100
1000
0100
1000
,
0004
0000
0003
0000
,
1000
0000
0001
0100
0000
0000
0000
0000
0010
0000
1000
0000
0001
0000
0000
0000
,
0010
0000
0100
0000
0010
0000
0001
0000
1000
0001
1000
0000
0010
0000
0000
0000
,
1000
0000
0001
0000
0000
0000
0000
0000
0100
0000
0001
1000
0000
0000
0000
0000
,
0100
1000
0100
1000
0100
1000
0001
1000
0001
1000
0001
1000
,
0010
1000
0010
1000
0010
1000
0001
1000
0001
0000
0000
0000
,
0100
0001
0100
0001
0100
0001
1000
0001
1000
0001
1000
0001
,
0010
0100
0010
0100
0010
0100
4000
0000
0000
3000
0000
0000
,
1000
0010
0000
0100
0000
0000
0000
0000
0001
0000
1000
0000
0100
0000
0000
0000
,
1000
0001
0100
0001
0020
0000
0030
0000
,
0210
0000
1300
1001
0000
1002
0000
0013
,
0210
1300
0001
0001
,
0201
0000
0310
1010
0000
2010
0000
3001
,
0021
0130
1000
1000
,
1020
0000
0130
0110
0000
0210
0000
0301
,
1000
1200
0000
0310
0012
0000
1003
0000
,
0010
0110
0100
0000
0101
0001
0000
0011
,
0010
0100
1100
1001
,
0201
0000
0310
1010
0000
1002
0000
0013
,
0210
1300
0001
0001
,
0201
0000
0310
1010
0000
1002
0000
0013
,
0210
1300
0010
0010
,
0210
0000
0301
0011
0000
2100
0000
3001
,
0100
0120
0000
1030
1002
0000
0013
0000
,
0100
1100
1000
0000
1001
0001
0000
0011
,
0010
0100
2200
0000
,
0010
0000
0001
0010
0000
0010
0000
0001
,
0010
0001
0300
3000
,
1002
0000
0103
0110
0000
2010
0000
3100
,
0120
0031
0100
0100
,
0120
0000
1030
1001
0000
0021
0000
0130
,
1000
1002
0000
0103
0120
0000
1030
0000
,
0100
0110
0011
0000
1001
1010
0000
1010
,
0101
1100
2002
0010
,
3003
0000
0000
0000
;

//---------------dance-single - Medium----------------
#NOTES:
     dance-single:
     Ace Of Hearts (2009):
     Medium:
     6:
     0.362,0.000,0.055,0.242,0.008:
0000
0000
0000
0000
,
0000
0000
0000
0000
,
0001
0000
0001
0000
1000
0000
0001
0010
,
0000
0010
0000
0010
0001
0000
0001
0000
,
1000
0000
1000
0000
0010
0000
1000
0001
,
0000
0001
0000
0001
0010
0000
0100
0000
,
1000
0000
0000
0001
1000
0000
0000
0010
,
0000
0000
0000
0000
,
1000
0000
0000
0001
0010
0000
0000
0001
,
0000
0000
0000
0000
,
1000
1000
0000
0000
0010
0000
0000
0000
,
1000
0001
1000
0000
0010
0000
0000
0000
,
0100
0100
0000
0000
0001
0000
0000
0000
,
1000
0100
1000
0000
0001
0000
0000
0000
,
0010
0000
0001
0000
,
1000
0010
1000
0000
0001
0000
0000
0000
,
1000
0100
1000
0100
,
0020
0000
0030
0000
,
0001
0001
0000
0000
1000
0000
0000
0000
,
0010
1000
0010
0000
0100
0000
0000
0000
,
0010
0010
0000
0000
1000
0000
0000
0000
,
0001
0010
0001
0001
,
0010
0000
0001
0000
0010
0010
0000
0000
,
0100
0000
1000
1000
0100
0000
1000
1000
,
0100
0100
2000
3000
,
0001
0001
0000
0000
0100
0000
0000
0000
,
0001
1000
0001
0000
0010
0000
0000
0000
,
0002
0000
0103
0001
0000
0001
0000
0100
,
0002
0103
0000
0000
,
0020
0000
1030
0010
0000
0010
0000
1000
,
0020
1030
0000
0000
,
0002
0000
0013
0001
0000
0001
0000
0010
,
0001
0020
0000
0031
0020
0000
0031
0000
,
0000
1000
0010
0000
1000
0010
0000
1000
,
0010
0010
0100
1001
,
1000
0000
0001
0100
0001
0000
0000
1000
,
0000
0100
0000
1000
0001
0000
0000
0000
,
0010
0000
0001
1000
0001
0000
0000
1000
,
0000
0010
0000
1000
0001
0000
0000
0000
,
1000
0100
1000
0000
0001
0100
0001
0000
,
1000
0100
0010
0000
,
0001
1000
0001
0000
1000
0010
1000
0000
,
0001
0000
0100
0000
0010
1000
0010
0000
,
1000
0001
0000
0000
1000
0010
0000
0000
,
1000
0002
0000
0103
0010
0000
0000
0000
,
4000
0000
0000
0000
,
3000
0000
0000
0000
,
0001
0100
0001
0000
1000
0100
1000
0000
,
0001
0000
1000
0000
0010
1000
0010
0000
,
0100
0100
0000
0000
0001
0000
0000
0000
,
4000
0040
0000
0000
0000
0000
0000
0000
0000
0000
0000
0000
,
0000
0000
3030
0000
,
0004
0400
0000
0000
0000
0000
0000
0000
0000
0000
0000
0000
,
0000
0000
0303
0000
,
1000
0000
0001
0000
,
0010
0001
0010
0000
0100
0000
0000
0000
,
2000
0000
3001
1000
0000
1000
0000
0001
,
2000
3001
0000
0000
,
0020
0000
0130
0010
0000
0010
0000
0100
,
0020
0130
0000
0000
,
2000
0000
3100
1000
0000
2000
0000
3100
,
1000
0200
0000
1300
0200
0000
1300
0000
,
0000
0001
0010
0000
0001
0010
0000
0001
,
0010
0010
0100
1100
,
2000
0000
3001
0010
0000
0010
0000
0001
,
2000
3100
0000
0000
,
0020
0000
0130
1000
0000
1000
0000
0001
,
2000
3010
0000
0000
,
2000
0000
3001
0100
0000
0100
0000
0001
,
1000
0002
0000
0013
0200
0000
0310
0000
,
0000
0001
1000
0000
0010
1000
0000
0001
,
0010
0010
0001
0101
,
0002
0000
1003
0001
0000
0010
0000
0001
,
2000
3000
1010
0000
0000
0000
0000
0000
,
0020
0000
0130
0001
0000
1000
0000
0100
,
0020
0030
0011
0000
0000
0000
0000
0000
,
0002
0000
1003
0010
0000
1000
0000
0001
,
0010
0200
0000
1300
0001
0000
0101
0000
,
0000
0100
0010
0000
0100
0010
0000
0100
,
0010
0010
1000
1001
;

//---------------dance-single - Easy----------------
#NOTES:
     dance-single:
     Ace Of Hearts (2009):
     Easy:
     4:
     0.219,0.000,0.008,0.055,0.000:
0000
0000
0000
0000
,
0000
0000
0000
0000
,
0001
0001
0001
0000
,
0001
0000
0001
0000
,
1000
1000
1000
0000
,
1000
0000
1000
0000
,
0010
0000
0000
0000
0010
0000
0000
0010
,
0000
0000
0000
0000
,
0100
0000
0100
0000
0100
0000
0000
0100
,
0000
0000
0000
0000
,
0001
0000
0001
0000
,
0100
0100
0100
0000
,
0010
0000
0010
0000
,
1000
1000
1000
0000
,
0001
0000
0001
0000
,
0100
0100
0100
0000
,
0010
0010
0010
0010
,
0020
0000
0030
0000
,
1000
0000
1000
0000
,
0010
0010
0010
0000
,
0100
0000
0100
0000
,
0001
0001
0001
0001
,
0001
0001
0001
0000
,
1000
1000
1000
1000
,
1000
1000
2000
3000
,
0010
0000
0010
0000
,
0020
0000
0030
0000
,
1000
0000
0000
1000
0000
1000
0000
0000
,
1000
0000
0000
0000
,
0010
0000
0000
0010
0000
0010
0000
0000
,
0010
0000
0000
0000
,
0100
0000
0000
0100
0000
0100
0000
0000
,
0000
0100
0000
0000
0100
0000
0100
0000
,
0000
0000
0001
0000
0000
0001
0000
0000
,
0001
0001
0001
0000
,
1000
0000
1000
0000
,
1000
1000
1000
0000
,
0100
0000
0100
0000
,
0100
0100
0100
0000
,
0010
0000
0001
0000
,
1000
1000
1000
0000
,
0010
0000
1000
0000
,
0001
0001
0001
0000
,
0010
0000
0100
0000
,
1000
0000
1000
0000
,
0040
0000
0000
0000
,
0030
0000
0000
0000
,
1000
0000
0001
0000
,
0010
0010
0010
0000
,
0001
0000
0010
0000
,
0004
0000
0000
0000
,
0000
0000
0003
0000
,
4000
0000
0000
0000
,
0000
0000
3000
0000
,
0010
0000
1000
0000
,
0001
0000
0001
0000
,
1000
0000
0000
1000
0000
1000
0000
0000
,
1000
0000
0000
0000
,
0010
0000
0000
0010
0000
0010
0000
0000
,
0010
0000
0000
0000
,
0100
0000
0000
0100
0000
0100
0000
0000
,
0000
0100
0000
0000
0100
0000
0100
0000
,
0000
0000
0001
0000
0000
0001
0000
0000
,
0001
0001
0001
0000
,
1000
0000
0000
1000
0000
1000
0000
0000
,
1000
1000
0000
0000
,
0001
0000
0000
0001
0000
0001
0000
0000
,
0001
0001
0000
0000
,
0100
0000
0000
0100
0000
0100
0000
0000
,
0000
0100
0000
0000
0100
0000
0100
0000
,
0000
0000
0010
0000
0000
0010
0000
0000
,
0010
0010
0010
0000
,
2000
0000
3001
0001
0000
0001
0000
0000
,
2000
3001
0000
0000
,
0002
0000
1003
1000
0000
1000
0000
0000
,
0002
1003
0000
0000
,
0001
0000
1000
1000
0000
1000
0000
0000
,
0100
0100
0000
0010
0010
0000
0010
0000
,
0000
0001
0001
0000
1000
1000
0000
0001
,
0001
0001
0001
1001
;

//---------------dance-single - Expert----------------
#NOTES:
     dance-single:
     Ace Of Hearts (2009):
     Challenge:
     10:
     0.817,0.000,1.000,0.617,0.387:
0000
0000
0000
0000
,
0000
0000
0000
0000
,
0002
0003
0002
0003
1000
1000
1000
0020
,
0030
0020
0030
0010
2000
3000
0002
0003
,
0200
0300
0200
0300
0001
0001
0001
2000
,
3000
2000
3000
1000
0002
0003
0200
0300
,
0110
0000
0010
1000
0100
1000
0001
0011
,
0000
0000
0110
0000
0000
0000
0100
0000
1000
0000
0001
0100
0020
0000
0030
0000
,
1010
0000
1000
0001
0010
0100
1000
1001
,
0000
0000
0101
0000
0000
0000
0100
0000
0010
0000
1000
0100
0020
0000
0030
0000
,
0011
0000
0001
0000
0000
0000
0000
0000
0201
0000
0310
1000
0000
0000
0000
0000
,
0001
0000
0000
0100
0000
0000
0010
0000
0000
0000
0000
0000
1000
0000
0000
0100
0000
0000
0010
0000
0000
0000
0000
0000
0100
0000
0000
1000
0000
0000
0000
0000
0001
0000
0000
0000
0000
0000
0000
0000
0000
0000
0000
0000
0000
0000
0000
0000
,
0101
0100
0000
0000
0110
0010
0000
0000
,
1000
0000
0000
0100
0000
0000
1000
0000
0000
0001
0000
0000
0100
0000
0000
0020
0000
0000
0000
0000
0000
0030
1010
0000
0000
0000
0000
0000
0000
0000
1000
0000
0000
0001
0000
0000
0100
0000
0000
0000
0000
0000
0000
0000
0001
0000
0000
0000
,
0011
0000
0000
0000
0110
0010
0000
0000
,
0011
0000
0001
1000
0020
0000
0130
0001
1000
0020
0000
0030
0000
0000
0000
0000
,
0101
0000
1100
0000
0101
0000
1100
0100
,
0101
0002
0003
1000
1010
0000
0000
0000
,
0110
0000
0100
0000
0000
0000
0000
0000
0102
0000
1003
0100
0000
0000
0000
0000
,
0110
0000
0010
0000
0001
1000
0100
0000
0020
0000
0130
1000
0000
0000
0000
0000
,
1002
0000
0103
0000
0000
0000
0000
0120
0000
1030
0100
0000
0000
0000
0000
0000
,
1100
0011
0101
1010
,
1001
0000
0101
0000
1020
0130
0000
0000
,
0101
0000
2100
3001
0101
0000
2100
3001
,
0101
0000
0000
0000
0101
0000
0000
0000
0010
0100
0001
1000
0100
0000
0000
0010
,
0002
0000
0103
0000
0000
0000
0000
0000
0120
0000
1030
0100
0000
0000
0000
0000
,
0120
0000
0000
0000
0000
0000
0030
0000
0001
0000
0000
0000
0100
0000
0000
0010
0000
0000
0000
0000
0000
1000
0000
0000
0000
0000
0000
0000
1100
0000
0000
0000
0000
0000
0000
0000
0000
0000
0000
0000
0000
0000
0000
0000
0000
0000
0000
0000
,
0011
0001
0100
0110
0100
0101
0001
1000
,
1100
0100
0220
0000
0001
0000
0001
0330
,
0011
0001
1000
1010
0010
0110
0100
0001
,
1001
1000
2200
0000
0010
0000
0010
3300
,
0011
0001
0100
0110
0010
1010
1000
0011
,
1100
0011
0001
0100
0110
0010
2020
0000
,
0001
3030
1001
0000
0100
0000
0000
0000
1001
0000
0010
0000
0000
0000
0100
0000
,
1001
0000
1100
0000
0202
0000
0010
0303
,
0001
0010
0100
0010
0001
0100
0001
1000
,
0010
0100
0001
2000
0200
0000
0001
3300
,
1000
0010
0100
0010
1000
0100
0010
0001
,
1000
0001
0100
0002
0020
0000
1000
0033
,
0101
0000
0000
0000
0000
0000
0100
0000
0000
0010
0000
0000
0000
0000
0000
0000
0000
0000
0000
0000
0000
0000
0000
0000
1010
0000
0000
0000
1000
0000
0000
0000
1100
0000
0000
0000
0000
0000
0000
0000
0000
0000
0000
0000
0000
0000
0000
0000
,
0010
0000
0000
0001
0000
0000
0100
0000
0000
0000
0000
0000
0010
0000
0000
0000
0000
0000
0100
0000
0000
0000
0000
0000
0001
0000
0000
1000
0000
0000
0100
0000
0000
0000
1000
0000
0000
0000
0000
0000
0000
0000
0000
0000
0000
0000
0000
0000
,
1010
0000
0010
0100
0000
0000
0000
0000
0001
1000
0010
0000
0110
0000
0000
0000
,
0100
0000
0000
0000
0001
0000
1000
0000
0000
0000
0000
0000
0100
0000
0000
0010
0000
0000
0001
0000
0000
0000
0000
0000
1000
0000
0000
0010
0000
0000
0100
0000
0000
0000
0000
0000
0001
0000
0000
0000
0000
0000
0000
0000
0000
0000
0000
0000
,
0011
0000
0010
0000
0000
0000
0000
0000
0110
0000
0100
1000
0001
0000
0100
0000
,
0110
0020
0030
1000
1001
0000
0000
0000
,
0001
0010
0001
1000
0010
1000
0001
0100
0001
1000
0100
1000
,
0010
0000
0000
0000
1000
0000
0000
0000
0001
0000
0000
0000
0000
0000
0000
0010
0000
0000
0100
0000
0000
1000
0000
0000
0001
0000
0000
0100
0000
0000
0000
0000
0000
0000
0000
0000
0000
0000
0000
0000
0000
0000
0000
0000
0000
0000
0000
0000
,
0110
0000
0010
1000
0000
0000
0000
0000
1001
0000
0001
0000
0101
0000
0000
0000
,
0100
0010
1000
0000
0001
0010
0001
1000
0100
1000
0020
0030
0110
0000
0000
0000
,
0102
0000
1003
0000
0000
0000
0000
0000
1200
0000
0310
0001
0000
0000
0000
0000
,
1000
0010
1000
0001
0100
0001
1000
0100
1000
1000
0100
1000
,
0001
0010
0001
1000
0010
1000
0100
0010
0001
0000
0000
0000
,
0100
0010
0100
0001
1000
0001
0100
0010
0100
0001
1000
0001
,
0010
0000
0000
0000
0100
0000
0000
0000
0010
0000
0000
0000
0010
0000
0000
0000
0100
0000
0000
0000
0010
0000
0000
0000
0001
0000
0000
0000
1000
0000
0000
0000
0100
0000
0000
0000
0020
0000
0000
0000
0000
0000
0030
0000
0000
0001
0000
0000
,
2000
0000
0000
0000
0000
0000
0000
0000
3010
0000
0000
0000
0000
0000
0000
0000
0000
0000
0000
0000
0000
0000
0000
0000
0120
0000
0000
0000
0000
0000
0130
0000
0000
0001
0000
0000
0000
0000
0000
0000
0000
0000
0000
0000
0000
0000
0000
0000
,
1000
0100
1000
0000
0001
0000
1000
0000
1010
0000
0000
0000
0000
0000
0000
0000
,
0110
0100
0001
1001
1000
1100
0100
0010
,
0011
0001
0202
0000
1000
0000
1000
0303
,
1010
0010
0100
0101
0001
0011
0010
0100
,
1100
1000
2020
0000
0001
0000
0001
3030
,
0110
0100
0001
0011
0010
0110
0100
1100
,
0011
1100
1000
0001
0101
0100
0220
0000
,
1000
0330
1001
0000
0010
0000
0000
0000
1001
0000
0100
0000
0000
0000
1001
0000
,
0010
0000
0100
0000
2002
0000
0010
3003
,
0011
0000
0010
0100
1000
0000
1001
0000
0001
0000
0101
0000
0010
0000
1000
0100
,
0010
0001
0202
0000
1000
0000
1000
0303
,
1010
0000
0010
0100
0001
0000
0011
0000
0010
0000
0110
0000
0100
0000
1000
0001
,
0010
0100
2200
0000
0001
0000
0001
3300
,
1001
0000
0001
0100
0010
0000
1010
0000
1000
0000
1100
0000
0100
0000
0010
0100
,
1000
0000
0001
0000
1000
0100
0010
0000
0001
0000
1000
0000
2200
0000
0000
0000
,
0010
3300
1001
0000
0010
0000
0100
0000
1001
0000
0100
0000
0010
0000
1001
0000
,
0100
0001
0010
0000
0001
0000
0212
0000
,
1010
0000
1000
1010
0000
1010
0000
1000
,
1010
0000
0010
0303
0010
0000
0010
0000
,
2010
0000
3001
0011
0000
0021
0000
0130
,
2100
0000
0020
0000
0001
0000
0001
3030
,
0210
0000
0002
1000
0000
1000
0303
0001
,
0011
0020
0000
0130
2100
0000
0002
0000
,
0010
3003
0202
0000
0010
0303
0000
0000
2200
0000
0010
3300
0000
0000
2002
0000
,
0010
0000
0010
3003
0110
0000
1111
0000
;

//---------------dance-single - Blank----------------
#NOTES:
     dance-single:
     Ace Of Hearts (2009):
     Beginner:
     1:
     0.133,0.000,0.031,0.117,0.000:
0000
0000
0000
0000
,
0000
0000
0000
0000
,
0001
0000
0001
0000
,
0001
0000
0000
0000
,
1000
0000
1000
0000
,
1000
0000
0000
0000
,
0010
0000
0010
0000
,
0010
0000
0000
0000
,
0100
0000
0100
0000
,
0100
0000
0000
0000
,
0001
0000
0001
0000
,
0001
0000
0000
0000
,
0010
0000
0010
0000
,
0010
0000
0000
0000
,
0001
0000
0001
0000
,
0001
0000
0000
0000
,
0200
0000
0000
0000
,
0300
0000
0000
0000
,
0010
0000
0010
0000
,
0010
0000
0000
0000
,
0100
0000
0000
0000
,
0002
0000
0000
0000
,
0000
0000
0003
0000
,
2000
0000
0000
0000
,
0000
0000
3000
0000
,
0010
0000
0010
0000
,
0020
0000
0030
0000
,
1000
0000
1000
0000
,
1000
0000
0000
0000
,
0001
0000
0001
0000
,
0001
0000
0000
0000
,
0100
0000
0100
0000
,
0100
0000
0000
0000
,
0010
0000
0010
0000
,
0020
0000
0030
0000
,
2000
0000
0000
0000
,
3000
0000
0000
0000
,
0002
0000
0000
0000
,
0003
0000
0000
0000
,
0100
0000
0100
0000
,
0200
0000
0300
0000
,
0010
0000
0010
0000
,
0020
0000
0030
0000
,
1000
0000
1000
0000
,
2000
0000
3000
0000
,
0040
0000
0000
0000
,
0030
0000
0000
0000
,
1000
0000
1000
0000
,
2000
0000
3000
0000
,
0010
0000
0000
0000
,
4000
0000
0000
0000
,
0000
0000
3000
0000
,
0004
0000
0000
0000
,
0000
0000
0003
0000
,
0010
0000
0010
0000
,
0020
0000
0030
0000
,
0001
0000
0001
0000
,
0001
0000
0000
0000
,
1000
0000
1000
0000
,
1000
0000
0000
0000
,
0100
0000
0100
0000
,
0100
0000
0000
0000
,
0010
0000
0010
0000
,
0020
0000
0030
0000
,
0001
0000
0001
0000
,
0001
0000
0000
0000
,
0100
0000
0100
0000
,
0100
0000
0000
0000
,
0010
0000
0010
0000
,
0010
0000
0000
0000
,
1000
0000
1000
0000
,
2000
0000
3000
0000
,
1001
0000
0000
0000
,
1001
0000
0000
0000
,
0110
0000
0000
0000
,
0110
0000
0000
0000
,
0010
0000
0010
0000
,
0020
0000
0030
0000
,
1000
0000
1000
0000
,
0001
0001
0001
0000
;
