#TITLE:Cosmetic Happy;
#SUBTITLE:;
#ARTIST:Nagisa Cosmetic;
#TITLETRANSLIT:;
#SUBTITLETRANSLIT:;
#ARTISTTRANSLIT:;
#GENRE:J-Pop;
#CREDIT:Ace Of Hearts;
#BANNER:Cosmetic Happy - Bn.png;
#BACKGROUND:Cosmetic Happy - Bg.png;
#LYRICSPATH:;
#CDTITLE:Ace Of Hearts.png;
#MUSIC:Cosmetic Happy.ogg;
#OFFSET:-0.130;
#SAMPLESTART:66.760;
#SAMPLELENGTH:12.000;
#SELECTABLE:YES;
#BPMS:0.000=180.000;
#STOPS:419.500=2.000
;
#BGCHANGES:;
#KEYSOUNDS:;

//---------------dance-single - Ace Of Hearts (2008)----------------
#NOTES:
     dance-single:
     Ace Of Hearts (2008):
     Hard:
     8:
     0.478,0.429,0.395,0.772,0.000:
0000
0000
0000
0000
,
0000
0000
0000
1010
,
0010
0000
1000
0001
1000
0000
0010
1000
,
0010
0000
0100
0001
0100
0000
0001
0010
,
0001
0000
1000
0100
1000
0000
0001
0010
,
0001
0000
0100
0010
0100
0001
0001
0000
,
1000
0000
0010
0100
0001
0000
1000
0100
,
0010
0000
0100
0010
0001
0000
0010
0001
,
1000
0000
0001
1000
0010
0010
0000
0200
,
0000
0301
0001
0000
1000
0100
1000
0100
,
0010
0000
0001
0000
1000
0100
0000
0110
,
0000
0000
0000
0000
0000
0100
1000
0001
,
0010
0000
0100
0000
1000
0001
0000
0101
,
0000
0000
0000
0000
,
0100
0000
1001
0000
1000
0100
0000
0011
,
0000
0000
0000
0000
0000
0001
0010
0100
,
1000
0000
0001
0000
0100
0010
0000
2020
,
0000
0000
0000
3030
,
0000
0000
1000
0000
0100
0000
0010
0001
,
0000
1000
0000
0010
0000
0000
0000
0000
,
0000
0000
0100
0001
0100
0000
0010
1000
,
0000
0001
0000
0010
0000
0100
0000
2000
,
0000
0000
0000
0000
0000
0000
3001
0020
,
0000
0000
0000
0000
0030
0000
0001
0200
,
0000
0000
0000
0000
0300
0000
0010
2000
,
0000
0000
0000
3000
,
0000
0000
0100
0000
0010
0000
0001
0010
,
0000
0100
0000
1001
0000
0000
0000
0000
,
0000
0000
1000
0010
1000
0000
0001
0100
,
0000
0001
0000
0011
0000
1000
0000
0020
,
0000
0000
0000
0000
0030
0000
0100
0002
,
0000
0000
0000
0003
0000
1000
0010
0200
,
0000
0000
0000
0000
,
0300
0000
0002
1003
,
0200
0000
0000
0000
0300
1000
0001
0200
,
0000
0000
0000
0300
,
0000
0000
0010
0000
0101
0100
0001
1000
,
0000
0100
0000
0110
0000
0010
0000
0002
,
0000
0000
0000
0000
0003
2000
3000
1010
,
0000
0010
0000
0100
0000
0001
0000
2000
,
0000
0000
0000
0000
,
3000
0000
0002
0013
,
0210
0000
0000
0000
0300
1000
0001
0020
,
0000
0000
0000
0030
,
0000
0000
0002
0000
1003
0100
0010
0012
,
0000
0103
0000
2001
0000
3010
0000
0210
,
0000
0000
0000
0000
0300
0001
0000
0011
,
0000
0010
0000
0110
0000
0100
0000
2100
,
0000
0000
0000
0000
3000
0000
0000
2002
,
0000
0000
0000
3003
,
0202
0303
0220
0330
,
2020
3030
2200
3300
,
0022
0033
0202
0303
,
0220
0330
2020
3030
,
0201
0000
0310
2010
0000
3001
0000
0101
,
0000
0000
0000
0000
0000
0000
0002
0013
,
0100
0000
2000
3001
0000
0100
0000
0110
,
0000
0000
0000
0000
,
2020
0000
0030
0000
0002
0000
3000
0003
,
0022
0000
0003
0000
0200
0000
0030
0300
,
2200
0000
0300
0000
0002
0000
3000
0003
,
0202
0000
0003
0000
0020
0000
0300
0030
,
2010
0000
3001
0021
0000
0130
0000
1100
,
0000
0000
0000
0000
0000
0000
2000
3001
,
0011
0000
0020
0130
0000
1000
0000
1020
,
0000
0000
0230
0000
0302
0000
2003
3000
,
1100
0000
0100
0010
0001
0000
0010
0001
,
1000
0000
0001
1000
0100
0000
1000
0100
,
0010
0000
0100
0010
0001
0000
0010
0001
,
0100
0000
0002
2003
3200
2300
3002
0003
,
0020
0030
0110
0000
0000
0000
0000
0000
,
0000
0000
0010
0000
0100
1000
0000
0001
,
0000
0000
0100
0000
0001
0001
0000
0022
,
0000
0000
0000
0033
,
0000
0000
0001
0000
1000
0000
0200
0310
,
0000
0001
0000
0101
0000
0000
0000
0000
,
0000
0000
0100
0010
1000
0000
0001
0100
,
0000
0001
0000
0010
0000
0100
0000
2100
,
0000
0000
0000
0000
3000
0000
0001
0201
,
0000
0000
0000
0000
0300
0000
0001
0021
,
0000
0000
0000
0000
0030
0000
0100
2100
,
0000
0000
0000
0000
3000
0000
1000
0100
,
0010
0000
0001
0000
1000
0000
0010
0110
,
0000
0100
0000
0101
0000
0000
0001
0000
,
1000
0000
0001
0010
0100
0000
0010
0001
,
0000
1000
0000
1001
0000
0001
0000
0202
,
0000
0000
0000
0000
0303
0000
0100
0220
,
0000
0000
0000
0000
0330
0010
1000
0200
,
0000
0000
0000
0000
0000
0000
0000
0300
,
0000
0000
0020
0032
,
2003
0000
0000
0000
3000
0001
0100
0020
,
0000
0000
0000
0030
,
0000
0000
0200
0000
0301
0010
0200
0310
,
0000
0001
0000
1000
0000
0010
0000
0200
,
0000
0000
0000
0000
0300
0002
0000
1003
,
0000
0010
0000
0100
0000
0001
0000
2000
,
0000
0000
0000
0000
0000
0000
0000
3000
,
0000
0000
0200
0320
,
0032
0000
0000
0000
0003
1000
0100
0020
,
0000
0000
0000
0000
0000
0030
0000
0000
,
0000
0000
0200
0000
1300
0001
0100
0020
,
0000
1030
0000
0001
0000
0010
0000
0200
,
0000
0000
0000
0300
0000
2000
0000
3010
,
0000
0100
0000
0001
0000
1000
0000
0200
,
0000
0000
0000
0000
0000
0000
0000
0300
,
0000
1000
0010
0000
0220
0000
0030
0000
,
0002
0300
2000
0003
,
0200
0000
3000
0300
0220
0000
0300
0000
,
0002
0030
2000
0003
,
3020
0000
0000
0030
0210
0000
0301
2001
,
0000
3100
0000
0110
0000
0000
0000
0000
,
0000
0000
0010
0001
1001
0000
1000
0020
,
0000
0130
0000
0101
0000
0000
0000
0000
,
0000
0000
0220
0300
,
2000
0030
0002
3000
,
0020
0000
0003
0030
0210
0000
0000
0000
,
2000
0300
0020
3000
,
0200
0000
0030
0300
0102
0000
1003
1200
,
0000
0310
0000
0011
0000
0000
0000
0000
,
0000
0000
0001
1000
1010
0000
0020
0130
,
0000
0001
0000
0102
0000
0000
0023
0000
,
0230
2300
3010
0000
;

//---------------dance-single - Ace Of Hearts (2008)----------------
#NOTES:
     dance-single:
     Ace Of Hearts (2008):
     Medium:
     6:
     0.301,0.179,0.006,0.430,0.000:
0000
0000
0000
0000
,
0000
0000
0000
0000
,
1000
0000
0000
0000
,
0000
0000
0001
0000
0010
0100
0000
1000
,
0000
0001
0000
0000
,
0000
0000
0000
1000
,
0000
0010
0000
0000
,
0000
0000
0100
0000
0001
1000
0000
0100
,
0000
0000
0010
0000
0000
0000
0000
2002
,
0000
0000
0000
0000
0000
3003
0000
0000
,
1000
0000
0001
0000
1000
0100
0000
0010
,
0000
0000
0000
0000
0000
0001
1000
0000
,
0010
0000
1000
0000
0001
0100
0000
0010
,
0000
0000
0000
0000
,
1000
0000
0001
0000
1000
0100
0000
0010
,
0000
0000
0000
0000
0000
0100
1000
0000
,
0001
0000
1000
0000
0100
0010
0000
0200
,
0000
0000
0000
0000
0000
0300
0000
0000
,
0000
0000
1000
0000
0001
0000
1000
0100
,
0000
0010
0000
0001
0000
0000
0000
0000
,
0000
0000
1000
0000
0001
0000
0100
0001
,
0000
1000
0000
0010
0000
1000
0000
0002
,
0000
0000
0000
0000
0003
0000
0000
0020
,
0000
0000
0000
0000
0000
0030
0000
0200
,
0000
0000
0000
0000
0000
0300
0000
2000
,
0000
0000
0000
0000
0000
3000
0000
0000
,
0000
0000
0001
0000
1000
0000
0010
1000
,
0000
0001
0000
0010
0000
0000
0000
0000
,
0000
0000
0001
0000
1000
0000
0010
1000
,
0000
0001
0000
1000
0000
0010
0000
2000
,
0000
0000
0000
0000
0000
3000
0000
0020
,
0000
0000
0000
0000
0000
0030
0000
0200
,
0000
0000
0000
0000
0000
0000
0000
0300
,
0000
0000
0001
1000
,
0200
0000
0000
0000
0300
1000
0000
0002
,
0000
0000
0000
0000
,
0003
0000
1000
0000
0010
0000
1000
0001
,
0000
1000
0000
0100
0000
0010
0000
0002
,
0000
0000
0000
0003
0000
1000
0000
0010
,
0000
1000
0000
0001
0000
1000
0000
0200
,
0000
0000
0000
0000
,
0300
0000
1000
0001
,
0200
0000
0000
0000
0300
0001
0000
2000
,
0000
0000
0000
0000
0000
0000
0000
3000
,
0000
0000
0001
0000
0100
0000
0001
1000
,
0000
0100
0000
1000
0000
0001
0000
0200
,
0000
0000
0000
0300
0000
0001
0000
1000
,
0000
0100
0000
0010
0000
0001
0000
2000
,
0000
0000
0000
0000
0000
0000
0000
3000
,
0000
0000
0000
0000
,
0002
0000
2003
0000
,
3020
0000
0230
0000
,
0302
0000
2003
0000
,
3200
0000
0320
0000
,
0031
0000
1000
0100
0000
1000
0000
0001
,
0000
0000
0000
1000
,
0010
0000
1000
0001
0000
1000
0000
0010
,
0000
0000
0000
0000
,
2000
0000
3200
0000
,
0320
0000
0032
0000
,
2003
0000
3020
0000
,
0230
0000
0302
0000
,
1003
0000
0001
0010
0000
0001
0000
1000
,
0000
0000
0000
0010
,
1000
0000
0001
0100
0000
0001
0000
2000
,
0000
3001
0010
0100
,
1000
0000
0001
0000
,
0100
0000
0010
0000
,
0100
0000
0001
0000
,
1000
0000
0002
0203
0302
2003
3000
0000
,
0020
0030
0100
0000
0000
0000
0000
0000
,
0000
0000
0001
0000
1000
0100
0000
1000
,
0000
0000
0010
0000
1000
0001
0000
0200
,
0000
0000
0000
0300
,
0000
0000
0001
0000
1000
0000
0001
0100
,
0000
0010
0000
1000
0000
0000
0000
0000
,
0000
0000
0001
0000
1000
0000
0100
0010
,
0000
0001
0000
1000
0000
0001
0000
0200
,
0000
0000
0000
0000
0000
0300
0000
0020
,
0000
0000
0000
0000
0000
0030
0000
0200
,
0000
0000
0000
0000
0000
0300
0000
0002
,
0000
0000
0000
0000
0000
0003
0000
0000
,
0000
0000
1000
0000
0100
0000
1000
0001
,
0000
0100
0000
0010
0000
0000
0000
0000
,
0000
0000
1000
0000
0001
0000
1000
0100
,
0000
1000
0000
0001
0000
0100
0000
0002
,
0000
0000
0000
0000
0000
0003
0000
0020
,
0000
0000
0000
0000
0000
0030
0000
0200
,
0000
0000
0000
0000
0000
0000
0000
0300
,
0000
0000
1000
0001
,
0200
0000
0000
0000
0000
0301
0000
0002
,
0000
0000
0000
0000
0000
0003
0000
0000
,
0000
0000
1000
0000
0100
0000
0010
0100
,
0000
1000
0000
0001
0000
1000
0000
0200
,
0000
0000
0000
0300
0000
1000
0000
0001
,
0000
1000
0000
0010
0000
0100
0000
0002
,
0000
0000
0000
0000
0000
0000
0000
0003
,
0000
0000
1000
0010
,
2000
0000
0000
3000
0000
0010
0000
0020
,
0000
0000
0000
0000
0000
0030
0000
0000
,
0000
0000
1000
0000
0001
0000
0010
0001
,
0000
1000
0000
0001
0000
0010
0000
0200
,
0000
0000
0000
0300
0000
1000
0000
0001
,
0000
1000
0000
0010
0000
0100
0000
0002
,
0000
0000
0000
0000
0000
0000
0000
0003
,
0000
0000
2000
0000
,
3020
0000
2030
0000
,
3002
0000
0203
0000
,
0320
0000
2030
0000
,
3002
0000
0000
0000
0103
0000
0010
1000
,
0000
0001
0000
0100
0000
0000
0000
0000
,
0000
0000
0001
0000
1000
0000
0100
1000
,
0000
0001
0000
0010
0000
0000
0000
0000
,
0000
0000
0002
0000
,
2003
0000
3200
0000
,
0320
0000
0032
0000
,
2003
0000
3002
0000
,
0023
0000
0000
0000
0130
0000
1000
0001
,
0000
1000
0000
0010
0000
0000
0000
0000
,
0000
0000
1000
0000
0001
0000
0010
0001
,
0000
1000
0000
0020
0000
0000
1030
0000
,
0100
0010
0001
0000
;

//---------------dance-single - Ace Of Hearts (2008)----------------
#NOTES:
     dance-single:
     Ace Of Hearts (2008):
     Easy:
     4:
     0.197,0.179,0.012,0.300,0.000:
0000
0000
0000
0000
,
0000
0000
0000
0000
,
0001
0000
0000
0000
,
0000
0000
1000
0000
1000
0000
0000
2000
,
0000
3000
0000
0000
,
0000
0000
0000
0010
,
0000
0010
0000
0000
,
0000
0000
0100
0000
0100
0000
0000
0200
,
0000
0000
0300
0000
0000
0000
0000
0002
,
0000
0000
0003
0000
,
1000
0000
1000
0000
1000
0000
0000
0100
,
0000
0000
0000
0000
,
0010
0000
0010
0000
0010
0000
0000
0001
,
0000
0000
0000
0000
,
1000
0000
1000
0000
1000
0000
0000
0010
,
0000
0000
0000
0000
,
0100
0000
0100
0000
0100
0000
0000
0002
,
0000
0000
0003
0000
,
0000
1000
1000
0000
,
0010
0000
0010
0000
,
0000
0100
0100
0000
,
0001
0000
0001
0000
,
2000
0000
3000
0000
,
0002
0000
0003
0000
,
2000
0000
3000
0000
,
0200
0000
0300
0000
,
0000
0010
0010
0000
,
0001
0000
0001
0000
,
0000
1000
1000
0000
,
0010
0000
0010
0000
,
2000
0000
3000
0000
,
0020
0000
0030
0000
,
2000
0000
0000
0000
,
3000
0000
0001
0000
,
0002
0000
0003
0000
,
0020
0000
0030
0000
,
0000
0001
0001
0000
,
1000
0000
1000
0000
,
0200
0000
0300
0000
,
1000
0000
1000
0000
,
2000
0000
0000
0000
,
3000
0000
0010
0000
,
0020
0000
0030
0000
,
2000
0000
3000
0000
,
0000
0001
0001
0000
,
1000
0000
1000
0000
,
0020
0000
0030
0000
,
0100
0000
0100
0000
,
0200
0000
0000
0300
,
0000
0000
0000
0000
,
0001
0000
0001
0000
,
0001
0000
0000
0000
,
1000
0000
1000
0000
,
1000
0000
0000
0000
,
0001
0000
0000
0010
0000
0010
0000
0010
,
0000
0000
0000
0000
,
0100
0000
0000
0100
0000
0100
0000
0100
,
0000
0000
0000
0000
,
1000
0000
1000
0000
,
1000
0000
0000
0000
,
0010
0000
0010
0000
,
0010
0000
0000
0000
,
1000
0000
0000
0100
0000
0100
0000
0100
,
0000
0000
0000
0000
,
0010
0000
0010
0000
,
0020
0000
0000
0000
,
0130
0000
0000
0000
,
0000
0000
0000
0000
,
0000
0000
0000
0000
,
0000
2000
0000
0000
,
3000
1001
0000
0000
,
0000
0000
0010
0000
0010
0000
0000
0200
,
0000
0000
0300
0000
0000
0000
0000
2002
,
0000
0000
3003
0000
,
0000
0001
0001
0000
,
0100
0000
0100
0000
,
0000
0010
0010
0000
,
1000
0000
1000
0000
,
0002
0000
0003
0000
,
0020
0000
0030
0000
,
0200
0000
0300
0000
,
2000
0000
3000
0000
,
0000
0001
0001
0000
,
0100
0000
0100
0000
,
0000
0010
0010
0000
,
1000
0000
1000
0000
,
0200
0000
0300
0000
,
0020
0000
0030
0000
,
0002
0000
0000
0000
,
0003
0000
0100
0000
,
0200
0000
0300
0000
,
0020
0000
0000
0000
,
0030
1000
1000
0000
,
0001
0000
0001
0000
,
0200
0000
0300
0000
,
0001
0000
0001
0000
,
0002
0000
0000
0000
,
0003
0000
1000
0000
,
2000
0000
3000
0000
,
0020
0000
0000
0000
,
0030
1000
1000
0000
,
0001
0000
0001
0000
,
0002
0000
0003
0000
,
1000
0000
1000
0000
,
0200
0000
0000
0000
0000
0000
0000
0300
,
0000
0000
2000
0000
,
3002
0000
2003
0000
,
3000
0000
0020
0000
,
0230
0000
0320
0000
,
0030
0000
0000
0000
1000
0000
0000
0001
,
0000
0001
0000
0001
0000
0000
0000
0000
,
0000
0000
0000
0000
0100
0000
0000
0010
,
0000
0010
0000
0010
0000
0000
0000
0000
,
0000
0000
2000
0000
,
3020
0000
2030
0000
,
3000
0000
0002
0000
,
0203
0000
0302
0000
,
0003
0000
0000
0000
0100
0000
0000
0010
,
0000
0010
0000
0010
0000
0000
0000
0000
,
0000
0000
0000
0000
1000
0000
0000
0001
,
0000
0001
0000
0001
0000
0000
0000
0000
,
1000
0010
0100
0000
;

//---------------dance-single - Ace Of Hearts (2008)----------------
#NOTES:
     dance-single:
     Ace Of Hearts (2008):
     Beginner:
     1:
     0.108,0.072,0.012,0.189,0.000:
0000
0000
0000
0000
,
0000
0000
0000
0000
,
1000
0000
0000
0000
,
1000
0000
0000
0000
,
0001
0000
0000
0000
,
0001
0000
0000
0000
,
0100
0000
0000
0000
,
0100
0000
0000
0000
,
0001
0000
0000
0000
,
0000
0000
0000
0000
,
2000
0000
0000
0000
,
3000
0000
0000
0000
,
0020
0000
0000
0000
,
0030
0000
0000
0000
,
2000
0000
0000
0000
,
3000
0000
0000
0000
,
0002
0000
0000
0000
,
0003
0000
0000
0000
,
1000
0000
0000
0000
,
0000
0000
0000
0000
,
1000
0000
0000
0000
,
0000
0000
0000
0000
,
0002
0000
0000
0000
,
0003
0000
0000
0000
,
0200
0000
0000
0000
,
0300
0000
0000
0000
,
0010
0000
0000
0000
,
0000
0000
0000
0000
,
0010
0000
0000
0000
,
0000
0000
0000
0000
,
2000
0000
0000
0000
,
3000
0000
0000
0000
,
0200
0000
0000
0000
,
0300
0000
0000
0000
,
0010
0000
0000
0000
,
0010
0000
0000
0000
,
0000
0000
0000
0000
,
0001
0000
0001
0000
,
0002
0000
0003
0000
,
1000
0000
1000
0000
,
2000
0000
3000
0000
,
0000
0000
0000
0000
,
0010
0000
0000
0000
,
0010
0000
0000
0000
,
0000
0000
0000
0000
,
0100
0000
0100
0000
,
0200
0000
0300
0000
,
0001
0000
0001
0000
,
0002
0000
0000
0000
,
0003
0000
0000
0000
,
0200
0000
0000
0000
,
0000
0000
0300
0000
,
0020
0000
0000
0000
,
0000
0000
0030
0000
,
1000
0000
1000
0000
,
1000
0000
0000
0000
,
0001
0000
0001
0000
,
0001
0000
0000
0000
,
2000
0000
0000
0000
,
0000
0000
3000
0000
,
0200
0000
0000
0000
,
0000
0000
0300
0000
,
0010
0000
0010
0000
,
0010
0000
0000
0000
,
0001
0000
0001
0000
,
0002
0000
0000
0000
,
0003
0000
0000
0000
,
0001
0000
0000
0000
,
0010
0000
0000
0000
,
0010
0000
0000
0000
,
0110
0000
0000
0000
,
0100
0000
0000
0000
,
0100
0000
0000
0000
,
2002
0000
3003
0000
,
1000
0000
0000
0000
,
0000
0000
0000
0000
,
1000
0000
0000
0000
,
0000
0000
0000
0000
,
0002
0000
0000
0000
,
0003
0000
0000
0000
,
0200
0000
0000
0000
,
0300
0000
0000
0000
,
0010
0000
0000
0000
,
0000
0000
0000
0000
,
1000
0000
0000
0000
,
0000
0000
0000
0000
,
0002
0000
0000
0000
,
0003
0000
0000
0000
,
0020
0000
0000
0000
,
0030
0000
0000
0000
,
0200
0000
0000
0000
,
0300
0000
0000
0000
,
1000
0000
0000
0000
,
1000
0000
0000
0000
,
0200
0000
0000
0000
,
0300
0000
0000
0000
,
0020
0000
0000
0000
,
0030
0000
0000
0000
,
0001
0000
0000
0000
,
0001
0000
0000
0000
,
1000
0000
0000
0000
,
1000
0000
0000
0000
,
0010
0000
0000
0000
,
0020
0000
0000
0000
,
0030
0000
0000
0000
,
0000
0000
2000
0000
,
0000
0000
3000
0000
,
0000
0000
0002
0000
,
0000
0000
0003
0000
,
0000
0000
0010
0000
,
0010
0000
0010
0000
,
0000
0000
0100
0000
,
0100
0000
0100
0000
,
0000
0000
0020
0000
,
0000
0000
0000
0000
,
0030
0000
0002
0000
,
0000
0000
0000
0000
,
0003
0000
1000
0000
,
1000
0000
1000
0000
,
0000
0000
0010
0000
,
0010
0000
0020
0000
,
0000
0000
0130
0000
;

//---------------dance-single - Ace Of Hearts (2008)----------------
#NOTES:
     dance-single:
     Ace Of Hearts (2008):
     Challenge:
     9:
     0.693,0.465,0.365,0.448,0.082: // measure 1
0000
0000
0000
0000
,  // measure 2
0000
0000
0000
0101
,  // measure 3
1010
0000
1000
0100
0001
0000
0001
0100
,  // measure 4
1000
0000
1000
0010
0100
0000
0001
0100
,  // measure 5
1000
0000
1000
0100
0001
0000
1000
0100
,  // measure 6
0010
0000
0100
1000
0001
0100
0100
0000
,  // measure 7
0110
0000
0100
0001
1000
0000
1000
0100
,  // measure 8
0010
0000
0010
0001
1000
0000
1000
0010
,  // measure 9
0100
0000
0100
0001
1000
1000
0000
1200
,  // measure 10
0000
0000
0010
0000
0310
0000
0000
0000
0001
0000
1000
0100
1000
0100
1000
0100
,  // measure 11
0010
0000
0001
0000
2000
3100
0000
0110
,  // measure 12
0000
0000
0001
0000
1000
0100
0010
0100
,  // measure 13
1100
0000
1001
0000
0200
0310
0000
1010
,  // measure 14
0000
0000
2000
3200
2300
3002
0203
0000
,  // measure 15
0002
0000
1000
0303
0200
0310
0000
1010
,  // measure 16
0000
0000
1000
1000
0010
0100
0001
0010
,  // measure 17
0110
0000
1100
0000
2000
3010
0000
0220
,  // measure 18
0000
0000
0000
0330
0000
0100
0101
0000
,  // measure 19
1010
0000
1000
0100
0010
0000
0010
0210
,  // measure 20
0000
1300
0000
1001
0000
1000
0010
0100
,  // measure 21
0001
0000
0001
1000
0100
0000
0100
0110
,  // measure 22
0000
0010
0000
0011
0000
0001
0000
0100
,  // measure 23
0010
0100
0001
1000
0100
0010
0100
1000
,  // measure 24
0001
0100
0010
0100
0001
1000
0100
0010
,  // measure 25
0001
0010
0100
1000
0001
0100
0010
1000
,  // measure 26
0100
0010
0001
1000
0010
0100
0001
0010
,  // measure 27
0100
0000
1000
0001
0100
0000
0100
0120
,  // measure 28
0000
1030
0000
1100
0000
1000
0001
0100
,  // measure 29
0010
0000
0010
1000
0001
0000
0010
0210
,  // measure 30
0000
1300
0000
1001
0000
0001
0000
1000
,  // measure 31
0010
1000
0100
0010
0001
1000
0010
0100
,  // measure 32
0010
1000
0100
0010
0001
0010
0100
1000
,  // measure 33
0001
0100
0010
1000
0010
1000
0001
0010
,  // measure 34
0200
0000
0010
0000
0310
0000
0000
0000
0001
0000
1000
0010
1000
0010
1000
0010
,  // measure 35
0200
0000
0001
0000
0301
1000
0100
0020
,  // measure 36
0000
0130
1000
0000
0001
0100
0010
0100
,  // measure 37
0001
0000
1001
0000
1000
0100
0010
0011
,  // measure 38
0000
0110
0000
1100
0000
1001
0000
0202
,  // measure 39
0000
0000
0000
0000
0303
0010
0000
1010
,  // measure 40
0000
1000
0000
1100
0000
0100
0000
0220
,  // measure 41
0000
0000
0000
0000
0000
0000
0330
0000
0000
0000
0000
0000
0000
0000
0010
0100
,  // measure 42
2000
3000
2100
3001
,  // measure 43
0201
0000
0010
0000
0301
1000
0100
0020
,  // measure 44
0000
0000
0001
0000
0130
0000
1000
0001
,  // measure 45
0100
0000
0010
0000
1000
0100
0001
0100
,  // measure 46
0000
1000
0000
0001
0000
0100
0000
0002
,  // measure 47
0000
0000
1000
0000
0013
0100
0000
1100
,  // measure 48
0000
1000
0000
1001
0000
0001
0000
0202
,  // measure 49
0000
0000
0000
0000
0000
0000
0000
0000
0303
0000
0001
1000
0010
1000
0020
0000
,  // measure 50
0000
0000
0130
0000
0101
0000
0001
0000
1000
0000
0010
0100
0010
1000
0001
1000
,  // measure 51
0001
0100
0010
0100
0001
1000
0100
0010
,  // measure 52
0100
1000
0001
0100
0010
0100
0001
1000
,  // measure 53
0100
0010
0100
1000
0001
0100
1000
0100
,  // measure 54
0001
1000
0100
0010
0001
1000
0010
0000
,  // measure 55
0210
0000
0301
2000
0000
0200
0000
0001
,  // measure 56
0000
0000
0300
0000
3000
0000
0001
0010
,  // measure 57
0100
0000
0100
2000
0000
0002
0000
0010
,  // measure 58
0000
0000
0000
0000
3000
0000
0000
0000
0003
0000
1000
0001
1000
0001
0100
0001
,  // measure 59
0100
0010
0100
0001
1000
0100
0010
0001
,  // measure 60
0010
1000
0010
0001
1000
0001
0100
0010
,  // measure 61
0100
0001
0100
1000
0100
0001
1000
0100
,  // measure 62
0010
0001
1000
0010
1000
0001
0010
0000
,  // measure 63
0210
0000
1300
0002
0000
0200
0000
1000
,  // measure 64
0000
0000
0300
0000
0003
0000
1000
0100
,  // measure 65
0010
0000
0010
0100
0000
1000
0000
1002
,  // measure 66
0000
0000
0000
0000
0203
0000
0000
0000
0320
0000
0000
0000
2030
0000
0000
3000
,  // measure 67
1100
0000
1000
0100
0001
0000
0001
0100
,  // measure 68
1000
0000
1000
0001
0100
0000
0001
0010
,  // measure 69
1000
0000
1000
0010
0001
0000
1000
0001
,  // measure 70
0010
0000
0002
0203
0320
2030
3200
0000
,  // measure 71
0020
1001
0330
0000
,  // measure 72
0000
0000
0001
0001
0010
0100
0000
1000
,  // measure 73
0000
1000
0010
0000
1000
1000
0000
2200
,  // measure 74
0000
0300
0002
3000
0003
0100
0010
0000
,  // measure 75
1010
0000
1000
0001
0100
0000
0010
1000
,  // measure 76
0000
0100
0000
0110
0000
0010
0100
1000
,  // measure 77
1001
0000
0001
0100
0010
0000
0010
1000
,  // measure 78
0000
0100
0000
0010
0000
0001
0000
0100
,  // measure 79
0010
1000
0001
0010
1000
0010
0001
1000
,  // measure 80
0010
0100
0001
0100
0010
1000
0100
0001
,  // measure 81
0100
1000
0001
0100
0010
0100
0001
1000
,  // measure 82
0100
0000
0010
0000
0100
0000
1000
0000
0002
0000
1003
0100
1000
0100
0010
0000
,  // measure 83
0001
0000
1000
0010
0100
0000
0100
0010
,  // measure 84
0000
1000
0000
1100
0000
1000
0001
0100
,  // measure 85
0110
0000
0010
1000
0001
0000
0001
0010
,  // measure 86
0000
0001
0000
0101
0000
0100
0000
0010
,  // measure 87
1000
0001
0010
0100
1000
0001
0100
0010
,  // measure 88
1000
0001
0010
1000
0010
0001
1000
0010
,  // measure 89
0100
0001
0100
1000
0100
0001
1000
0200
,  // measure 90
0000
0000
0310
0000
0100
0000
0000
0000
1000
0000
0001
1000
0001
1000
0010
0100
,  // measure 91
0002
0000
0000
0000
0003
1000
0100
0020
,  // measure 92
0000
0000
0000
0030
0000
0011
0011
0000
,  // measure 93
1000
0000
0010
0000
0110
0100
0001
1000
,  // measure 94
0000
0100
0000
0010
0000
0001
0000
2000
,  // measure 95
0000
0000
0010
3000
0010
0100
0000
0001
,  // measure 96
0000
1000
0000
0001
0000
0010
0000
0200
,  // measure 97
0000
0000
0000
0000
0010
0000
0300
0000
0010
0000
0000
0000
0000
0000
0001
0010
,  // measure 98
0200
0000
0000
0000
0300
0000
0000
0000
1000
0000
0001
0100
0001
0100
0001
0000
,  // measure 99
2000
0000
0001
0000
3010
0100
1000
0020
,  // measure 100
0000
0100
1000
0001
,  // measure 101
0130
0000
0001
0000
1000
0100
0010
0001
,  // measure 102
0000
1000
0000
0010
0000
0100
0000
0002
,  // measure 103
0000
1003
0100
0000
0110
0100
0000
1100
,  // measure 104
0000
1000
0000
1001
0000
0001
0000
0201
,  // measure 105
0000
0000
0000
0000
0000
0000
0010
0000
0000
0000
0000
0000
0000
0000
0000
0000
0000
0000
0310
0000
0000
0000
0000
0000
0000
0000
0000
0000
0000
0000
1000
0000
0000
0001
0000
0000
1000
0000
0000
0001
0000
0000
0020
0030
0000
0000
0000
0000
,  // measure 106
0000
0100
0110
0010
0001
1000
0100
0001
,  // measure 107
0100
1000
0001
0100
0010
1000
0010
0001
,  // measure 108
0010
1000
0100
0010
0001
1000
0100
0001
,  // measure 109
0100
1000
0001
0100
0010
1000
0100
0001
,  // measure 110
0100
1000
0001
0000
0201
0000
0310
2000
,  // measure 111
0000
0002
0000
0010
0000
0000
3000
0000
,  // measure 112
0003
0000
1000
0010
0100
0000
0100
0002
,  // measure 113
0000
2000
0000
0010
0000
0000
0003
0000
,  // measure 114
3000
0000
0001
0100
0001
1000
0010
0100
0001
0000
1000
0000
0100
0000
0010
0000
,  // measure 115
0001
1000
0010
0001
0010
1000
0100
0010
,  // measure 116
0001
0010
1000
0010
0001
1000
0001
0100
,  // measure 117
1000
0100
0001
1000
0100
0010
0100
1000
,  // measure 118
0001
0100
0010
0000
2010
0000
3001
0020
,  // measure 119
0000
0200
0000
1001
0000
0000
0300
0000
,  // measure 120
0030
0000
0100
0001
1000
0000
1000
0100
,  // measure 121
0000
0010
0000
0210
0000
0000
2300
0000
,  // measure 122
3002
0000
0023
0030
0110
0000
0000
0000
;
