#TITLE:Cirno's Perfect Math Class;
#SUBTITLE:;
#ARTIST:Iosys;
#TITLETRANSLIT:;
#SUBTITLETRANSLIT:;
#ARTISTTRANSLIT:;
#GENRE:;
#CREDIT:Ace Of Hearts;
#BANNER:Cirno's Perfect Math Class - Bn.png;
#BACKGROUND:Cirno's Perfect Math Class - Bg.png;
#LYRICSPATH:;
#CDTITLE:Ace Of Hearts.png;
#MUSIC:Cirno's Perfect Math Class.ogg;
#OFFSET:4.680;
#SAMPLESTART:44.620;
#SAMPLELENGTH:12.000;
#SELECTABLE:YES;
#BPMS:0.000=175.000,208.000=87.500,216.000=175.000;
#STOPS:;
#BGCHANGES:0.000=Cirno's Perfect Math Class - bg.bmp=1.000=0=0=1=Centered====,
11.000=Cirno's Perfect Math Class Video.avi=1.000=0=0=1=====,
99999=-nosongbg-=1.000=0=0=0 // don't automatically add -songbackground-
;
#FGCHANGES:;
#KEYSOUNDS:;

//---------------dance-single - Hard----------------
#NOTES:
     dance-single:
     Ace Of Hearts (2009):
     Hard:
     9:
     0.834,0.000,0.010,1.000,0.186: // measure 1
0000
0000
0000
0000
,  // measure 2
0000
0000
0000
0000
,  // measure 3
0000
0000
0000
0000
,  // measure 4
0000
0000
0000
0000
,  // measure 5
0000
0000
0000
0000
,  // measure 6
0000
0000
0000
0000
,  // measure 7
0000
0000
0000
0000
,  // measure 8
0000
0000
0000
0000
,  // measure 9
0000
0000
0000
0000
,  // measure 10
0000
0000
0000
0000
,  // measure 11
0000
0000
0000
0000
,  // measure 12
0000
0000
0000
0000
0000
1000
0100
0010
,  // measure 13
0002
0000
0003
0010
0100
0010
0001
1000
,  // measure 14
0200
0000
0000
0000
0300
1000
0001
0100
,  // measure 15
0020
0000
0000
1030
0001
0010
0100
1000
,  // measure 16
0002
0000
1003
0000
0010
1000
0010
0000
0100
0000
0000
0000
0001
0000
0000
0000
,  // measure 17
0020
0000
0000
0000
0000
0000
0130
1000
0100
0000
0010
0000
0001
0000
1000
0000
,  // measure 18
0010
0000
0100
0001
0100
0000
0010
0000
1000
0000
0001
0000
0010
0000
0100
0000
,  // measure 19
2000
3000
0002
0003
,  // measure 20
0000
0000
0000
0000
0000
0010
0010
0000
,  // measure 21
0200
1300
0001
0200
0310
1000
0001
0010
,  // measure 22
0002
1003
0010
0200
0301
1000
0100
0010
,  // measure 23
0200
1300
0001
2000
3010
0100
0001
0000
,  // measure 24
0000
0000
0000
0000
,  // measure 25
2000
3100
0010
0200
1300
0001
0100
0010
,  // measure 26
2000
3100
0010
0002
1003
0010
0100
0001
,  // measure 27
0020
0130
1000
0002
0103
0010
0100
0001
,  // measure 28
1000
0010
1000
0010
1000
0000
0001
0000
0010
0000
0000
0000
0100
0000
0000
0000
,  // measure 29
2000
3001
0100
0020
0130
0001
0010
0100
,  // measure 30
2000
3001
0100
0020
0130
0001
0010
0100
,  // measure 31
2000
3001
0100
0020
0130
0001
1000
0100
,  // measure 32
0000
0000
0000
0000
,  // measure 33
0020
0130
1000
0002
0103
0010
1000
0100
,  // measure 34
0020
0031
0100
0002
1003
0010
1000
0200
,  // measure 35
0310
0001
0000
0001
1000
0000
1000
0100
0000
0100
0010
0000
0001
0000
1000
0000
,  // measure 36
0010
0000
0100
0000
0010
0000
1000
0001
0000
0000
0000
0000
2002
0000
3003
0000
,  // measure 37
1000
0010
0100
0001
0020
0000
0030
0000
,  // measure 38
0100
1000
0001
0010
0200
0000
0300
0000
,  // measure 39
1000
0001
0100
0010
2000
0000
3001
0100
,  // measure 40
0020
1030
0001
0000
0200
0000
0300
0000
,  // measure 41
0001
1000
0100
1000
0020
0000
0030
0000
,  // measure 42
0100
0000
0001
0100
0001
0000
0010
0000
0200
0000
0000
0000
0300
0000
0000
0000
,  // measure 43
0010
0001
0100
0010
1000
0100
1000
0010
,  // measure 44
0200
0000
0300
0001
2000
0000
3000
0000
,  // measure 45
0001
0010
0100
1000
0020
0000
0030
0000
,  // measure 46
0100
0000
0001
1000
0001
0000
0010
0000
0200
0000
0000
0000
0300
0000
0000
0000
,  // measure 47
1000
0000
0001
0010
0001
0000
1000
0000
0200
0000
0000
0000
1300
0000
0001
0000
,  // measure 48
0020
0230
2300
3000
,  // measure 49
0010
0000
1000
0010
1000
0000
0001
0000
1000
0001
1000
0000
0100
0000
0010
0000
,  // measure 50
0001
0010
0001
0010
0001
0000
1000
0000
0010
0000
0100
0000
0001
0000
1000
0000
,  // measure 51
0020
0000
0130
0001
0010
0100
1000
0001
,  // measure 52
2000
0000
3001
0100
0020
0000
1030
0000
,  // measure 53
0001
0010
0100
2000
0000
0000
3000
0000
0001
0100
0010
0200
0000
0301
0010
0100
,  // measure 54
0010
0001
1000
0020
0000
0000
0030
0000
0100
0001
1000
0020
0000
0130
0002
0003
,  // measure 55
1000
0100
0010
0002
0000
1003
0100
0010
,  // measure 56
0002
0203
0320
2030
,  // measure 57
3200
0300
0020
0030
,  // measure 58
0004
4000
0000
0000
0000
0000
0000
0000
3003
0000
0010
0000
0100
0000
0001
0000
,  // measure 59
0020
0000
0030
0100
1000
0010
0100
0001
,  // measure 60
2000
0000
0000
0000
3000
0010
0100
0001
,  // measure 61
0020
0000
0000
0031
1000
0010
0100
0001
,  // measure 62
1000
0000
0010
0000
0100
0001
0100
0000
0010
0000
0000
0000
0100
0000
0000
0000
,  // measure 63
0002
0000
0000
0000
0003
0000
1000
0100
1000
0000
0001
0000
0010
0000
0100
0000
,  // measure 64
0000
0010
0001
1000
0010
0100
0001
1000
,  // measure 65
0010
0100
0001
0010
0100
1000
0001
0010
,  // measure 66
0100
0000
0020
0000
0031
1000
0100
0010
,  // measure 67
0002
0000
0000
0013
0100
0010
0001
1000
,  // measure 68
0200
0000
0000
0000
0300
1000
0001
0100
,  // measure 69
0020
0000
0000
1030
0001
0010
0100
1000
,  // measure 70
0001
0000
1000
0000
0010
1000
0010
0000
0100
0000
0000
0000
0001
0000
0000
0000
,  // measure 71
2000
0000
0000
0000
3000
0000
0001
0010
0001
0000
1000
0000
0010
0000
0100
0000
,  // measure 72
0010
0000
1000
0001
1000
0000
0100
0000
0010
0000
0001
0000
1000
0000
0010
0000
,  // measure 73
2000
3000
0002
0003
,  // measure 74
0000
0000
0000
0000
0000
0100
0100
0000
,  // measure 75
0002
1003
0100
0020
0130
1000
0001
0100
,  // measure 76
0020
1030
0001
2000
3100
0010
0001
1000
,  // measure 77
0020
0130
0001
2000
3100
0010
0001
1000
,  // measure 78
0020
0000
0130
0002
0000
0200
0000
0003
,  // measure 79
0320
1030
0001
0020
0130
1000
0001
0100
,  // measure 80
0020
0130
0001
2000
3100
0010
0001
1000
,  // measure 81
0020
0130
0001
2000
3100
0010
0001
1000
,  // measure 82
0002
0000
0013
0200
0000
2000
0000
0300
,  // measure 83
3002
0103
0010
2000
3100
0010
0001
0100
,  // measure 84
0020
1030
0001
2000
3010
0100
0001
1000
,  // measure 85
0200
0310
0001
2000
3010
1000
0001
0010
,  // measure 86
0200
1300
0001
0020
0030
0200
2300
3000
,  // measure 87
0002
1003
0100
2000
3010
0100
0001
0010
,  // measure 88
0200
1300
0001
0020
0130
1000
0010
0100
,  // measure 89
0001
0010
0000
0010
0100
0000
0100
1000
0000
1000
0001
0000
0010
0000
0001
0000
,  // measure 90
1000
0000
0010
0000
0100
0000
0002
2000
0000
0000
0000
0000
0010
0000
3003
0000
;

//---------------dance-single - Expert----------------
#NOTES:
     dance-single:
     Ace Of Hearts (2009):
     Challenge:
     12:
     1.000,0.000,0.476,1.000,1.000: // measure 1
0000
0000
0000
0000
,  // measure 2
0000
0000
0000
0000
,  // measure 3
0000
0000
0000
0000
,  // measure 4
0000
0000
0000
0000
,  // measure 5
2000
3100
0010
0001
0000
0001
0010
0100
,  // measure 6
2000
3001
0100
0010
0000
0010
0100
0001
,  // measure 7
2000
0000
3100
0010
0100
0000
1000
0000
0020
0000
0130
0001
0100
0000
0001
0000
,  // measure 8
0020
0130
1000
0001
0000
0100
0200
0300
,  // measure 9
0002
1003
0100
0010
0000
0010
0100
1000
,  // measure 10
0200
0000
1300
0000
0001
0000
0010
0000
0000
0000
0001
1000
0001
0100
0010
0000
,  // measure 11
1000
0000
0100
0010
0100
0000
1000
0000
0002
0000
0103
0010
0100
0000
0001
0000
,  // measure 12
0010
0010
0100
1000
0000
0001
0100
0001
,  // measure 13
0020
0000
0130
1000
0010
0100
0001
1000
,  // measure 14
0200
0010
0001
0010
2300
3001
0100
0001
,  // measure 15
0020
0000
0130
1000
0001
0100
0010
1000
,  // measure 16
0200
0000
0310
0001
0010
0100
1000
0001
0100
0010
1000
0001
0010
0100
1000
0001
,  // measure 17
0200
0000
0000
0000
0300
0000
0010
0100
0001
0000
1000
0000
0200
0000
1300
0000
,  // measure 18
1002
0000
0103
0010
1000
0100
1000
0010
0100
0001
1000
0010
0100
0001
1000
0100
,  // measure 19
0220
0330
0022
0033
,  // measure 20
0110
0000
0100
1000
0001
0000
0100
0000
0010
0000
1010
0000
2020
0000
3030
0000
,  // measure 21
0210
0000
0301
1000
0100
0000
0020
0031
1000
0010
0100
0001
0010
0100
1000
0010
,  // measure 22
0200
0301
1000
0100
0010
0000
0200
1300
0001
0100
0010
0100
0001
1000
0100
0000
,  // measure 23
2000
3001
0100
0010
0100
0000
0002
1003
0100
0010
0100
1000
0001
0100
0010
1000
,  // measure 24
0001
0010
0100
1000
0001
0000
1000
0010
1000
0100
0010
0001
1000
0010
0100
0000
,  // measure 25
0002
1003
0010
0100
0001
0000
2000
3100
1000
0001
0100
0010
1000
0100
0010
0001
,  // measure 26
2000
3010
0100
0001
1000
0000
0200
0310
0100
1000
0001
0100
0010
1000
0001
0000
,  // measure 27
0200
0310
1000
0001
0010
0000
0002
1003
0010
1000
0100
0010
0001
1000
0010
0100
,  // measure 28
0001
1000
0001
1000
0001
1000
0001
1000
0020
0000
0230
0000
0302
0000
2003
0000
,  // measure 29
3020
0130
0001
1000
0100
0000
2000
3001
0100
0010
0100
0001
0010
0100
1000
0001
,  // measure 30
0200
0310
1000
0001
0010
0000
0002
0103
0010
1000
0001
0010
0100
1000
0001
0000
,  // measure 31
0200
0310
1000
0001
0010
0000
0200
1300
0001
0100
0010
1000
0100
0010
0001
1000
,  // measure 32
0010
0100
0001
0010
0100
1000
0010
0100
0001
0000
1000
0100
1000
0000
0001
0000
,  // measure 33
0200
0301
1000
0100
0010
0000
0002
1003
0010
0100
0001
1000
0100
0010
0001
0100
,  // measure 34
0020
1030
0001
0010
0100
1000
0002
0103
0010
1000
0001
0010
0100
1000
0001
0100
,  // measure 35
0010
1000
0000
0001
0100
0000
0001
1000
0000
0100
0010
0000
0001
0000
0100
0000
,  // measure 36
0010
0000
0010
0000
0010
0000
2000
0200
0000
0000
0000
0000
0001
0000
3300
0000
,  // measure 37
2001
0000
3020
0000
0230
0000
0320
0000
2030
0000
0001
0000
0001
3000
0001
0000
,  // measure 38
0021
0000
0230
0000
2300
0000
3002
0000
0203
0000
0010
0000
0010
0300
0010
0000
,  // measure 39
2010
0000
3002
0000
0023
0000
0230
0000
0320
0000
0031
0000
2000
0000
3002
0003
,  // measure 40
0021
0230
2300
3001
0200
0310
1000
0001
,  // measure 41
0100
0010
0100
0001
0020
0000
0230
0000
2300
0000
0001
0000
0001
3000
0001
0000
,  // measure 42
0210
0000
0301
1000
0100
0000
0010
0000
0002
0000
0100
0000
0100
0003
0100
0000
,  // measure 43
0210
0000
0302
0000
0023
0030
0210
0000
2300
0000
3002
0000
0203
0000
0320
0030
,  // measure 44
2020
0000
0000
0000
0030
0000
3002
0000
0013
0100
1000
0001
0100
0010
0100
0001
,  // measure 45
0021
0000
0031
1000
0100
0000
2000
0000
0020
0000
0000
3030
0101
0000
0000
0000
,  // measure 46
0210
0000
0301
1000
0100
0000
0020
0000
0002
0033
1100
0000
1001
0000
0000
0000
,  // measure 47
0201
0000
0310
0100
0001
0000
1000
0100
0020
0000
0130
0000
2000
0000
3001
0000
,  // measure 48
0100
0000
0010
1000
0001
0000
0010
0100
1000
0000
0001
0010
0001
1000
0010
0100
,  // measure 49
0001
1000
0100
0010
0100
1000
0001
0100
0010
0100
0001
1000
0100
0010
0100
1000
,  // measure 50
0001
0100
0010
0100
0001
1000
0100
0010
0100
1000
0001
0100
0010
0000
0000
0000
,  // measure 51
2010
0000
3001
0000
0020
0000
0230
0300
2100
0000
3001
0000
0200
0000
0320
0030
,  // measure 52
1000
0001
0010
0100
0010
0001
1000
0010
0100
0001
1000
0010
0100
0001
1000
0010
,  // measure 53
0110
0100
0010
2000
0000
0100
3100
0000
0110
0010
0001
0200
0000
0310
1000
0001
,  // measure 54
0011
0000
0010
0000
0100
0000
0020
0000
0000
0000
0001
0000
0031
0000
1000
0000
1010
0000
0010
0000
0100
0000
0102
0000
0000
0000
1003
0100
1000
0010
1000
0001
,  // measure 55
0200
0301
1000
1020
0000
0130
0002
1003
,  // measure 56
0010
0100
0001
1000
0100
1000
0001
0100
0010
0000
0010
0000
1000
0000
0100
0000
,  // measure 57
0220
0330
2002
3003
,  // measure 58
1000
0001
0100
0001
0010
0001
0100
0001
1000
0000
0010
0000
0100
0000
0001
0000
,  // measure 59
0021
0000
0100
0000
0100
0030
0100
0000
1000
0000
0010
0000
0100
0000
0001
0000
,  // measure 60
2000
0000
0100
0000
0001
0000
0100
3000
0002
0000
0013
0000
0100
0000
1000
0000
,  // measure 61
1020
0000
0100
0000
0100
0030
0200
0000
0302
0000
0023
0000
0230
0000
2300
0000
,  // measure 62
3002
0000
0103
0010
0100
0001
1000
0100
0010
0000
0000
0000
0002
0000
0003
0000
,  // measure 63
2002
0000
0003
0000
3010
0000
0100
0001
1000
0000
0100
0000
1000
0000
0010
0000
,  // measure 64
0000
0000
0010
0100
0001
0000
1000
0001
0100
0001
1000
0010
0100
0001
1000
0000
,  // measure 65
0020
0230
0302
0023
0230
2300
3002
1003
,  // measure 66
2200
0000
0000
3300
0220
0000
0000
0330
0022
0030
1003
0000
0010
0000
0100
0000
,  // measure 67
0002
0000
0010
0000
0010
0003
0010
0000
0100
0000
1000
0000
0001
0000
1000
0000
,  // measure 68
0020
0000
0100
0000
1000
0000
0100
0030
2000
0000
3001
0000
0010
0000
0100
0000
,  // measure 69
0020
0000
0001
0000
0001
0030
0001
0000
0100
0000
0010
0000
1000
0000
0100
0000
,  // measure 70
0010
0000
0001
1000
0010
0100
0001
1000
0010
0000
0000
0000
0200
0000
0300
0000
,  // measure 71
0202
0000
0300
0000
1003
0000
0100
0010
0100
0000
1000
0000
0020
0000
0130
0000
,  // measure 72
0102
0000
1003
0100
0010
0000
0100
0000
2100
0000
3010
0000
0100
0000
0001
0000
,  // measure 73
0202
0303
2020
3030
,  // measure 74
1000
0000
0001
0010
0001
0000
0100
0000
2002
0000
0000
3003
0110
0000
0000
0000
,  // measure 75
2010
0000
3001
0010
0100
0000
0020
0031
0100
0010
1000
0001
0100
0001
0010
0100
,  // measure 76
2000
3001
0100
0010
1000
0000
0002
0103
0010
0100
0001
1000
0100
0010
0001
1000
,  // measure 77
0200
1300
0010
0100
0001
0000
0020
0130
1000
0001
0100
0010
1000
0001
1000
0000
,  // measure 78
2020
0000
0000
3000
0130
0000
0202
0000
0000
0300
2000
0000
0000
0000
3003
0000
,  // measure 79
2000
3100
1000
0001
0100
0000
0020
0130
0001
1000
0100
0010
0100
1000
0001
0100
,  // measure 80
0020
1030
0001
1000
0100
0000
2000
3001
0100
0010
0100
0001
1000
0100
0010
0000
,  // measure 81
0200
1300
0001
0100
0010
0000
2000
3100
0010
0001
1000
0010
0100
0001
1000
0000
,  // measure 82
2200
0300
3001
0202
0003
0020
0000
0330
,  // measure 83
0200
0301
1000
0100
0010
0000
0002
1003
0010
0100
0001
1000
0100
1000
0010
0100
,  // measure 84
0002
1003
0001
0100
0010
0000
2000
3010
0100
0010
1000
0000
0001
0010
0001
1000
,  // measure 85
0020
0130
0001
0100
0010
0000
2000
3100
0010
0001
0010
0100
2000
0000
3020
0000
,  // measure 86
0230
0000
0302
0003
0021
0000
0000
0000
0230
0000
2300
0000
3002
0000
0103
0000
,  // measure 87
0020
1030
0100
0010
0001
0000
0200
0310
0100
0001
1000
0100
1000
0001
0100
0001
,  // measure 88
1000
0010
0100
0001
1000
0100
0010
0001
1000
0010
0100
0001
1000
0100
0010
0001
,  // measure 89
1000
0010
0000
0010
0100
0000
0100
0001
0000
0001
1000
0000
0010
0000
1000
0000
,  // measure 90
0010
0000
0010
0000
0010
0000
2000
0002
0000
0000
0000
0000
0010
0000
0000
0000
,  // measure 91
0000
0000
0000
0000
,  // measure 92
0000
3003
0000
0000
;

//---------------dance-single - Medium----------------
#NOTES:
     dance-single:
     Ace Of Hearts (2009):
     Medium:
     7:
     0.649,0.000,0.029,1.000,0.057:
0000
0000
0000
0000
,
0000
0000
0000
0000
,
0000
0000
0000
0000
,
0000
0000
0000
0000
,
0000
0000
0000
0000
,
0000
0000
0000
0000
,
0000
0000
0000
0000
,
0000
0000
0000
0000
,
0000
0000
0000
0000
,
0000
0000
0000
0000
,
0000
0000
0000
0000
,
0000
0000
0000
0000
0000
1000
0100
0010
,
0002
0000
0003
1000
0001
0010
0100
0000
,
2000
0000
0000
0000
3000
0001
0100
0001
,
2000
0000
3000
0001
0100
0010
2000
0000
,
3020
0000
0030
2000
,
3002
0000
0003
1000
0020
0000
0230
0000
,
0301
1000
0001
0010
0001
0100
0001
0000
,
2000
3000
0002
0003
,
0000
0000
0000
0000
0000
0001
0001
0000
,
0020
0000
0031
2000
0000
3020
0030
0000
,
2000
0000
3001
0020
0000
0230
0300
0000
,
2000
0000
3001
0200
0000
0320
0030
0000
,
0000
0000
0000
0000
,
2000
0000
3001
0020
0000
0230
0300
0000
,
0020
0000
0031
2000
0000
3020
0030
0000
,
2000
0000
3100
0020
0000
0032
0003
0000
,
1000
0001
1000
0000
0010
0000
1000
0000
,
0002
0000
0103
0020
0000
2030
3000
0000
,
0002
0000
1003
0200
0000
0320
0030
0000
,
0002
0000
1003
0020
0000
0230
0300
0000
,
0000
0000
0000
0000
,
0020
0000
1030
0002
0000
0203
0300
0000
,
0002
0000
0013
0200
0000
2300
3000
0000
,
0001
0000
0000
1000
0000
0000
0100
0000
0000
0000
0010
0000
0010
0000
0000
0000
,
0001
0000
1000
0000
0001
0000
0000
0010
0000
0000
0000
0000
0110
0000
0000
0000
,
0010
0001
1000
0001
0020
0000
0030
0000
,
0001
1000
0001
1000
0200
0000
0300
0000
,
1000
0100
0010
0001
0020
0000
0130
0000
,
2000
3002
0203
0300
,
0010
0100
0001
0100
0020
0000
0030
0000
,
1000
0001
0010
0001
2000
0000
3000
0000
,
0001
0010
0100
0000
0010
0001
0010
0001
,
2000
3000
0200
0300
,
1000
0001
0100
0010
2000
0000
3000
0000
,
0001
0100
0010
1000
0002
0000
0003
0000
,
1000
0100
0010
0001
2000
0000
3002
0000
,
0023
0230
2300
3000
,
0010
1000
0010
1000
0001
0000
1000
0000
,
0001
0010
0001
1000
0010
0000
0000
0000
,
0100
0001
0100
0000
0010
1000
0010
1000
,
0002
0000
0000
1003
0200
0000
0300
0000
,
1000
0001
1000
0002
0000
0000
0003
0000
1000
0010
1000
0020
0000
0000
0130
0000
,
0001
1000
0001
2000
0000
0000
3000
0000
0001
0010
0001
0020
0000
0000
0130
0000
,
1000
0001
1000
0002
0000
1003
0010
1000
,
0001
0100
0010
1000
,
0002
0003
2000
3000
,
2002
0000
0000
0000
3003
1000
0100
0010
,
0002
0000
0003
0010
0100
1000
0100
0010
,
0200
0000
0000
0000
0300
1000
0001
0100
,
0002
0000
0000
1003
0001
1000
0010
1000
,
0002
0000
0003
0200
,
0320
0000
0030
1000
0010
1000
0001
0010
,
0000
0001
1000
0010
1000
0001
0100
0001
,
1000
0010
1000
0000
0001
0010
0001
1000
,
0002
0000
2003
0000
3010
1000
0001
1000
,
0020
0000
0030
1000
0001
0010
0001
0010
,
0200
0000
0000
0000
0300
0010
0001
1000
,
0002
0000
0003
1000
0001
1000
0010
1000
,
0002
0000
0003
2000
,
3020
0000
0030
1000
0001
1000
0010
1000
,
0001
1000
0001
0000
0010
0001
0010
0000
,
0200
0300
0020
0030
,
0000
0000
0000
0000
0000
0010
0010
0000
,
0002
0000
1003
0020
0000
2030
3001
0000
,
2000
0000
3010
0200
0000
0301
1000
0000
,
0002
0000
1003
0200
0000
0310
0001
0000
,
2000
0000
3010
2000
0000
0020
3030
0000
,
0200
0000
0301
2000
0000
3001
0010
0000
,
0002
0000
1003
0020
0000
0130
0001
0000
,
2000
0000
3001
0020
0000
0031
1000
0000
,
0002
0000
0103
0002
0000
0200
0303
0000
,
0010
1000
0010
2000
0000
0002
3003
0000
,
0010
0001
0010
0002
0000
2000
3003
0000
,
1000
0100
1000
0200
0000
0020
0330
0000
,
0000
0000
0000
0000
,
0001
1000
0001
2000
0000
3010
1000
0000
,
0001
0010
0001
0020
0000
0130
1000
0000
,
0001
0000
0000
1000
0000
0000
0100
0000
0000
0000
0010
0000
0010
0000
0000
0000
,
0001
0000
1000
0000
0001
0000
0000
0100
0000
0000
0000
0000
1001
0000
0000
0000
;

//---------------dance-single - Easy----------------
#NOTES:
     dance-single:
     Ace Of Hearts (2009):
     Easy:
     5:
     0.400,0.000,0.048,0.886,0.005:
0000
0000
0000
0000
,
0000
0000
0000
0000
,
0000
0000
0000
0000
,
0000
0000
0000
0000
,
0000
0000
0000
0000
,
0000
0000
0000
0000
,
0000
0000
0000
0000
,
0000
0000
0000
0000
,
0000
0000
0000
0000
,
0000
0000
0000
0000
,
0000
0000
0000
0000
,
0000
0000
0000
1000
,
2000
3000
0001
0001
,
0002
0000
0003
0010
,
0020
0030
0100
0100
,
0200
0000
0300
1000
,
2000
3000
0001
0001
,
0001
0000
1000
1000
,
2000
3000
0002
0003
,
0000
0000
0000
0000
0000
0010
0000
0000
,
0002
0000
0003
0002
0000
0003
0000
0000
,
2000
0000
3000
2000
0000
3000
0000
0000
,
0020
0000
0030
0020
0000
0030
0000
0000
,
0000
0000
0000
0000
,
2000
0000
3000
2000
0000
3000
0000
0000
,
0200
0000
0300
0200
0000
0300
0000
0000
,
0020
0000
0030
0020
0000
0030
0000
0000
,
0220
0000
0330
0000
,
0002
0000
0003
0002
0000
0003
0000
0000
,
2000
0000
3000
2000
0000
3000
0000
0000
,
0020
0000
0030
0020
0000
0030
0000
0000
,
0000
0000
0000
0000
,
2000
0000
3000
2000
0000
3000
0000
0000
,
0020
0000
0030
0020
0000
0030
0000
0000
,
1000
1000
1000
0001
,
0010
0010
0010
1001
,
1000
1000
2000
3000
,
0100
0100
0200
0300
,
1000
1000
1000
1000
,
0001
0001
0002
0003
,
0010
0010
0020
0030
,
0100
0100
0200
0300
,
1000
1000
1000
1000
,
2000
0000
3000
0000
,
0010
0010
0020
0030
,
0100
0100
0200
0300
,
0001
0001
0001
0001
,
0002
0000
0003
0000
,
1000
1000
0001
0001
,
0010
0010
0010
0000
,
0002
0003
2000
3000
,
0020
0030
0010
0000
,
2000
0000
0000
3000
0000
0000
0000
0000
0002
0000
0000
0003
0100
0000
0100
0000
,
0200
0000
0000
0300
0000
0000
0000
0000
0020
0000
0030
0020
0000
0000
0030
0000
,
1000
1000
1000
1000
,
2000
3000
0001
0001
,
2000
3000
0002
0003
,
0220
0000
0330
0000
,
1000
0000
0100
0100
,
0200
0000
0300
0010
,
0020
0030
0001
0001
,
0002
0000
0003
0100
,
0200
0300
0010
0010
,
0000
1000
1000
1000
,
0001
0001
0001
0001
,
0100
0100
0100
0001
,
0002
0003
1000
1000
,
2000
0000
3000
0010
,
0020
0030
0100
0100
,
0200
0000
0300
0001
,
0001
0000
0100
0100
,
0010
0010
0010
0010
,
0020
0030
2000
3000
,
0000
0000
0000
0000
,
0020
0000
0030
0020
0000
0030
0000
0000
,
2000
0000
3000
2000
0000
3000
0000
0000
,
0002
0000
0003
0002
0000
0003
0000
0000
,
2000
0000
3001
2000
0000
0002
3003
0000
,
2000
0000
3000
2000
0000
3000
0000
0000
,
0020
0000
0030
0020
0000
0030
0000
0000
,
0200
0000
0300
0200
0000
0300
0000
0000
,
0002
0000
1003
0002
0000
2000
3003
0000
,
0002
0000
0003
0002
0000
0003
0000
0000
,
0200
0000
0300
0200
0000
0300
0000
0000
,
0020
0000
0030
0020
0000
0030
0000
0000
,
2002
0000
3003
0000
,
2000
0000
3000
2000
0000
3000
0000
0000
,
0020
0000
0030
0020
0000
0030
0000
0000
,
1000
1000
1000
0001
,
0010
0010
0010
1001
;

//---------------dance-single - Novice----------------
#NOTES:
     dance-single:
     Ace Of Hearts (2009):
     Beginner:
     2:
     0.210,0.000,0.029,0.286,0.000:
0000
0000
0000
0000
,
0000
0000
0000
0000
,
0000
0000
0000
0000
,
0000
0000
0000
0000
,
0000
0000
0000
0000
,
0000
0000
0000
0000
,
0000
0000
0000
0000
,
0000
0000
0000
0000
,
0000
0000
0000
0000
,
0000
0000
0000
0000
,
0000
0000
0000
0000
,
0000
0000
0000
0000
,
0001
0000
0001
0000
,
0001
0000
0000
0000
,
0010
0000
0010
0000
,
0010
0000
0000
0000
,
0100
0000
0100
0000
,
0100
0000
0000
0000
,
2000
3000
0002
0003
,
0000
0000
0000
0000
,
1000
0000
1000
0000
,
0001
0000
0001
0000
,
1000
0000
1000
0000
,
0000
0000
0000
0000
,
0010
0000
0010
0000
,
1000
0000
1000
0000
,
0001
0000
0001
0000
,
0000
0000
0000
0000
,
1000
0000
1000
0000
,
0001
0000
0001
0000
,
0010
0000
0010
0000
,
0000
0000
0000
0000
,
0001
0000
0001
0000
,
1000
0000
1000
0000
,
0020
0000
0030
0000
,
1000
0000
0000
1001
,
0001
0000
0000
0000
,
1000
0000
0000
0000
,
0010
0000
0010
0000
,
0020
0000
0030
0000
,
1000
0000
0000
0000
,
0001
0000
0000
0000
,
0010
0000
0010
0000
,
0020
0000
0030
0000
,
0001
0000
0000
0000
,
1000
0000
0000
0000
,
0010
0000
0010
0000
,
0020
0000
0030
0000
,
1000
0000
1000
0000
,
2000
0000
3000
0000
,
0001
0000
0001
0000
,
0002
0000
0003
0000
,
2000
3000
0002
0003
,
0200
0300
0020
0030
,
1000
0000
1000
0000
,
0001
0000
0001
0000
,
0002
0003
2000
3000
,
2002
0000
3003
0000
,
0001
0000
0001
0000
,
0002
0000
0003
0000
,
0010
0000
0010
0000
,
0020
0000
0030
0000
,
0001
0000
0001
0000
,
0000
0000
0000
0000
,
1000
0000
1000
0000
,
2000
0000
3000
0000
,
0100
0000
0100
0000
,
0200
0000
0300
0000
,
0010
0000
0010
0000
,
0020
0000
0030
0000
,
0001
0000
0001
0000
,
1000
0000
1000
0000
,
0020
0030
0200
0300
,
0000
0000
0000
0000
,
0001
0000
0001
0000
,
0100
0000
0100
0000
,
0010
0000
0010
0000
,
2000
0000
3000
2000
0000
3000
0000
0000
,
0010
0000
0010
0000
,
1000
0000
1000
0000
,
0001
0000
0001
0000
,
0020
0000
0030
0020
0000
0030
0000
0000
,
0001
0000
0001
0000
,
1000
0000
1000
0000
,
0010
0000
0010
0000
,
0200
0000
0300
0000
,
0010
0000
0010
0000
,
1000
0000
1000
0000
,
0002
0000
0003
0000
,
0020
0000
0030
1001
;

//---------------dance-single - Baka Baka!----------------
#NOTES:
     dance-single:
     Baka Baka!:
     Edit:
     10:
     -1.000,-1.000,-1.000,-1.000,-1.000:
// measure 1
0000
0000
0000
0000
,  // measure 2
0000
0000
0000
0000
,  // measure 3
0000
0000
0000
0000
,  // measure 4
0000
0000
0000
0000
,  // measure 5
0000
0000
0002
0023
,  // measure 6
0000
0000
0030
0000
0002
2003
3020
0230
,  // measure 7
0302
0000
2003
0000
3002
0000
0023
0030
,  // measure 8
0000
0000
0002
1003
0020
1030
0200
0000
,  // measure 9
0000
0000
0000
0000
0300
0000
0000
0000
0010
0000
0002
0000
0000
1000
0003
0020
,  // measure 10
0000
0000
0130
0000
0002
0000
0000
0000
2003
0000
0000
3001
0000
0100
0000
0000
,  // measure 11
0020
0000
0000
0000
0030
0000
0000
2000
0000
0000
0000
3002
0000
0000
0023
0000
,  // measure 12
0000
0130
0000
2000
0000
0000
0000
0000
3000
0000
1000
0000
0100
0000
0010
0000
,  // measure 13
0002
0000
0000
0013
0100
1000
0001
1000
,  // measure 14
0200
1300
0001
0100
0010
0100
0001
1000
,  // measure 15
0200
0000
0000
0310
0100
1000
0001
0100
,  // measure 16
0010
0000
1000
0001
1000
0100
1000
0000
0010
0000
0000
0000
0100
0000
0000
0000
,  // measure 17
0202
0000
0000
0000
0303
0000
0100
0010
1000
0000
0001
0000
0010
0000
0001
0000
,  // measure 18
1000
0000
0010
1000
0001
0000
0100
0000
0010
0000
1000
0000
0001
0000
0010
0000
,  // measure 19
22MM
3300
2M2M
3030
,  // measure 20
0100
0000
0001
1000
0100
0000
1000
0000
0001
0000
0010
0000
0010
0000
0000
0000
,  // measure 21
00M1
0000
1000
0100
1000
0000
M001
0100
0001
0000
1000
0000
0010
0000
1000
0000
,  // measure 22
M001
0000
0010
0100
0010
0000
00M1
1000
0001
0000
1000
0000
0010
0000
1000
0000
,  // measure 23
M001
0000
0100
0001
0100
0000
0M10
1000
0010
0000
1000
0000
0100
0000
0010
0000
,  // measure 24
0000
0000
0000
0000
,  // measure 25
00M1
0000
1000
0100
0010
0000
M100
0010
0001
0000
1000
0000
0001
0000
0100
0000
,  // measure 26
0M10
0000
1000
0001
0100
0000
0M01
1000
0100
0000
0010
0000
0001
0000
1000
0000
,  // measure 27
M010
0000
1000
0001
0010
0000
00M1
1000
0100
0000
0010
0000
0001
0000
1000
0000
,  // measure 28
0004
40M0
0M00
00M0
0M00
00M0
0M00
00M0
3M03
0000
0010
0000
0100
0000
2000
0000
,  // measure 29
3M01
0000
0100
0001
1000
0000
M100
0010
0001
0000
1000
0000
0010
0000
0100
0000
,  // measure 30
0M01
0000
1000
0100
0010
0000
01M0
1000
0001
0000
0100
0000
0010
0000
1000
0000
,  // measure 31
M100
0000
0010
0100
1000
0000
M001
0100
0010
0000
0100
0000
0001
0000
1000
0000
,  // measure 32
0000
0000
0000
0000
,  // measure 33
M100
0000
0010
0100
1000
0000
M001
0100
0010
0000
1000
0000
0001
0000
0010
0000
,  // measure 34
01M0
0000
1000
0001
0100
0000
0M10
1000
0001
0000
0010
0000
0100
0000
1000
0000
,  // measure 35
0001
0100
0000
0100
0010
0000
0010
0100
0000
0100
0001
0000
1000
0000
0100
0000
,  // measure 36
0010
0000
0001
0000
1000
0000
0002
0200
0000
0000
0000
0000
1000
0000
0303
0000
,  // measure 37
0001
1000
0100
0010
0002
0000
0003
0000
,  // measure 38
1000
0001
0010
0100
2000
0000
3000
0000
,  // measure 39
0001
0100
0010
0100
0002
0000
1003
0100
,  // measure 40
0010
0001
0100
0000
0020
0000
0030
0000
,  // measure 41
1000
0000
0001
0100
0010
0000
1000
0000
0200
0000
0000
0000
0300
0000
0000
0000
,  // measure 42
0010
0000
0001
1000
0100
0000
1000
0000
0002
0000
0000
0000
0003
0000
0000
0000
,  // measure 43
2000
3002
0203
0320
2030
3002
0023
0230
,  // measure 44
2300
0000
0000
3001
0200
0000
0300
0000
,  // measure 45
0001
0000
1000
0001
0010
0000
0100
0000
2000
0000
3000
0000
1M1M
0000
0000
0000
,  // measure 46
0010
0000
1000
0100
0010
0000
0001
0000
0200
0300
M11M
0000
M11M
0000
0000
0000
,  // measure 47
0010
0000
1000
0001
0100
0000
0010
0000
2000
0000
0000
0000
3001
0000
0100
0000
,  // measure 48
0020
2030
3200
0300
,  // measure 49
1000
0100
0010
0100
1000
0001
0010
0100
0010
0000
0001
0000
1000
0000
0001
0000
,  // measure 50
1000
0010
0100
0010
1000
0001
0010
0001
1000
0000
0010
0000
0010
0000
0000
0000
,  // measure 51
2000
0000
3001
0010
0001
1000
0010
0100
,  // measure 52
0002
0000
0000
1003
0020
0000
0030
0000
,  // measure 53
10M0
0100
0010
0002
0000
0000
0003
0000
010M
0010
1000
0200
0000
1300
0001
0100
,  // measure 54
M010
0100
0001
2000
0000
3010
0100
0000
00M1
1000
0100
0210
0000
1300
0001
0000
,  // measure 55
0100
0010
1000
0002
0000
1003
0100
1000
,  // measure 56
0040
0400
0000
0000
0000
0000
0000
0000
0330
0000
1000
0000
0001
0000
0100
0000
,  // measure 57
M22M
0330
M2M2
0303
,  // measure 58
00M1
M100
00M1
M100
001M
1M00
001M
1M00
00M1
0000
1000
0000
0100
0000
0010
0000
,  // measure 59
0002
0000
0000
1003
0010
0100
0001
1000
,  // measure 60
0200
0310
0100
1000
0001
0100
0010
0100
,  // measure 61
0002
0000
0000
1003
0010
0100
0010
1000
,  // measure 62
0002
0000
0013
0001
0010
0100
1000
0000
0010
0000
0000
0000
1000
0000
0000
0000
,  // measure 63
2200
0000
0000
0000
3300
0000
0100
0010
0001
0000
1000
0000
0010
0000
0100
0000
,  // measure 64
0MM0
0000
0100
0001
1000
0000
0100
0000
0010
0000
0100
0000
1000
0000
0001
0000
,  // measure 65
0200
0000
0000
0000
0310
0000
1000
0000
0200
0000
0320
0000
0032
0000
0203
0300
,  // measure 66
0110
0000
0101
0000
1100
1000
0100
0010
,  // measure 67
0002
0000
0000
1003
0010
0100
0001
1000
,  // measure 68
0200
0310
0100
1000
0001
0100
0010
1000
,  // measure 69
0002
0000
0000
0013
0100
1000
0001
0100
,  // measure 70
0010
0000
0100
0001
0100
0010
1000
0000
0100
0000
0000
0000
0010
0000
0000
0000
,  // measure 71
0022
0000
0000
0000
0033
0000
0001
1000
0010
0000
1000
0000
0100
0000
0010
0000
,  // measure 72
0200
0000
1300
0001
0100
0000
0010
0000
0100
0000
0001
0000
0010
0000
0001
0000
,  // measure 73
M2M2
0303
2M2M
3030
,  // measure 74
0000
0000
2002
3003
,  // measure 75
M001
0000
0010
0001
1000
0000
M010
0100
0001
0000
1000
0000
0100
0000
0010
0000
,  // measure 76
01M0
0000
1000
0001
0100
0000
0M10
0100
0001
0000
1000
0000
0100
0000
0010
0000
,  // measure 77
01M0
0000
1000
0001
0100
0000
0M10
0100
0001
0000
1000
0000
0100
0000
0010
0000
,  // measure 78
M012
0000
10M3
201M
0000
00M2
0000
3003
,  // measure 79
100M
0000
0010
0100
0001
0000
100M
0100
0010
0000
0001
0000
0100
0000
0010
0000
,  // measure 80
10M0
0000
0001
0100
0010
0000
100M
0100
0010
0000
0100
0000
1000
0000
0001
0000
,  // measure 81
010M
0000
0010
1000
0001
0000
001M
0100
1000
0000
0010
0000
1000
0000
0100
0000
,  // measure 82
M120
0000
0M31
20M1
0000
002M
0000
3030
,  // measure 83
M100
0000
0001
1000
0100
0000
0M10
0100
1000
0000
0001
0000
0100
0000
0010
0000
,  // measure 84
10M0
0000
0001
0010
0100
0000
0M10
0001
1000
0000
0010
0000
0100
0000
0001
0000
,  // measure 85
100M
0000
0100
0010
0001
0000
100M
0001
0100
0000
0010
0000
1000
0000
0001
0000
,  // measure 86
0021
0230
2300
0000
3002
0203
0320
0000
,  // measure 87
1M30
0000
0001
0100
0010
0000
10M0
0001
0010
0000
0100
0000
1000
0000
0001
0000
,  // measure 88
010M
0000
0010
1000
0001
0000
001M
0100
1000
0000
0001
0000
0100
0000
0010
0000
,  // measure 89
1000
0001
0000
0001
0100
0000
0100
0001
0000
0001
1000
0000
0100
0000
0010
0000
,  // measure 90
0001
0000
0100
0000
0010
0000
2000
0002
0000
0000
0000
0000
0010
0000
0000
0000
,  // measure 91
0000
0000
0000
0000
,  // measure 92
0000
3003
0000
0000
;
