#TITLE:Christmas For You!;
#SUBTITLE:;
#ARTIST:The Idolm@ster;
#TITLETRANSLIT:;
#SUBTITLETRANSLIT:;
#ARTISTTRANSLIT:;
#GENRE:;
#CREDIT:Ace Of Hearts;
#BANNER:Christmas For You - Bn.png;
#BACKGROUND:Christmas For You - Bg.png;
#LYRICSPATH:;
#CDTITLE:Ace Of Hearts.png;
#MUSIC:Christmas For You!.ogg;
#OFFSET:-13.495;
#SAMPLESTART:64.400;
#SAMPLELENGTH:12.000;
#SELECTABLE:YES;
#BPMS:0.000=160.000,468.000=80.000,484.000=160.000,516.000=80.000,528.000=160.000;
#STOPS:;
#BGCHANGES:;
#KEYSOUNDS:;

//---------------dance-single - Ace Of Hearts (2009)----------------
#NOTES:
     dance-single:
     Ace Of Hearts (2009):
     Hard:
     8:
     0.563,0.000,0.031,1.000,0.017:
0000
0000
0000
0000
,
0000
0000
0000
0000
,
0000
0000
0000
0000
,
0000
0000
0000
0000
,
0000
0000
0000
0000
,
0000
0000
0000
0000
,
0000
0000
0000
0000
,
0000
0000
0000
0000
0000
1000
0010
1000
,
0000
0001
0010
0001
0000
1000
0100
0010
,
0000
0002
0000
1003
0010
1000
0001
0200
,
0000
0301
2000
0000
0000
0000
0000
0000
,
3000
0000
0000
0000
0000
0001
0010
0001
,
0000
1000
0100
1000
0000
0001
0100
0010
,
0000
2000
0000
3001
0100
0010
0100
0002
,
0000
1003
0020
0000
0000
0000
0000
0000
,
0030
0000
0000
0000
0000
1000
0001
0010
,
0000
0001
1000
0010
0000
0100
0001
1000
,
0100
0010
0001
1000
0000
0010
1000
0001
,
0000
0010
0001
1000
0000
0100
0010
0100
,
1000
0001
0100
0010
0000
0100
0001
1000
,
0000
0010
1000
0010
0000
0100
0001
1000
,
0020
0230
0302
2003
,
3002
0000
0013
0200
0000
1300
0002
0000
,
0203
0000
0000
0000
0300
0001
0100
0010
,
2000
0000
3001
0020
0000
0230
0000
2300
,
0000
3010
0100
0002
0000
0000
0003
0000
,
2000
0000
3100
0020
0000
0230
0000
2300
,
0000
3001
0100
0002
0000
0000
0003
0000
,
0020
0000
0130
2000
0000
3002
0000
0203
,
0000
0310
0100
0001
0000
0000
1000
0000
,
0002
0000
0000
0003
,
0000
1000
0010
0100
0001
1000
0000
0200
,
0000
0310
0100
2000
0000
0000
0000
3000
,
1001
0000
0000
0002
0000
0013
0001
1000
,
0020
0000
1030
0002
0000
1003
0200
0000
,
0320
0000
0130
2000
0000
3001
0100
0001
,
0020
0000
0031
2000
0000
3010
0200
0000
,
0302
0000
1003
0200
0000
0310
0100
1000
,
0002
0000
1003
0020
0000
0130
0002
0000
,
0023
0230
2300
3002
,
0203
0000
0301
2000
0000
3100
0020
0000
,
0130
0000
0000
2000
0000
3001
0100
0010
,
0200
0000
0301
2000
0000
3100
0020
0000
,
0230
0000
1300
0002
0000
0103
0010
1000
,
0002
0000
1003
0020
0000
0130
0002
0000
,
2003
0000
3100
0020
0000
0031
1000
0010
,
0200
0000
0301
2000
0000
3100
0020
0000
,
0032
2003
3020
0230
,
0302
0000
1003
0200
0000
1300
0020
0000
,
0200
0000
0000
0330
,
0002
0000
0000
2003
0000
3010
1000
0002
,
0000
1003
0100
0020
0000
0130
1000
0000
,
0002
0000
0000
2003
0000
3001
0100
0020
,
0000
0130
0001
2000
0000
3001
0100
0000
,
0020
0000
0000
2030
0000
3100
0010
0002
,
0000
1003
0100
0020
0000
0130
1000
0000
,
0200
0000
0000
0310
0000
0001
0000
1001
,
0000
0000
4000
0004
0000
0000
0000
0000
3003
0000
0001
0000
0100
0000
0010
0000
,
0000
1000
0001
0100
0000
0001
0100
0010
,
0000
2000
0000
3001
0010
0100
1000
0002
,
0000
1003
0200
0000
0000
0000
0000
0000
,
0300
0000
0000
0000
0000
1000
0001
0100
,
0000
0010
1000
0001
0000
0010
0100
1000
,
0000
0002
0000
1003
0010
0100
0010
2000
,
0000
3001
0200
0000
0000
0000
0300
0000
,
0010
0000
0000
0010
0000
0000
0010
0000
0000
0000
1000
0000
0001
0000
1000
0000
,
0000
0001
0010
0001
0000
1000
0001
1000
,
0010
1000
0001
0100
0000
0001
0010
0100
,
0000
1000
0001
0010
0000
0001
1000
0010
,
0100
0001
1000
0100
0000
0010
0001
1000
,
0000
0010
1000
0001
0000
0010
0100
1000
,
0002
0203
0320
2030
,
3002
0000
1003
0200
0000
1300
0002
0000
,
0023
0000
0000
0000
0030
0100
1000
0001
,
0200
0000
0310
2000
0000
3002
0000
0023
,
0000
0130
1000
0002
0000
0000
0003
0000
,
2000
0000
3001
0020
0000
0130
1000
0002
,
0000
1003
0010
0200
0000
0000
0300
0000
,
1001
0000
1000
0002
0000
0103
0000
0020
,
0000
0130
0001
2000
0000
0000
3020
0000
,
0230
0000
0000
0300
,
0000
0001
1000
0010
1000
0001
0000
2000
,
0000
3010
0100
0002
0000
0000
0003
0000
,
1001
1000
0000
1100
0000
0100
0110
0000
,
0000
0000
0000
0020
0000
0031
2000
3010
,
0200
0000
0301
2000
0000
3100
0020
0000
,
0230
0000
1300
0002
0000
0103
0010
1000
,
0200
0000
0310
0002
0000
1003
0020
0000
,
2030
0000
3001
0020
0000
0130
1000
0001
,
0200
0000
0301
2000
0000
3100
0020
0000
,
0032
0023
0230
2300
,
3002
0000
1003
0020
0000
0130
0002
0003
,
0011
0000
0000
0020
0000
0130
2000
3001
,
0200
0000
0310
2000
0000
3001
0020
0000
,
0230
0000
1300
0002
0000
0103
0010
1000
,
0002
0000
0013
0200
0000
1300
0002
0000
,
0203
0000
0310
2000
0000
3001
0010
0100
,
2000
0000
3001
0200
0000
0310
2000
0000
,
3002
0203
0320
2030
,
3002
0000
0013
0200
0000
1300
0002
0000
,
0200
0000
0000
0303
,
0002
0000
0000
0000
0003
0000
1000
0001
,
0020
0230
0000
0300
,
2000
0000
3001
0100
0010
0100
0001
0010
,
0100
1000
0001
0020
0000
0031
2000
0000
,
3001
0100
0010
0100
0001
1000
0100
0010
,
0002
0000
1003
0010
1000
0100
0010
0001
,
1000
0001
0010
0100
0010
0100
1000
0001
,
1000
0001
0100
0010
1000
0001
0200
0000
,
0320
0000
0000
1030
0200
0000
0310
0001
,
0002
0000
0023
0230
,
2300
0000
0000
3020
0000
0000
0130
0001
,
1000
0010
0100
0002
0000
1003
0100
0010
,
0001
1000
0020
0000
1030
0001
0100
0010
,
1000
0100
0020
0000
0032
0000
0203
0000
,
0310
1000
0001
1000
0100
1000
0001
1000
,
0020
0000
1030
0002
0000
0000
0003
0000
,
2000
3000
0002
0003
2000
3000
0002
0003
,
0020
0030
0200
0300
0020
0030
0200
0300
,
2000
3000
0200
0300
2000
3000
0200
0300
,
0020
0030
0002
0003
0020
0030
0002
0003
,
2000
3010
2000
3010
,
0200
0301
0200
0301
,
2000
3100
2000
3100
,
0020
0031
0020
0031
,
1000
0001
1000
0001
1000
0100
1000
0100
,
0010
0001
0010
0001
1000
0010
1000
0010
,
0100
0001
0100
0001
1000
0100
1000
0100
,
0010
0001
0010
0001
1000
0100
0010
0001
,
0020
0000
0230
0000
2300
0000
3002
0000
2003
0000
3000
0020
0000
0130
0001
0100
,
0002
0000
0000
2003
0000
0000
3020
0000
2030
0000
0000
0002
0000
0000
3003
0000
,
2000
0000
0000
3200
0000
0000
2300
0000
3002
0000
0000
0200
0000
0000
0303
0000
,
0020
0000
1030
0002
0000
0013
0200
1300
,
0002
0103
0020
0130
0002
1003
0200
0310
,
0002
1003
0020
0230
0000
0302
2000
0000
,
0010
0000
3003
2000
0000
3010
0200
0301
,
2000
3100
0010
0200
0000
1300
0002
0103
,
0020
0130
0001
2000
0000
3100
0010
0001
,
2000
3010
0100
0002
0000
0023
0130
1000
,
0200
0310
0100
2000
0000
3001
0100
0010
,
0200
0000
0301
2000
0000
3100
0020
0031
,
2000
3010
0200
0301
2000
3100
0020
0031
,
2000
3010
0200
0320
0000
1030
0002
0000
,
2000
0000
0000
3003
,
0002
0000
0000
0023
0000
0130
1000
0020
,
0000
0130
0001
2000
0000
3010
0100
0000
,
0002
0000
0000
2003
0000
3100
0010
0002
,
0000
1003
0100
0020
0000
0130
1000
0000
,
0002
0000
0000
0023
0000
0031
2000
3002
,
0000
1003
0001
0020
0000
0130
1000
0000
,
0002
0000
0000
0023
0000
0130
1000
0001
,
1000
0100
0010
0001
1000
1000
0000
2020
,
0000
0000
0000
0000
,
3030
0000
0000
0000
;

//---------------dance-single - Ace Of Hearts (2009)----------------
#NOTES:
     dance-single:
     Ace Of Hearts (2009):
     Medium:
     6:
     0.407,0.000,0.012,0.864,0.010:
0000
0000
0000
0000
,
0000
0000
0000
0000
,
0000
0000
0000
0000
,
0000
0000
0000
0000
,
0000
0000
0000
0000
,
0000
0000
0000
0000
,
0000
0000
0000
0000
,
0000
0000
0000
0000
0000
0001
0000
0001
,
0000
0100
0000
0100
0000
0001
0000
0001
,
0000
0002
0000
1003
0100
0000
1000
0002
,
0000
1003
0200
0000
0000
0000
0000
0000
,
0300
0000
0000
0000
0000
0010
0000
0010
,
0000
0001
0000
0001
0000
1000
0000
2000
,
0000
3001
0000
0001
1000
0000
0001
0020
,
0000
0031
2000
0000
0000
0000
0000
0000
,
3000
0000
0000
0000
0000
0010
0000
0010
,
0000
1000
0000
1000
0000
0001
1000
0000
,
0002
0000
0103
0001
0000
1000
0000
1000
,
0000
0100
0000
0100
0000
1000
0001
0000
,
0100
0000
0001
1000
0000
0100
0000
0100
,
0000
0010
0000
0010
0000
0001
1000
0000
,
1000
0001
1000
0100
,
2000
0000
3001
0100
0000
0001
1000
0000
,
0200
0000
0000
0000
0300
0010
0001
0000
,
2000
0000
0000
3001
0000
0001
0000
2000
,
0000
3001
0100
0002
0000
0000
0003
0000
,
2000
0000
0000
3010
0000
0010
0000
2000
,
0000
3001
0010
0002
0000
0000
0003
0000
,
2000
0000
0000
3002
0000
0103
0000
0002
,
0000
1003
0100
2000
0000
3000
0001
0000
,
0200
0000
0000
0000
,
0300
0001
1000
0000
0200
0000
0000
2300
,
0000
3001
1000
0002
0000
0000
0000
0000
,
0003
0000
0000
2000
0000
3001
0010
0000
,
0002
0000
0000
2003
0000
0000
3020
0000
,
2030
0000
0000
3002
0000
0000
0003
0000
,
0020
0000
0000
0032
0000
0000
2003
0000
,
3020
0000
0000
2030
0000
0000
3000
0000
,
0020
0000
0000
2030
0000
0000
3002
0000
,
0023
0032
2003
3002
,
0203
0000
0301
2000
0000
3001
0020
0000
,
0031
0000
0000
2000
0000
3001
0100
0000
,
0002
0000
0000
2003
0000
0000
3020
0000
,
2030
0000
0000
3200
0000
0000
0300
0000
,
2000
0000
0000
3002
0000
0000
0023
0000
,
0032
0000
0000
0203
0000
0000
0300
0000
,
0020
0000
0000
2030
0000
0000
3002
0000
,
2003
3002
0203
0302
,
2003
0000
3001
0020
0000
0031
2000
0000
,
0002
0000
0000
3003
,
1000
0000
0000
0002
0000
0000
0000
0013
,
0000
0000
0000
0002
0000
0000
1003
0000
,
0100
0000
0000
2000
0000
0000
0000
3001
,
0000
0000
0000
0200
0000
0000
0301
0000
,
1000
0000
0000
0020
0000
0000
0000
1030
,
0000
0000
0000
0002
0000
0000
1003
0000
,
0200
0000
0000
1300
0000
0001
0000
0100
,
0000
0000
0000
0000
0000
0010
0000
0010
,
0000
1000
0000
1000
0000
0001
0000
0001
,
0000
0010
0000
0001
1000
0000
0001
0100
,
0000
0001
2000
0000
0000
0000
0000
0000
,
3000
0000
0000
0000
0000
0001
0000
0001
,
0000
0010
0000
0010
0000
0100
0000
0100
,
0000
0100
0000
0000
1000
0000
0000
0002
,
0000
1003
0020
0000
0000
0000
0000
0000
,
0030
0000
0000
0000
0000
1000
0000
1000
,
0000
0001
0010
0001
0000
0000
1000
0000
,
0001
0000
1000
0100
0000
1000
0000
1000
,
0000
0001
0100
0001
0000
0000
1000
0000
,
0001
0000
1000
0010
0000
1000
0000
1000
,
0000
0001
0100
0001
0000
0000
1000
0000
,
0010
1000
0001
0010
,
0002
0000
1003
0200
0000
1300
0002
0000
,
0023
0000
0000
0000
0030
0001
1000
0000
,
0020
0000
0000
2030
0000
3001
0000
0200
,
0000
0000
0301
2000
0000
0000
3000
0000
,
0002
0000
0000
0023
0000
0031
0000
2000
,
0000
0000
3001
2000
0000
0000
3000
0000
,
1001
0000
0000
2000
0000
3001
0000
0020
,
0000
0000
0031
2000
0000
3000
0010
0000
,
0200
0000
0000
0300
,
0000
0000
0001
0000
0001
0000
0000
2000
,
0000
0000
3001
0200
0000
0000
0300
0000
,
0001
0001
0000
1000
0000
0001
0010
0000
,
0000
0000
0000
0002
0000
1003
0100
0000
,
2000
0000
0000
3020
0000
0000
2030
0000
,
3002
0000
0000
0203
0000
0000
0300
0000
,
0020
0000
0000
2030
0000
0000
3002
0000
,
2003
0000
0000
3200
0000
0000
0300
0000
,
0020
0000
0000
0032
0000
0000
2003
0000
,
3002
0203
0302
2003
,
3020
0000
1030
0002
0000
1003
0020
0000
,
0130
0000
0000
0002
0000
1003
0010
0000
,
2000
0000
0000
3002
0000
0000
0023
0000
,
0230
0000
0000
2300
0000
0000
3000
0000
,
0002
0000
0000
2003
0000
0000
3020
0000
,
0230
0000
0000
0302
0000
0000
0003
0000
,
2000
0000
0000
3200
0000
0000
0320
0000
,
0230
2300
3002
2003
,
3020
0000
1030
0002
0000
1003
0002
0000
,
0200
0000
0000
0303
,
0002
0000
0000
0000
0003
0000
0000
1000
,
0002
0203
0000
0300
,
0001
0000
1000
0010
1000
0000
0001
0000
,
0010
0000
0001
2000
0000
0000
3000
0000
,
0010
0010
1000
1000
,
0001
0000
0010
0000
0010
0000
0001
1000
,
0001
0100
0100
0001
,
1000
0010
0000
0200
0000
0000
0300
0000
,
0001
0000
0001
0000
1000
0000
0001
1000
,
0002
0000
0003
1000
,
0010
0010
1000
1000
,
1000
0000
0001
0020
0000
0000
0031
0000
,
0001
1000
1000
0001
,
0001
0100
0100
0100
,
0001
0001
0001
1000
,
1000
0000
1000
0002
0000
0000
0003
0000
,
2000
3000
0002
0003
2000
3000
0002
0003
,
0020
0030
0200
0300
0020
0030
0200
0300
,
2000
3000
0200
0300
2000
3000
0200
0300
,
0020
0030
0002
0003
0020
0030
0002
0003
,
1000
1000
0010
0010
,
1000
1000
0001
0001
,
0100
0100
0001
0001
,
1000
1000
0100
0100
,
1000
0001
1000
0000
0001
0000
0001
0000
,
1000
0010
1000
0000
0010
0000
0010
0000
,
0100
0001
0100
0000
0001
0000
0001
0000
,
1000
0100
1000
0000
0100
0000
0100
0000
,
0020
0000
0000
0000
0032
0000
0000
0000
2003
0000
0000
3020
0000
0000
1030
0000
,
0002
0000
0000
2003
0000
0000
3020
0000
2030
0000
0000
0002
0000
0000
3003
0000
,
2000
0000
0000
3200
0000
0000
2300
0000
3002
0000
0000
0200
0000
0000
0303
0000
,
0002
0000
0000
2003
0000
0000
3020
0000
,
2030
3002
0023
0230
,
2300
0000
3001
0200
0000
0301
2000
3000
,
1001
0000
0000
0002
0000
1003
0010
1000
,
0020
0000
0000
2030
0000
0000
3002
0000
,
0023
0000
0000
0230
0000
0000
0300
0000
,
0020
0000
0000
0032
0000
0000
2003
0000
,
3020
0000
0000
0230
0000
0000
0300
0000
,
0002
0000
0000
2003
0000
0000
3020
0000
,
2030
3002
0203
0320
,
2030
0000
3001
0020
0000
0031
2000
0000
,
0002
0000
0000
3003
,
2000
0000
0000
3010
0000
1000
0001
2000
,
0000
3001
0100
0002
0000
1003
0100
0000
,
2000
0000
0000
3002
0000
0013
0001
0020
,
0000
0031
1000
0002
0000
1003
0100
0000
,
2000
0000
0000
3002
0000
1003
0010
2000
,
0000
3001
0100
0002
0000
1003
0010
0000
,
2000
0000
0000
3200
0000
1300
0001
2000
,
0000
3001
0100
0000
0001
1000
0000
2020
,
0000
0000
0000
0000
,
3030
0000
0000
0000
;

//---------------dance-single - Ace Of Hearts (2009)----------------
#NOTES:
     dance-single:
     Ace Of Hearts (2009):
     Easy:
     4:
     0.215,0.000,0.012,0.306,0.008:
0000
0000
0000
0000
,
0000
0000
0000
0000
,
0000
0000
0000
0000
,
0000
0000
0000
0000
,
0000
0000
0000
0000
,
0000
0000
0000
0000
,
0000
0000
0000
0000
,
0000
0000
0000
0000
0000
0000
0000
0001
,
0000
0000
0000
0001
0000
0000
0000
0000
,
1000
0000
1000
0000
,
2000
0000
0000
0000
,
3000
0000
0000
0000
0000
0000
0000
0001
,
0000
0000
0000
0001
0000
0000
0000
0000
,
0010
0000
0010
0000
,
0020
0000
0000
0000
,
0030
0000
0000
0000
0000
0000
0000
0001
,
0000
0000
0000
0001
0000
0000
0000
0000
,
0002
0000
0000
0003
0000
0000
0000
1000
,
0000
0000
0000
1000
0000
0000
0000
0000
,
2000
0000
0000
3000
0000
0000
0000
0100
,
0000
0000
0000
0100
0000
0000
0000
0000
,
0010
0010
0010
0000
,
0001
0001
0001
0000
,
0002
0000
0003
0000
,
1000
0000
1000
0000
,
0010
0010
0010
0000
,
1000
0000
1000
0000
,
0001
0001
0001
0000
,
1000
0000
1000
0000
,
0010
0010
0010
0000
,
0200
0000
0000
0000
,
0300
0000
0001
0000
,
0002
0000
0000
0000
,
0003
0000
0000
0000
,
1000
0000
0000
1000
0000
0000
0000
0000
,
0001
0000
0000
0001
0000
0000
0000
0000
,
1000
0000
0000
1000
0000
0000
0000
0000
,
0100
0000
0000
0100
0000
0000
0000
0000
,
1000
0000
0000
1000
0000
0000
0000
0000
,
0001
0000
0001
0000
,
0010
0010
0010
0000
,
0001
0000
0000
0000
,
1000
0000
0000
1000
0000
0000
0000
0000
,
0010
0000
0000
0010
0000
0000
0000
0000
,
0100
0000
0000
0100
0000
0000
0000
0000
,
0001
0000
0000
0001
0000
0000
0000
0000
,
1000
0000
0000
1000
0000
0000
0000
0000
,
0100
0100
0100
0000
,
1000
1000
1000
0000
,
0002
0000
0000
0003
,
1000
0000
1000
1000
,
1000
0000
0000
0000
,
0010
0000
0010
0010
,
0010
0000
0000
0000
,
0100
0000
0100
0100
,
0100
0000
0000
0000
,
0001
0000
0000
1000
0000
1000
0000
1000
,
0000
0000
0000
0000
0000
0000
0000
0010
,
0000
0000
0000
0010
0000
0000
0000
0000
,
1000
0000
1000
0000
,
2000
0000
0000
0000
,
3000
0000
0000
0000
0000
0000
0000
0001
,
0000
0000
0000
0001
0000
0000
0000
0000
,
0010
0000
0010
0000
,
0020
0000
0000
0000
,
0030
0000
0000
0000
0000
0000
0000
0001
,
0000
0000
0000
0001
0000
0000
0000
0000
,
0002
0000
0000
0003
0000
0000
0000
0100
,
0000
0000
0000
0100
0000
0000
0000
0000
,
0200
0000
0000
0300
0000
0000
0000
0010
,
0000
0000
0000
0010
0000
0000
0000
0000
,
1000
1000
1000
0000
,
0100
0000
0100
0000
,
0200
0000
0300
0000
,
1000
1000
1000
0000
,
2000
0000
3000
0000
,
0010
0010
0010
0000
,
0020
0000
0030
0000
,
1001
0000
1000
0000
,
1000
1000
1000
0000
,
0200
0000
0300
0000
,
0000
0000
0010
0000
,
0001
0001
0001
0000
,
0010
0000
0000
0010
0000
0000
0010
0000
,
0000
0000
0000
0000
,
0001
0000
0000
0002
0000
0003
0000
0000
,
1000
0000
0000
2000
0000
3000
0000
0000
,
0010
0000
0000
0020
0000
0030
0000
0000
,
1000
0000
0000
2000
0000
3000
0000
0000
,
0001
0000
0000
0002
0000
0003
0000
0000
,
0100
0100
0100
0000
,
0010
0010
0010
0000
,
0010
0000
0000
0000
,
1000
0000
0000
2000
0000
3000
0000
0000
,
0001
0000
0000
0002
0000
0003
0000
0000
,
0010
0000
0000
0020
0000
0030
0000
0000
,
0001
0000
0000
0002
0000
0003
0000
0000
,
0100
0000
0000
0200
0000
0300
0000
0000
,
0001
0001
0001
0000
,
1000
1000
1000
0000
,
0200
0000
0300
0000
,
2000
0000
3000
0001
,
0002
0000
0003
0000
,
0100
0000
0100
0100
,
0200
0000
0300
0000
,
0010
0000
0010
0010
,
0020
0000
0030
0000
,
1000
0000
1000
1000
,
2000
0000
3000
0000
,
0001
0000
0001
0001
,
0002
0000
0003
0000
,
0100
0000
0100
0100
,
0200
0000
0300
0000
,
0010
0010
0010
0000
,
1000
0000
1000
0000
,
0001
0001
0001
0000
,
0002
0000
0003
0000
,
2000
3000
0002
0003
2000
3000
0002
0003
,
0020
0030
0200
0300
0020
0030
0200
0300
,
2000
3000
0200
0300
2000
3000
0200
0300
,
0020
0030
0002
0003
0020
0030
0002
0003
,
1000
1000
1000
0000
,
0001
0001
0001
0000
,
0010
0010
0010
0000
,
0100
0100
0100
0000
,
1000
1000
1000
1000
,
0001
0001
0001
0001
,
0010
0010
0010
0010
,
0100
0100
0100
0100
,
2000
3002
2003
3000
,
0002
0000
0000
2003
0000
0000
3000
0000
0002
0000
0000
2000
0000
0000
3003
0000
,
0020
0000
0000
2030
0000
0000
3000
0000
0002
0000
0000
0200
0000
0000
0303
0000
,
0002
0000
0000
1003
0000
0000
1000
0000
,
0001
0001
0001
0001
,
0002
0000
0000
2003
0000
0000
3001
0000
,
1001
0000
0000
0000
,
2000
0000
0000
3002
0000
0000
0003
0000
,
2000
0000
0000
3200
0000
0000
0300
0000
,
0020
0000
0000
0032
0000
0000
0003
0000
,
2000
0000
0000
3002
0000
0000
0003
0000
,
2000
0000
0000
3200
0000
0000
0300
0000
,
1000
1000
1000
1000
,
0001
0000
0000
0001
0000
0000
0002
0000
,
2000
0000
0000
3003
,
0001
0000
0000
0001
0000
0000
0000
1000
,
0000
0000
0000
1000
0000
0000
1000
0000
,
0010
0000
0000
0010
0000
0000
0000
0100
,
0000
0000
0000
0100
0000
0000
0100
0000
,
0001
0000
0000
0001
0000
0000
0000
1000
,
0000
0000
0000
1000
0000
0000
0000
0000
,
0100
0000
0000
0100
0000
0000
0000
0000
,
0010
0000
0010
0000
0010
0000
0000
0022
,
0000
0000
0000
0000
,
0033
0000
0000
0000
;

//---------------dance-single - Ace Of Hearts (2009)----------------
#NOTES:
     dance-single:
     Ace Of Hearts (2009):
     Beginner:
     2:
     0.163,0.000,0.008,0.360,0.008:
0000
0000
0000
0000
,
0000
0000
0000
0000
,
0000
0000
0000
0000
,
0000
0000
0000
0000
,
0000
0000
0000
0000
,
0000
0000
0000
0000
,
0000
0000
0000
0000
,
0000
0000
0000
0000
,
0001
0000
0001
0000
,
0001
0000
0001
0000
,
0002
0000
0000
0000
,
0003
0000
0000
0000
,
0010
0000
0010
0000
,
0010
0000
0010
0000
,
0020
0000
0000
0000
,
0030
0000
0000
0000
,
0100
0000
0100
0000
,
0100
0000
0000
0000
,
1000
0000
1000
0000
,
1000
0000
0000
0000
,
0001
0000
0001
0000
,
0001
0000
0001
0000
,
0002
0000
0000
0000
,
0003
0000
0000
0000
,
0010
0000
0010
0000
,
0020
0000
0030
0000
,
0001
0000
0001
0000
,
0002
0000
0003
0000
,
1000
0000
1000
0000
,
2000
0000
3000
0000
,
0020
0000
0000
0000
,
0030
0000
0000
0000
,
2000
0000
0000
0000
,
3000
0000
0000
0000
,
0002
0000
0000
0003
0000
0000
0000
0000
,
0002
0000
0000
0003
0000
0000
0000
0000
,
2000
0000
0000
3000
0000
0000
0000
0000
,
2000
0000
0000
3000
0000
0000
0000
0000
,
0010
0000
0010
0000
,
0010
0000
0000
0000
,
0200
0000
0000
0000
,
0300
0000
0000
0000
,
0002
0000
0000
0003
0000
0000
0000
0000
,
0002
0000
0000
0003
0000
0000
0000
0000
,
0200
0000
0000
0300
0000
0000
0000
0000
,
0200
0000
0000
0300
0000
0000
0000
0000
,
0001
0000
0001
0000
,
0001
0000
0000
0000
,
0100
0000
0100
0000
,
0200
0000
0300
0000
,
0002
0000
0003
0000
,
0001
0000
0000
0000
,
2000
0000
3000
0000
,
1000
0000
0000
0000
,
0200
0000
0300
0000
,
0100
0000
0000
0000
,
0010
0000
0010
0000
,
0010
0000
0000
0000
,
0001
0000
0001
0000
,
0001
0000
0001
0000
,
0002
0000
0000
0000
,
0003
0000
0000
0000
,
0010
0000
0010
0000
,
0010
0000
0010
0000
,
0020
0000
0000
0000
,
0030
0000
0000
0000
,
0001
0000
0001
0000
,
0001
0000
0000
0000
,
0100
0000
0100
0000
,
0100
0000
0000
0000
,
0010
0000
0000
0000
,
1000
0000
1000
0000
,
2000
0000
0000
0000
,
3000
0000
0000
0000
,
0010
0000
0010
0000
,
0020
0000
0030
0000
,
0100
0000
0100
0000
,
0200
0000
0300
0000
,
1001
0000
0000
0000
,
0002
0000
0003
0000
,
2000
0000
3000
0000
,
0000
0000
0100
0000
,
0200
0000
0300
0000
,
0010
0000
0000
0010
0000
0000
0010
0000
,
0000
0000
0000
0000
,
0002
0000
0000
0003
0000
0000
0000
0000
,
2000
0000
0000
3000
0000
0000
0000
0000
,
0020
0000
0000
0030
0000
0000
0000
0000
,
0200
0000
0000
0300
0000
0000
0000
0000
,
0001
0000
0000
0000
,
0010
0000
0000
0000
,
0100
0000
0100
0000
,
0100
0000
0000
0000
,
2000
0000
0000
3000
0000
0000
0000
0000
,
0002
0000
0000
0003
0000
0000
0000
0000
,
0200
0000
0000
0300
0000
0000
0000
0000
,
0020
0000
0000
0030
0000
0000
0000
0000
,
1000
0000
0000
0000
,
0001
0000
0000
0000
,
0010
0000
0010
0000
,
0020
0000
0030
0000
,
0002
0000
0003
0000
,
2000
0000
3000
0000
,
0100
0000
0100
0000
,
0200
0000
0300
0000
,
0010
0000
0010
0000
,
0020
0000
0030
0000
,
0001
0000
0001
0000
,
0002
0000
0003
0000
,
1000
0000
1000
0000
,
2000
0000
3000
0000
,
0001
0000
0001
0000
,
0002
0000
0003
0000
,
0100
0000
0000
0000
,
0100
0000
0000
0000
,
0001
0000
0001
0000
,
0002
0000
0003
0000
,
2000
3000
0002
0003
2000
3000
0002
0003
,
0020
0030
0200
0300
0020
0030
0200
0300
,
2000
3000
0200
0300
2000
3000
0200
0300
,
0020
0030
0002
0003
0020
0030
0002
0003
,
2000
3000
0002
0003
,
2000
3000
0002
0003
,
2000
3000
0020
0030
,
2000
3000
0020
0030
,
1000
0000
1000
0000
,
0001
0000
0001
0000
,
0020
0000
0030
0000
,
0200
0000
0300
0000
,
2000
0000
3000
0000
,
0001
0000
0000
0002
0000
0000
0003
0000
1000
0000
0000
2000
0000
0000
3000
0000
,
0010
0000
0000
0020
0000
0000
0030
0000
0100
0000
0000
0200
0000
0000
0300
0000
,
0002
0000
0003
0000
,
1000
0000
1000
0000
,
2000
0000
0000
0000
,
3000
0000
0000
0000
,
0001
0000
0000
0002
0000
0000
0003
0000
,
1000
0000
0000
2000
0000
0000
3000
0000
,
0010
0000
0000
0020
0000
0000
0030
0000
,
0100
0000
0000
0200
0000
0000
0300
0000
,
0002
0000
0003
0000
,
1000
0000
1000
0000
,
0002
0000
2003
0000
,
0002
0000
3003
0000
,
2000
0000
3000
0000
,
1000
0000
0000
0000
,
0200
0000
0300
0000
,
0100
0000
0000
0000
,
0020
0000
0030
0000
,
0010
0000
0000
0000
,
0002
0000
0003
0000
,
1000
0000
1000
0000
,
2020
0000
0000
0000
,
3030
0000
0000
0000
;

//---------------dance-single - Ace Of Hearts (2009)----------------
#NOTES:
     dance-single:
     Ace Of Hearts (2009):
     Challenge:
     11:
     0.847,0.000,0.527,1.000,0.316: // measure 1
0000
0000
0000
0000
,  // measure 2
0000
0000
0000
0000
,  // measure 3
0000
0000
0000
0000
,  // measure 4
0000
0000
0000
0000
,  // measure 5
0000
0000
0000
0000
,  // measure 6
0000
0000
0000
0000
,  // measure 7
0000
0000
0000
0000
,  // measure 8
0000
0000
0000
0000
0000
0002
0013
0110
,  // measure 9
0000
0200
1300
1001
0000
0002
0103
0110
,  // measure 10
0000
0200
0000
0301
0020
0130
0010
0002
,  // measure 11
1003
0010
0200
0301
1000
0100
0010
0100
,  // measure 12
1000
0001
0100
0010
0100
0002
0013
0110
,  // measure 13
0000
0200
1300
1001
0000
0001
0100
0020
,  // measure 14
0130
0001
0010
0100
2000
3001
0100
0120
,  // measure 15
1030
0001
2000
3010
0100
0001
0010
0100
,  // measure 16
2000
0000
0000
3010
0000
0000
0110
0000
0000
0000
0200
0000
0301
0000
1001
0000
,  // measure 17
0000
2000
3100
0110
0000
0020
0031
1000
,  // measure 18
1010
0010
0100
0101
0000
0002
1003
1100
,  // measure 19
0000
0200
0310
0011
0000
0001
2000
3010
,  // measure 20
0110
0100
0001
0011
0000
0010
0100
1100
,  // measure 21
0000
2000
3010
0110
0000
0100
0002
1003
,  // measure 22
1100
0100
0110
0010
0011
0001
0101
0100
,  // measure 23
0120
1030
0100
0120
0031
1000
1010
0000
,  // measure 24
0240
0000
0000
0000
0330
0100
0001
1000
,  // measure 25
0100
0000
0010
0100
1000
0000
0002
0000
0103
0000
0010
0000
1000
0000
1200
0000
,  // measure 26
0310
0000
0001
0010
0100
0000
4000
0000
0000
0000
0000
0000
3001
0000
0100
0000
,  // measure 27
0120
0000
1030
0001
0010
0000
0200
0000
1300
0000
0001
0000
0100
0000
0010
0000
,  // measure 28
2010
0000
3100
0010
0001
0000
0200
0000
0000
0000
0310
0100
0002
0000
0003
0000
,  // measure 29
0021
0000
0130
1000
0001
0000
0200
0000
0310
0000
2000
0000
3001
0000
0021
0000
,  // measure 30
0130
0000
1000
0001
0010
0000
0200
0000
1300
0001
0100
0001
1000
0100
0010
0001
,  // measure 31
2000
0000
3010
0100
0002
0000
1003
0100
0010
0000
0100
1000
0020
0000
1030
0001
,  // measure 32
0100
0000
0010
1000
0002
0000
0013
0100
1000
0000
0020
0000
0130
0000
0101
0000
,  // measure 33
0001
1000
0100
0010
0100
1000
0001
0100
0010
1000
0001
0010
0100
1000
0001
1000
,  // measure 34
0010
0000
0000
0000
0000
0000
0210
0000
0000
0000
0301
0000
1000
0000
0200
0300
,  // measure 35
0120
0000
0031
1000
0010
0000
2000
0000
3100
0000
0010
0000
0100
1000
0001
0000
,  // measure 36
0201
0000
0310
1000
0100
0000
0010
0000
0100
0000
1000
0000
0010
0100
0001
0000
,  // measure 37
2001
0000
3010
0100
0001
0000
1000
0000
0100
0000
0010
0000
0001
1000
0010
0000
,  // measure 38
0210
0000
0301
1000
0100
0000
0010
0000
0100
0000
1000
0000
0001
0100
0010
0000
,  // measure 39
2010
3001
0010
0200
0000
1300
0001
0100
,  // measure 40
0210
0301
2000
3100
0020
0130
2000
3001
,  // measure 41
0201
0000
0310
0000
1000
0000
0002
0000
0103
0000
0010
0000
0100
0001
2000
3000
,  // measure 42
1001
0000
0000
0000
0001
0000
0200
0000
0000
0000
0310
0000
1000
0010
0100
0001
,  // measure 43
2000
0000
3100
0010
0001
0000
0200
0000
0310
0000
1000
0000
0100
0010
0001
0000
,  // measure 44
2001
0000
3010
1000
0100
0000
0010
0000
0002
0000
1003
0000
0100
1000
0010
0000
,  // measure 45
0210
0000
0301
1000
0100
0000
2000
0000
3001
0000
0100
0000
0010
1000
0001
0000
,  // measure 46
0021
0000
0130
1000
0001
0000
0200
0000
0310
0000
1000
0000
0100
0010
0001
0000
,  // measure 47
0201
0000
0310
2000
0000
3001
0010
0001
,  // measure 48
0101
0100
0110
0010
1010
1000
1100
0100
,  // measure 49
0120
0031
1000
1002
0013
0100
1000
0000
,  // measure 50
2040
0000
0000
3030
,  // measure 51
0010
0100
0001
0020
0000
0130
1000
0001
,  // measure 52
0010
0001
1000
0020
0000
0130
0001
0000
,  // measure 53
1000
0100
0010
0002
0000
1003
0010
0100
,  // measure 54
0001
1000
0010
0200
0000
0301
0010
0000
,  // measure 55
0100
0010
0001
2000
0000
3010
1000
0100
,  // measure 56
0010
0100
1000
0002
0000
0103
0010
0000
,  // measure 57
1000
0100
0020
0031
0000
1000
0000
1010
,  // measure 58
0000
0000
0010
1000
0001
0100
0001
0010
0100
0000
2000
0000
3010
0000
0110
0000
,  // measure 59
0010
2000
3001
0011
0010
0100
1000
2010
,  // measure 60
3001
0200
0301
0010
0200
0310
0001
2001
,  // measure 61
3100
0010
0002
0013
0100
1000
0001
0100
,  // measure 62
0010
1000
0100
0010
0001
0020
0130
1100
,  // measure 63
0000
2000
3001
0101
0000
0100
0010
0110
,  // measure 64
0000
0200
0301
1000
0020
1030
0001
2000
,  // measure 65
3100
0010
0002
0103
0010
1000
0001
0200
,  // measure 66
0010
0000
0000
0010
0000
0000
0010
0000
0000
0000
0302
0000
1003
0000
1100
0000
,  // measure 67
0000
0200
0310
0011
0000
0002
0103
0010
,  // measure 68
0110
0100
0001
1001
0000
2000
3010
0110
,  // measure 69
0000
0200
0301
0011
0000
0020
0130
1000
,  // measure 70
1010
0010
0100
0101
0000
0002
1003
1100
,  // measure 71
0000
0200
0310
0011
0000
0001
1000
0010
,  // measure 72
0110
0100
0101
0001
1001
1000
1010
0010
,  // measure 73
0110
0100
0001
2000
3100
0010
0001
0000
,  // measure 74
0402
0000
0000
0000
0303
0100
0010
1000
,  // measure 75
1002
0000
0013
0100
1000
0000
0002
0000
0103
0000
0020
0000
0130
0000
0102
0000
,  // measure 76
1003
0000
0010
0100
0001
0000
2000
0000
0000
0000
3100
0000
0110
0000
0000
0000
,  // measure 77
0021
0000
0130
1000
0001
0000
0200
0000
0310
0000
1000
0000
0001
0000
0020
0000
,  // measure 78
0130
0000
1000
0000
0001
0000
0100
0001
1000
0100
2000
0000
0002
0000
0000
0000
,  // measure 79
0010
0000
3003
0000
0001
0000
0200
0000
0310
1000
0100
0000
1000
0000
0001
0000
,  // measure 80
0100
0000
0010
1000
0001
0000
0100
0001
1000
0100
0010
0001
1000
0001
0100
0010
,  // measure 81
1000
0000
0001
0100
0020
0000
1030
0001
0010
0000
0100
1000
0002
0000
0103
0010
,  // measure 82
1000
0000
0001
1000
0020
0000
1030
0000
0100
0010
0001
0000
1000
0000
1200
0000
,  // measure 83
0310
0000
0001
1000
0010
0000
0200
0000
0000
0000
0301
1000
0100
2000
0200
0000
,  // measure 84
0011
0010
0000
0011
0000
0001
0011
0000
,  // measure 85
3300
0000
0000
1002
0000
0103
0120
1030
,  // measure 86
1002
0000
0103
0010
1000
0000
0200
0000
0310
0000
0100
0000
1000
0001
0100
0000
,  // measure 87
0210
0000
0301
1000
0100
0000
2000
0000
3001
0000
0100
0000
0010
0100
0001
0000
,  // measure 88
0021
0000
0130
1000
0001
0000
0200
0000
0310
0000
0100
0000
0001
1000
0100
0000
,  // measure 89
0120
0000
0031
1000
0010
0000
2000
0000
3001
0000
0100
0000
0010
0100
0001
0000
,  // measure 90
2001
0000
3100
0020
0000
0130
2000
3001
,  // measure 91
0101
0100
0110
0010
1010
1000
1001
0001
,  // measure 92
0021
0130
1000
0002
0103
0010
2000
3001
,  // measure 93
0100
0010
1000
0001
0010
0000
0210
0000
0000
0000
1300
0000
0002
0000
0103
0000
,  // measure 94
0120
0000
1030
0001
0010
0000
0002
0000
1003
0000
0010
0000
0100
0001
1000
0000
,  // measure 95
1020
0000
0130
0001
1000
0000
0200
0000
0310
0000
0100
0000
1000
0001
0100
0000
,  // measure 96
0120
0000
1030
0001
0010
0000
0200
0000
1300
0000
0001
0000
0100
0010
1000
0000
,  // measure 97
1200
0000
0310
0001
1000
0000
0010
0000
1000
0000
0001
0000
0010
0100
1000
0000
,  // measure 98
1002
0000
0103
0020
0000
1030
0001
0010
,  // measure 99
0110
0100
1100
1000
1001
0001
0101
0100
,  // measure 100
0120
1030
0001
0020
0130
1000
0002
0003
,  // measure 101
0042
0000
0000
0033
,  // measure 102
0020
0000
0000
0000
0000
0000
0000
0000
0000
0000
0000
0000
0000
0000
0130
1000
,  // measure 103
0002
0000
0000
0000
0203
0000
0000
0000
0000
0000
0310
1000
0001
0000
0020
0000
,  // measure 104
0031
0000
1000
0100
0010
0000
0001
0000
1000
0010
0100
0000
0001
0000
2000
0000
,  // measure 105
3001
0000
0000
0001
0010
0100
1000
0000
0000
0200
0000
0000
0000
0000
0000
1300
0000
0000
0002
0000
0000
0000
0000
0000
,  // measure 106
1003
0010
1000
0001
0010
0001
1000
0100
0020
0000
0000
0000
0130
0000
1000
0000
,  // measure 107
0002
0000
0000
0000
1003
0100
0010
0000
0200
0000
1300
0001
0100
0000
0020
0000
,  // measure 108
1030
0001
0100
0001
1000
0010
1000
0001
0010
0100
1000
0001
0100
0010
1000
0001
,  // measure 109
0010
0001
1000
0100
0010
0001
1000
0001
0020
0000
0031
0000
1000
0000
0002
0000
,  // measure 110
1003
0100
0010
0000
0200
0000
1300
0000
0002
0000
0000
0000
0103
0000
0010
0000
,  // measure 111
0400
0000
0000
0000
0300
0000
0001
1000
,  // measure 112
0010
0000
1000
0100
0010
0000
0002
0000
0000
0000
1003
0000
0001
0000
0010
0000
,  // measure 113
0001
0010
0100
0000
1000
0000
0040
0000
0000
0000
1030
0000
0001
0000
0100
0000
,  // measure 114
0002
0000
0023
0000
0130
1000
0001
0100
,  // measure 115
0020
2030
3002
0403
,  // measure 116
0310
1000
0001
0100
0020
0000
0000
0000
1030
0000
0200
0000
0000
0000
0310
0000
,  // measure 117
0002
0000
0000
0000
0013
0100
2000
0000
0000
0000
0000
0000
3000
0000
0000
0000
,  // measure 118
2000
3000
0002
0003
2000
3000
0002
0003
,  // measure 119
0020
0030
0200
0300
0020
0030
0200
0300
,  // measure 120
2000
3000
0200
0300
2000
3000
0200
0300
,  // measure 121
0020
0030
0002
0003
0020
0030
0002
0003
,  // measure 122
1000
0020
1030
0020
0130
0002
0103
0002
,  // measure 123
1003
0200
1300
0200
0310
0002
0013
0002
,  // measure 124
0103
0020
0130
0020
1030
0002
1003
0002
,  // measure 125
0013
0200
0310
0200
1300
0020
1030
0020
,  // measure 126
1030
0000
0100
0010
0200
0000
1300
0001
1000
0000
0001
0100
0002
0000
1003
0010
,  // measure 127
1000
0000
0100
0010
0200
0000
1300
0001
1000
0000
0010
0100
0020
0000
1030
0100
,  // measure 128
0010
0001
1000
0010
0100
0001
0010
0100
1000
0001
0100
0001
1000
0100
0010
0001
,  // measure 129
1000
0010
1000
0001
0010
0100
1000
0001
0100
0001
1000
0100
0010
0001
0100
0001
,  // measure 130
2000
0000
3002
0000
0203
0000
0302
0000
0023
0000
0030
0210
0000
1300
0002
0103
,  // measure 131
0120
0000
0000
2030
0000
0000
3002
0003
0021
0000
0000
0200
0000
0000
0330
0000
,  // measure 132
2100
0000
0000
3002
0000
0000
0203
0300
0120
0000
0000
2000
0030
3001
0100
0010
,  // measure 133
2010
3001
0010
0200
1300
0002
0103
0010
,  // measure 134
1010
1000
1100
0100
0110
0010
0011
0001
,  // measure 135
2001
3010
0100
0010
1000
0002
0020
0000
,  // measure 136
1000
0000
0033
0000
0000
0000
2001
0000
0000
0000
3010
0000
0100
0001
0100
0010
,  // measure 137
2000
0000
3001
0010
0100
0000
0020
0000
0031
0000
1000
0000
0010
1000
0001
0000
,  // measure 138
0201
0000
0310
1000
0001
0000
0020
0000
0130
0000
0010
0000
0001
1000
0010
0000
,  // measure 139
0210
0000
0301
1000
0100
0000
0020
0000
0031
0000
1000
0000
0010
0100
0001
0000
,  // measure 140
0021
0000
0130
1000
0001
0000
0200
0000
0310
0000
0100
0000
0001
1000
0100
0000
,  // measure 141
0120
0000
0031
2001
0000
3010
0110
0100
,  // measure 142
0101
0001
1001
1000
1100
0100
0110
0010
,  // measure 143
0012
1003
0010
0210
0301
1000
0010
0000
,  // measure 144
0420
0000
0000
0330
,  // measure 145
0100
0001
1000
0200
0000
0310
0100
1000
,  // measure 146
0001
0100
0001
0020
0000
0031
0100
0000
,  // measure 147
0001
1000
0100
0020
0000
0130
1000
0001
,  // measure 148
0100
0010
1000
0002
0000
0013
0100
0000
,  // measure 149
1000
0001
0100
0020
0000
1030
0001
0010
,  // measure 150
0100
0010
0001
2000
0000
3001
0100
0000
,  // measure 151
0110
0000
0010
1000
0001
0000
0010
0000
0210
0000
1300
0000
0001
0000
1000
0000
,  // measure 152
1020
0000
0130
0001
0010
0000
0100
0000
1000
0000
1000
0000
0000
0000
2020
0000
,  // measure 153
0000
0000
0000
0000
,  // measure 154
3030
0000
0000
0000
;
